#TITLE:[3-X] Electronic Slight of Hand;
#SUBTITLE:;
#ARTIST:Buckethead;
#TITLETRANSLIT:;
#SUBTITLETRANSLIT:;
#ARTISTTRANSLIT:;
#CREDIT:;
#BANNER:../Beast 4 - bn.png;
#BACKGROUND:../Beast 4 - bg.png;
#LYRICSPATH:;
#CDTITLE:;
#MUSIC:Electronic Slight of Hand.ogg;
#OFFSET:0.950;
#SAMPLESTART:51.921;
#SAMPLELENGTH:16.000;
#SELECTABLE:YES;
#BPMS:0.000=240.000;
#STOPS:;
#BGCHANGES:;
// cache tags:
#FIRSTBEAT:4.000;
#LASTBEAT:631.000;
#SONGFILENAME:Songs/Beast Aoreo BEAST! 4/Electronic Slight of Hand - [Aoreo]/Electronic Slight of Hand.sm;
#HASMUSIC:1;
#HASBANNER:1;
#MUSICLENGTH:161.309;
// end cache tags

//---------------dance-single - J. Nero----------------
#NOTES:
     dance-single:
     J. Nero:
     Challenge:
     16:
     1.000,1.000,0.056,0.440,1.000,1293.000,9.000,71.000,0.000,0.000:
0000
0000
0000
0000
,
0001
0100
0001
1000
0010
0100
0010
1000
0001
0010
0100
1000
0001
0010
0001
1000
,
0100
1000
0001
0100
0010
0100
0001
1000
0100
0010
0001
1000
0100
1000
0001
0010
,
0001
1000
0010
0100
0010
1000
0001
0100
0001
1000
0100
0010
0001
1000
0100
1000
,
0001
0100
0010
0100
0001
1000
0010
0100
0001
1000
0100
1000
0001
0010
0100
1000
,
0001
0100
0001
1000
0010
0100
0010
1000
0001
0010
0100
1000
0001
0100
0001
1000
,
0010
0100
0010
1000
0001
0010
0100
1000
0001
0100
0001
1000
0010
0100
0010
1000
,
0001
0100
0001
1000
0100
0010
0100
1000
0001
0100
0001
1000
0010
0100
0010
1000
,
0001
0100
0001
1000
0010
0100
0001
1000
0100
1000
0001
0010
0001
1000
0010
0100
,
0010
1000
0001
0100
0001
1000
0100
0010
0001
1000
0100
1000
0001
0100
0010
0100
,
0001
1000
0001
0100
0010
0100
0001
1000
0100
0010
0001
1000
0001
0100
0001
1000
,
0010
0100
0010
1000
0001
1000
0100
0010
0001
1000
0100
1000
0001
0100
0010
0100
,
0001
1000
0001
0010
0100
1000
0001
0010
0001
1000
0100
0010
0001
1000
0001
0100
,
0010
0100
0001
1000
0001
0100
0010
0100
0001
1000
0100
1000
0001
0010
0100
0010
,
0001
1000
0100
1000
0001
0100
0010
0100
0001
1000
0010
0100
0010
1000
0001
0010
,
0001
1000
0100
1000
0001
0100
0010
0100
0001
1000
0100
0010
0001
1000
0001
0010
,
0001
1000
0100
1000
0001
0100
0010
0100
0001
1000
0001
0100
0010
1000
0001
0100
,
0001
0100
0001
1000
0100
0010
0001
1000
,
0100
1000
0001
1000
0010
0100
0010
0100
,
0001
1000
0001
0100
0001
0010
0100
1000
,
0001
0010
0001
0010
0100
1000
0100
1000
,
0001
0100
0010
0100
0001
1000
0100
0010
,
0001
0100
0001
0100
0010
1000
0010
1000
,
0001
0010
0100
1000
0001
0100
0010
1000
,
0001
0010
0100
1000
0001
0100
0010
1000
,
0002
0000
2003
3200
,
0000
1300
1000
1000
,
0002
0000
0203
0320
,
0000
0130
0100
0100
,
0002
0000
2003
3200
,
0000
0310
0010
0010
,
0002
0003
0100
0000
0002
0003
1000
0000
,
0200
0300
1000
0000
0020
0030
0100
0000
,
0002
0000
2003
0000
,
3100
0010
0100
1000
0001
0100
0010
0100
,
0002
0000
2003
0000
,
3001
0100
0010
0100
0001
1000
0100
0010
,
0002
0000
2003
0000
,
3001
0100
0010
0100
0001
1000
0100
0010
,
0002
0000
0203
0000
,
0310
1000
0010
0100
0001
0010
0100
1000
,
0001
0000
0100
0001
0000
0100
0010
1000
,
0100
1000
0100
1000
0100
0010
0001
1000
,
0010
0000
1000
0100
0000
1000
0001
0100
,
0010
0200
0000
0301
1000
0200
0000
1300
,
0010
0000
0100
0010
0000
0100
0001
1000
,
0001
1000
0001
1000
0100
0010
0001
1000
,
0010
0000
0100
0010
0000
0100
0001
1000
,
0010
0200
0000
0301
1000
0200
0000
1300
,
0001
0100
0001
1000
0100
0010
0001
1000
0010
0100
0010
1000
0001
0010
0100
1000
,
0001
0100
0001
1000
0010
1000
0001
0100
0001
1000
0100
1000
0001
0010
0100
1000
,
0001
0100
0001
1000
0100
0010
0001
1000
,
0001
0100
0010
0100
0001
0000
0000
0000
,
1000
0100
1000
0001
0100
0001
1000
0100
0010
0001
1000
0100
1000
0001
0100
0010
,
0100
0001
1000
0100
0010
0001
1000
0100
1000
0001
0100
0010
0100
0001
1000
0010
,
1000
0010
0100
0001
0010
0100
1000
0001
,
1000
0010
0100
0001
1000
0000
0000
0000
,
0001
0100
0001
1000
0100
1000
0001
0100
0010
0100
0001
1000
0100
1000
0001
0100
,
0001
1000
0100
0010
0001
1000
0001
0100
0010
0100
0001
1000
0001
0010
0100
1000
,
0001
1000
0100
0010
0001
1000
0010
1000
,
0100
0010
0001
1000
0001
0000
0000
0000
,
1000
0100
1000
0001
0100
0010
0100
0001
1000
0100
0010
0001
1000
0100
1000
0001
,
0010
0100
1000
0001
0100
0001
1000
0010
0100
0010
1000
0001
1000
0100
0010
0001
,
1000
0100
0010
0100
1000
0001
0010
0100
,
1000
0001
0100
0010
0100
0000
0000
0000
,
0001
0010
0100
1000
0001
0100
0010
0100
,
0001
1000
0100
0010
0001
0000
0000
0000
,
1000
0100
0010
0100
1000
0001
0100
0010
,
0100
0001
1000
0100
0010
0000
0000
0000
,
0001
0010
0100
0010
0001
1000
0010
0100
,
0010
1000
0001
0100
0001
1000
0000
0000
,
0001
0100
0001
0010
,
0100
1000
0001
1000
,
0100
0010
0001
1000
,
0100
0000
1000
0000
0002
0000
0000
0003
,
1001
1000
1010
0010
,
0110
0100
0101
0001
,
1001
1000
1100
0100
,
0110
0010
0011
0001
,
1001
1000
0200
1300
,
0002
0103
0020
0230
,
0301
0020
0230
2300
,
3001
0200
0320
0130
,
0002
0003
1000
0000
0200
0000
0310
0000
,
0002
1003
0200
2300
,
3001
0200
0310
0200
,
0301
2000
3200
0310
,
0002
0003
1000
0000
0020
0000
0130
0000
,
0002
0013
0200
2300
,
3001
0020
0230
2300
,
3001
0200
0320
0130
,
0002
0013
0200
1300
,
0002
0103
0020
2030
,
3001
0200
0302
0023
,
0130
2000
3001
0100
,
0001
0000
0000
0000
1000
0100
1000
0001
0100
0000
0000
0000
0001
0100
0001
1000
,
0010
0000
0000
0000
1000
0100
0010
0001
1000
0000
0000
0000
0001
0010
0100
1000
,
0001
0000
0000
0000
1000
0010
0100
0001
1000
0000
0000
0000
0001
0100
0010
1000
,
0001
0000
0000
0000
1000
0100
1000
0001
0010
0000
0000
0000
0001
0100
0001
1000
,
0100
0000
0000
0000
1000
0010
1000
0001
0100
0000
0000
0000
0001
0010
0001
1000
,
0100
0000
0000
0000
1000
0010
0100
0001
1000
0000
0000
0000
0001
0100
0010
1000
,
0001
0000
0000
0000
1000
0100
0010
0001
1000
0000
0000
0000
0001
0010
0100
1000
,
0001
0000
0000
0000
1000
0010
0100
0001
0100
0000
0000
0000
0001
1000
0010
0100
,
0010
0000
0000
0000
1000
0100
1000
0001
0100
0000
0000
0000
0001
0100
0001
1000
,
0010
0000
0000
0000
1000
0100
0010
0001
1000
0000
0000
0000
0001
0010
0100
1000
,
0001
0000
0000
0000
1000
0010
0100
0001
1000
0000
0000
0000
0001
0100
0010
1000
,
0001
0000
0000
0000
1000
0100
1000
0001
0010
0000
0000
0000
0001
0100
0001
1000
,
0100
0000
0000
0000
1000
0010
1000
0001
0100
0000
0000
0000
0001
0010
0001
1000
,
0100
0000
0000
0000
1000
0010
0100
0001
1000
0000
0000
0000
0001
0100
0010
1000
,
0001
0000
0000
0000
1000
0100
0010
0001
1000
0000
0000
0000
0001
0010
0100
1000
,
0001
0000
0000
0000
1000
0010
0100
0001
0100
0000
0000
0000
0001
1000
0010
0100
,
0001
1000
0100
1000
0000
0000
0001
0010
0100
1000
0000
0000
,
0001
0100
0001
1000
0000
0000
0010
0100
0001
1000
0000
0000
,
0100
0010
0001
1000
0000
0000
0010
1000
0001
0100
0000
0000
,
0001
0010
0100
1000
0000
0000
0001
0100
0001
1000
0000
0000
,
0010
0100
0001
1000
0000
0000
0100
0010
0001
1000
0000
0000
,
0001
0100
0010
1000
0000
0000
0001
0010
0100
1000
0000
0000
,
0001
0100
0001
1000
0000
0000
0100
0010
0001
1000
0000
0000
,
0010
0100
0010
1000
0000
0000
0001
0100
0001
1000
0000
0000
,
0200
0000
1000
0000
,
1000
0000
1000
0000
,
2300
0000
0001
0001
,
0001
0000
3002
0000
,
0203
0000
0010
0000
,
0010
0000
0010
0000
,
0302
0000
0100
0100
,
0100
0000
0203
0000
,
0301
1000
0100
1000
0001
0010
0100
1000
,
0001
0100
0010
0100
0001
1000
0100
0010
,
0001
1000
0100
1000
0001
0100
0010
0100
,
0001
1000
0100
0010
0001
1000
0010
0100
,
0010
1000
0001
0010
0100
1000
0001
0100
,
0001
1000
0010
0100
0010
1000
0001
0010
,
0100
1000
0001
0010
0001
1000
0010
0100
,
0010
1000
0001
1000
0100
0010
0100
1000
,
0001
1000
0100
1000
0001
0010
0100
1000
,
0001
0100
0010
0100
0001
1000
0100
0010
,
0001
1000
0100
1000
0001
0100
0010
0100
,
0001
1000
0100
0010
0001
1000
0010
0100
,
0010
1000
0001
0010
0100
1000
0001
0100
,
0001
1000
0010
0100
0010
1000
0001
0010
,
0100
1000
0001
0010
0001
1000
0010
0100
,
0010
1000
0001
1000
0100
0010
0100
1000
,
0002
0000
0000
0000
,
0000
0000
0000
0000
,
0003
0000
0000
0000
0000
0000
0000
0000
1000
0010
0100
0001
0100
0010
1000
0001
,
1000
0100
0010
0001
1000
0100
1000
0001
0100
0001
1000
0010
0100
0010
1000
0001
,
0100
0001
1000
0001
0010
0100
1000
0001
0010
0001
1000
0001
0100
0010
0100
0001
,
1000
0010
1000
0001
1000
0100
0010
0001
1000
0100
1000
0001
0100
0001
1000
0010
,
0100
0010
1000
0001
0010
0100
1000
0001
0100
0001
1000
0010
0100
0010
1000
0001
,
0100
0001
1000
0100
0010
0100
1000
0001
1000
0010
0100
0010
1000
0001
0100
0001
,
1000
0100
0010
0001
1000
0100
1000
0001
0100
0010
1000
0001
1000
0100
0010
0001
,
1000
0100
1000
0001
0100
0001
1000
0010
0100
0010
1000
0001
0100
0001
1000
0100
,
1000
0001
0010
0100
1000
0001
0100
0001
1000
0100
1000
0001
0100
0000
0000
0000
,
0001
0010
0100
1000
0001
0000
0000
0000
1000
0100
1000
0001
0100
0000
0000
0000
,
0001
0100
0001
1000
0010
0000
0000
0000
1000
0100
0010
0001
1000
0000
0000
0000
,
0001
0010
0100
1000
0001
0000
0000
0000
1000
0010
0100
0001
1000
0000
0000
0000
,
0001
0100
0010
1000
0001
0000
0000
0000
2000
0000
0000
0000
3000
0000
0000
0000
;
