#TITLE:Zombie Nation;
#SUBTITLE:KernKraft 400;
#ARTIST:Stepped By ObScUrE;
#TITLETRANSLIT:;
#SUBTITLETRANSLIT:;
#ARTISTTRANSLIT:;
#CREDIT:;
#BANNER:;
#BACKGROUND:zombienation2.jpg;
#LYRICSPATH:;
#CDTITLE:;
#MUSIC:Zombie Nation.mp3;
#OFFSET:-0.060;
#SAMPLESTART:41.379;
#SAMPLELENGTH:12.000;
#SELECTABLE:YES;
#BPMS:0.000=145.000;
#STOPS:;
#BGCHANGES:;
// cache tags:
#FIRSTBEAT:0.000;
#LASTBEAT:256.000;
#SONGFILENAME:Songs/other/Zombie/Zombienation.sm;
#HASMUSIC:1;
#HASBANNER:0;
#MUSICLENGTH:106.091;
// end cache tags

//---------------dance-single - ----------------
#NOTES:
     dance-single:
     :
     Easy:
     5:
     0.335,0.392,0.085,0.000,0.000,240.000,9.000,0.000,0.000,0.000:
1000
0000
0010
0000
,
0001
0000
0100
0000
,
0010
0000
1000
0000
,
0100
0000
0010
0000
,
0001
0000
1000
0000
,
0100
0000
0010
0000
,
0100
0000
1000
0000
,
0100
0000
0001
0000
,
1000
0000
1000
1000
0000
0000
1000
0000
,
0000
0000
0001
0001
0000
0000
0001
0000
,
0000
0000
1000
1000
0000
0000
0001
0000
,
0000
1000
1000
1000
0000
0001
0001
0001
,
0000
0000
1000
1000
0000
0000
0001
0000
,
0000
0000
0010
0010
0000
0000
0100
0000
,
0000
0000
0100
0100
0000
0000
0010
0000
,
0000
0010
0010
0010
0000
0100
0100
0100
,
1000
0001
0100
1000
,
0100
0001
0010
0100
,
1000
0100
0001
0010
,
0100
1000
0100
0001
,
0100
1000
0010
1000
,
0010
1000
0010
1000
,
0001
0100
1000
0010
,
1000
0010
1000
0100
,
0110
0001
0100
1000
,
0010
1000
0010
1000
,
0001
0100
1000
0100
,
1000
0100
1000
0100
,
0010
0001
0100
1000
,
0010
1000
0010
1000
,
0010
0110
0001
0100
,
1000
0001
1000
0001
,
1000
1000
1000
1000
,
0001
0001
0001
0001
,
0010
0010
0010
0010
,
0100
0100
0100
0100
,
1000
1000
1000
1000
,
0100
0100
0100
0100
,
0110
0110
0110
0110
,
0001
0100
1000
0010
,
1000
0010
1000
0001
,
0010
0001
0010
0001
,
0010
1000
0010
0100
,
0010
0100
0010
1000
,
0010
1000
0100
0001
,
0110
1000
0100
0010
,
0001
0100
1000
0010
,
1000
0010
1000
0001
,
0010
0100
0010
0100
,
0010
0100
0010
0100
,
0010
0001
0010
0001
,
0010
0001
0010
0001
,
1000
0010
1000
0010
,
1000
0010
1000
0010
,
1000
0001
1000
0001
,
1000
0001
1000
1001
,
1001
1000
0010
1000
,
0010
1000
0010
1000
,
0010
0100
0010
0100
,
0010
0001
0010
0001
,
0010
0100
0010
0100
,
0010
0100
1000
0010
,
1000
0010
1000
0010
,
0001
0010
0100
0010
,
0100
0000
0000
0000
;

//---------------dance-single - ----------------
#NOTES:
     dance-single:
     :
     Medium:
     6:
     0.388,0.392,0.254,0.000,0.000,261.000,27.000,0.000,0.000,0.000:
1000
0010
0100
0001
,
0100
1000
0010
1000
,
0010
1000
1010
0001
,
0100
1000
0010
1000
,
0010
0100
0001
0100
,
1000
0001
1000
0001
,
1000
0010
1000
0010
,
1000
0010
1000
0001
,
1000
0000
1000
1000
0000
0000
1000
0000
,
0001
0000
0001
0001
0000
0000
0001
0000
,
1000
0000
1000
1000
0000
0000
1000
0000
,
0000
1000
1000
1000
0000
0001
0001
0001
,
0010
0000
0100
0010
0000
0000
0100
0000
,
0010
0000
0100
0010
0000
0000
0100
0000
,
0010
0000
0100
0010
0000
0000
1000
0000
,
0000
1000
1000
1000
0000
0001
0001
0001
,
0010
1000
0010
1000
,
1010
1010
0011
0011
,
0010
0100
0010
0100
,
0010
0100
1000
0010
,
1000
0010
1000
0001
,
0100
0010
0100
1000
,
0010
1000
0001
0100
,
0010
0100
0010
0100
,
0110
1000
0010
1000
,
0001
0100
1000
0010
,
1000
0010
1000
0010
,
1000
1000
1000
1000
,
1000
0010
0001
0100
,
0010
0100
1000
0010
,
0100
0010
0100
0001
,
0010
0100
0010
0100
,
0110
1000
0010
1000
,
0010
1000
0001
0100
,
1000
0010
1000
0110
,
0001
0110
0001
0110
,
1000
0010
1000
0010
,
1000
0001
0010
0001
,
0010
0001
0010
0110
,
1000
0110
1000
0110
,
1000
0001
1000
0001
,
1000
0010
0100
0010
,
0100
0010
0100
0010
,
1000
0010
1000
0010
,
1000
0001
0100
1000
,
0010
1000
0010
1000
,
0001
0100
0001
0100
,
1000
0010
1000
0010
,
1010
1000
0010
1000
,
0011
0001
0010
0001
,
0011
0001
0010
0001
,
1010
0010
1000
0010
,
1010
0010
1000
0010
,
0110
0010
0100
0010
,
0110
0001
0010
0001
,
0011
0001
0010
0001
,
1000
0001
1000
0001
,
1001
1000
0001
1000
,
0001
0010
0100
0010
,
1000
0010
1000
0010
,
1010
0001
0010
0001
,
0011
1000
0010
1000
,
1010
0001
0010
0001
,
0110
1000
0001
1000
,
1001
0000
0000
0000
;

//---------------dance-single - ----------------
#NOTES:
     dance-single:
     :
     Hard:
     8:
     0.588,0.542,0.302,0.000,0.000,405.000,32.000,0.000,0.000,0.000:
1000
0100
1000
0100
1000
0100
0000
0010
,
0000
0010
0100
0010
0100
0010
0100
0010
,
0010
0000
0010
0001
0010
0000
0010
0001
,
0000
0001
0010
0001
0000
0001
0010
0001
,
0000
1000
0001
1000
0001
1000
0000
1000
,
0000
1000
0001
1000
0010
1000
0010
1000
,
0010
0000
0010
1000
0010
0000
0010
1000
,
0000
0010
1000
0010
0000
0010
0000
0010
,
0000
0000
1001
1001
0000
0000
1001
0000
,
0000
0000
0110
0110
0000
0000
0110
0000
,
0000
0000
1001
1001
0000
0000
1001
0000
,
0000
1010
1010
1010
0000
0101
0101
0101
,
0000
0000
1001
1001
0000
0000
0110
0000
,
0000
0000
1010
1010
0000
0000
0101
0000
,
0000
0000
1010
1010
0000
0000
0011
0000
,
0000
1001
1001
1001
0000
0110
0110
0110
,
0000
1000
0010
1000
0010
1000
0000
1000
,
0000
1000
0010
1000
0010
1000
0001
0100
,
0001
0000
0001
0100
0001
0000
0001
0100
,
0000
0001
0100
0001
0000
0001
0100
0001
,
0000
1000
0001
1000
0001
1000
0000
1000
,
0000
1000
0001
1000
0001
1000
0001
1000
,
0010
0000
0000
1000
0010
0000
1000
0010
,
0000
1000
0010
1000
0000
1000
0010
1000
,
0000
1000
0001
1000
0001
1000
0000
1000
,
0000
0001
1000
0010
1000
0010
1000
0010
,
1000
0000
1000
0010
1000
0000
1000
0001
,
0000
0001
1000
0001
0000
0001
1000
0001
,
0000
0001
0010
0001
0010
0001
0000
0001
,
0000
0001
0010
0001
0100
0001
0100
0001
,
0100
0000
0000
0100
0001
0000
0001
0100
,
0000
0001
0100
0001
0000
0001
0100
0001
,
1000
0001
1000
0001
1000
0001
1000
0000
,
1000
0010
1000
0010
1000
0010
1000
0000
,
1000
0001
1000
0001
1000
0001
1000
0000
,
0010
0100
0010
0100
0010
0100
0010
0000
,
1000
0001
1000
0001
1000
0001
1000
0000
,
0010
0100
0010
0100
0010
0100
0010
0000
,
0001
0010
0001
0010
0001
0010
0001
0000
,
1000
0001
1000
0001
1000
0001
1000
0001
,
1000
0001
1000
0001
1000
0001
1000
0000
,
0010
1000
0010
1000
0010
1000
0010
0000
,
0001
0010
0001
0010
0001
0010
0001
0000
,
0001
0100
1000
0100
0001
0100
0100
0000
,
1000
0100
1000
0100
1000
0100
1000
0000
,
0010
0001
0010
0001
0100
0001
0001
0000
,
0001
0100
0001
0100
0001
0100
0001
0000
,
0001
1000
0001
1000
0001
1000
0001
1000
,
0010
1000
0010
1000
0010
1000
0010
0000
,
0001
0100
0001
0100
0001
0100
0001
0000
,
0010
0100
0010
1000
0010
1000
0010
0000
,
0001
0010
0001
0100
0010
0100
1000
0000
,
0010
1000
0010
0100
0010
0001
0010
0000
,
0001
0010
0001
0100
0010
1000
1000
0000
,
1000
0010
1000
0010
0001
0010
0001
0000
,
0010
0100
0010
1000
0010
1000
0010
0000
,
1000
0001
1000
0001
1000
0001
1000
0000
,
1000
0001
1000
0001
1000
0001
1000
0000
,
0010
1000
0010
1000
0010
1000
0010
0000
,
0001
0010
0001
0010
0001
0010
0001
0000
,
0010
0001
0010
0001
0010
0001
0010
0000
,
0100
0010
1000
0010
1000
0001
1000
0000
,
1000
0010
1000
0010
0100
0010
0001
0000
,
0001
1000
0010
1000
0010
1000
1001
1001
;
