#TITLE:Listen To Your Heart;
#SUBTITLE:;
#ARTIST:DHT;
#TITLETRANSLIT:;
#SUBTITLETRANSLIT:;
#ARTISTTRANSLIT:;
#CREDIT:;
#BANNER:Listen To Your Heart.jpg;
#BACKGROUND:Listen To Your Heart-bg.jpg;
#LYRICSPATH:;
#CDTITLE:;
#MUSIC:Listen To Your Heart.ogg;
#OFFSET:-0.040;
#SAMPLESTART:38.900;
#SAMPLELENGTH:12.000;
#SELECTABLE:YES;
#BPMS:0.000=144.940,96.000=72.470,128.000=144.940,224.000=72.470,237.000=144.940,243.000=72.470;
#STOPS:;
#BGCHANGES:;
// cache tags:
#FIRSTBEAT:0.000;
#LASTBEAT:247.500;
#SONGFILENAME:Songs/lvsb tourney pack/macgravel - Listen To Your Heart/Listen To Your Heart.sm;
#HASMUSIC:1;
#HASBANNER:0;
#MUSICLENGTH:105.000;
// end cache tags

//---------------dance-single - ----------------
#NOTES:
     dance-single:
     :
     Challenge:
     10:
     0.888,0.972,0.438,0.848,0.576,516.000,46.000,89.000,104.000,15.000:








1001
0100
1000
0010
1000
0100
0011
0001
,
0100
0010
0100
0001
0010
0100
1000
0010
,
1100
0010
1000
0100
0010
0001
0110
0001
,
0100
0010
0100
0001
0010
0100
1000
0010
,
0110
0001
0100
0010
0100
0001
0011
0001
,
0010
0100
0010
0001
0100
0010
0100
0001
,
1010
0100
1000
0010
1000
0100
0011
0100
,
1000
0100
0010
0001
0100
0010
1000
0100
0010
0100
1000
0001
0100
0010
1000
0100
,
0011
0001
0200
0310
0200
0301
0120
0130
,
2000
3010
2000
3100
0020
0031
0200
0310
,
0201
0301
0020
0130
2000
3001
2MM1
0M0M
,
0M0M
3MM0
0100
1000
0010
1000
0100
0010
,
0101
1000
0002
0103
0002
1003
0120
0130
,
0020
1030
0200
0310
0002
0103
0002
1003
,
1002
0000
0103
0000
0002
0000
0013
0000
0200
0000
1300
0000
2M1M
0000
0M0M
00M0
,
0M0M
0000
3M0M
0000
0100
0000
0010
0000
0100
0000
1000
0000
0001
0100
0000
0000
,
1001
0001
0020
0130
2000
3010
1002
0023
,
0130
0001
0010
0100
0010
0002
0203
0310
,
0120
0130
2000
3100
0020
0130
0021
0031
,
0010
0001
0100
0001
0200
0320
0230
0302
,
0213
0302
1003
0010
1000
0100
1010
0010
,
1000
0100
0020
0031
0200
0310
2000
0MMM
,
00M1
00M0
01M0
00M0
0001
3000
0010
0100
,
0001
0010
0100
1000
0010
1000
0100
0010
0001
0100
0010
0100
0001
0010
0100
1000
,
02M0
0000
M010
0000
10M0
0300
0020
0000
0000
0000
000M
0000
M002
0000
1033
0000
,
0M20
0000
M100
0000
203M
0000
3002
0000
0000
0000
0MM0
0000
0020
0230
M320
0233
,
2300
0000
010M
0000
0001
3000
0002
0000
00M0
0000
M000
0020
2030
3020
0030
0003
,
M002
0000
20M0
0000
0020
3033
2000
0000
0000
0000
0M0M
0000
0200
0302
0000
3003
,
0200
0000
200M
0000
3002
0303
M200
0001
0000
0000
0000
0000
000M
0000
M002
0303
,
2000
0000
00M2
0000
0020
3033
0002
0000
0000
0000
MM00
0000
1000
0100
1000
0100
,
2003
0000
0M00
0000
30M0
0000
M020
0000
0000
0000
M000
0000
2M00
0000
3200
0330
,
2000
0000
0MM0
0000
000M
0000
00M2
0000
0023
0000
0M00
0032
3000
0000
0023
0030
,
0001
1000
0000
0010
0000
1000
0100
0000
0010
0000
0001
0000
0100
0000
0010
0000
,
0100
0001
0000
0010
0000
0100
1000
0000
0010
0000
1000
0000
0100
0000
0010
0000
,
0001
0100
0000
0010
0000
0100
0010
0000
0100
0000
0001
0000
0010
0000
0100
0000
,
0010
0100
0000
1000
0000
0010
1000
0000
0100
0000
1000
0000
0010
0000
1000
0000
,
1100
1000
0000
0010
0000
1000
0100
0000
0010
0000
0001
0000
0100
0000
0010
0000
,
0100
0001
0000
0010
0000
0100
1000
0000
0010
0000
1000
0000
0100
0000
1000
0000
,
0001
0100
0010
0100
0001
0010
0100
1000
0010
1000
0100
0010
0001
0100
0010
0100
,
M001
01M0
M001
01M0
M001
01M0
M001
01M0
M001
01M0
M001
01M0
M001
01M0
M001
01M0
,
M001
0010
0000
0001
0000
0100
0010
0000
0100
0000
0001
0000
0110
0000
0100
0000
,
1000
0010
0000
1000
0000
0100
0010
0000
0001
0000
0100
0000
1010
0000
0100
0000
,
0001
0010
0000
0001
0000
0010
0100
0000
0010
0000
0100
0000
0110
0000
0100
0000
,
1000
0100
0000
1000
0000
0100
1000
0000
0010
0000
1000
0000
0110
0000
1000
0000
,
0010
0100
0000
0010
0000
0100
0010
0000
0100
0000
0010
0000
0101
0000
0010
0000
,
0100
0001
0000
0010
0000
0001
0010
0000
0100
0000
1000
0000
0110
0000
1000
0000
,
0001
0100
0000
0010
0000
0100
0001
0000
0010
0000
0100
0000
1001
0000
0010
0000
,
1000
0100
0000
1000
0000
0010
0100
0000
0001
0000
0100
0000
1010
0000
0100
0000
,
0001
0000
0010
0100
0000
0110
0000
0100
0010
0000
0001
0000
1000
0000
0010
0100
,
0000
0110
0000
0100
0010
0000
1000
0000
0001
0000
0100
0000
0010
0000
1000
0100
,
0000
1100
0000
0100
1000
0000
0010
0000
0100
0000
0001
1000
0000
1001
0000
1000
,
0001
0000
0010
0000
0100
0000
0010
0000
0001
0000
1000
0000
0100
0000
1000
0010
,
0000
1010
0000
0010
1000
0010
1000
0000
0001
0000
0100
0000
0010
0000
0100
0000
,
0001
0010
0000
0011
0000
0010
0001
0000
1000
0000
0100
0000
0010
0000
0001
0000
,
0100
0010
0000
0110
0000
0010
0100
0000
0001
0000
0010
0000
0001
0000
0010
0000
,
0001
0010
0001
0010
0100
0010
0100
0010
0001
1000
0001
1000
0010
0100
0010
0100
,
0001
1000
0010
0110
0000
1111
0000
0001
,
0110
0000
0100
0000
1001
0000
1100
0000
0100
0000
0100
0000
0200
0320
0032
0203
,
0320
1030
0001
0100
0010
1000
0110
0000
0100
0000
0100
0000
0100
0000
0MM1
1000
,
0220
M00M
0000
M00M
0000
M00M
0000
M00M
,
0000
M00M
0000
M00M
0000
M33M
2002
0MM0
,
0000
0MM0
0000
0MM0
0000
3MM3
0000
MMMM
;

//---------------dance-single - ----------------
#NOTES:
     dance-single:
     :
     Hard:
     8:
     0.839,1.000,0.257,1.000,0.481,476.000,27.000,114.000,20.000,0.000:







2000
3100
0010
0001
0100
0010
0200
0301
,
0010
0100
1000
0010
1000
0100
1000
0010
,
2000
3100
0010
0001
0100
0001
0020
0031
,
0100
0010
0100
0001
0010
1000
0010
0001
,
0200
1300
0100
0010
0100
0001
0020
0130
,
1000
0010
1000
0100
0010
0100
1000
0010
,
0200
0301
0010
0100
0010
0001
0200
0310
,
1000
0100
1000
0000
0001
0100
0001
0000
0100
0010
0100
0000
0010
0100
0010
0000
,
0200
0301
0200
0310
2000
3001
0020
0130
,
2000
3001
0200
0310
2000
3001
0200
0310
,
0200
0310
2000
3001
0200
0310
2020
0000
,
0000
3030
1001
0000
0101
0000
0110
0000
,
1001
0100
0020
1030
0002
0103
0020
1030
,
0200
0310
0002
1003
0020
1030
0002
0103
,
0020
1030
0200
0310
0002
0103
0220
0000
,
0000
0000
0330
0000
0001
0000
0100
0000
0001
0000
0100
0000
0001
0100
0000
0000
,
1001
0000
0002
0103
0020
1030
0200
0320
,
0031
0100
0010
1000
0100
0020
0230
1300
,
0020
1030
0200
0310
0002
0103
0020
1030
,
0001
0100
0010
1000
0200
0320
0032
0023
,
0230
0320
0031
0100
0010
0100
1000
0100
,
0001
0010
0200
1300
0200
0310
0200
0000
,
1000
0000
0001
0000
1000
0300
0100
0000
,
0010
0001
0010
0000
0001
1000
0001
0000
2000
0000
3002
0000
2003
0000
3002
0003
,
2001
0000
0000
0000
0000
3000
0102
0000
0000
0000
0000
0000
2003
0000
3200
0300
,
0120
0000
0000
0000
0032
0000
0000
0000
0023
0000
0030
0000
0210
0000
0000
0000
0000
0000
0000
0000
0300
0000
0000
0000
2000
0000
3020
0000
0230
0000
0320
0030
,
2001
0000
0000
0000
0000
3000
0120
0000
0000
0000
0000
2030
3200
0320
0030
0000
,
1002
0000
0203
0000
0320
0030
2001
0000
0000
0000
0000
3000
0002
2003
3000
0000
,
0201
0000
0320
0000
2030
3000
0120
2030
0000
3000
0000
MMMM
0000
0000
0002
0003
,
2100
0000
0000
0000
3200
0000
0000
0000
0320
0000
0030
0000
1002
0000
0000
0000
0000
0000
0003
0000
0000
0000
0000
0000
2000
0000
3200
0000
0320
0000
0230
0300
,
2001
0000
3000
0000
MMMM
0000
0110
0000
0000
MMMM
0000
0000
0002
0000
2003
0000
,
3000
0000
0000
MMMM
0000
0000
0002
0000
2003
0000
0000
3200
0000
0000
0320
0000
,
0031
0010
0000
0001
0000
0010
0001
0000
0010
0000
0001
0000
0010
0000
0001
0000
,
0010
0100
0000
0010
0000
0100
0010
0000
0100
0000
0010
0000
0100
0000
0010
0000
,
0100
1000
0000
0100
0000
1000
0100
0000
1000
0000
0100
0000
1000
0000
0100
0000
,
1000
0010
0000
1000
0000
0010
1000
0000
0010
0000
1000
0000
0010
0000
1000
0000
,
0010
0100
0000
0010
0000
0100
0010
0000
0100
0000
0010
0000
0100
0000
0010
0000
,
0100
0001
0000
0100
0000
0001
0100
0000
0001
0000
0100
0000
0001
0000
0100
0000
,
0001
0010
0000
0001
0000
0010
0001
0000
0010
0000
0000
0001
0010
0000
0001
0000
,
0010
0001
0010
0000
0001
0010
0001
0000
0010
0100
0010
0000
0100
0010
0100
0000
,
1000
0001
0000
1000
0000
0001
1000
0000
0001
0000
1000
0000
0001
0000
1000
0000
,
0001
0010
0000
0001
0000
0010
0001
0000
0010
0000
0001
0000
0010
0000
0001
0000
,
0010
0100
0000
0010
0000
0100
0010
0000
0100
0000
0010
0000
0100
0000
0010
0000
,
0100
1000
0000
0100
0000
1000
0100
0000
1000
0000
0100
0000
1000
0000
0100
0000
,
1000
0010
0000
1000
0000
0010
1000
0000
0010
0000
1000
0000
0010
0000
1000
0000
,
0100
1000
0000
0100
0000
1000
0100
0000
1000
0000
0100
0000
1000
0000
0100
0000
,
0010
0100
0000
0010
0000
0100
0010
0000
0100
0000
0010
0000
0100
0000
0010
0000
,
0001
0010
0000
0001
0000
0010
0001
0000
0010
0000
0001
0000
0010
0000
0001
0000
,
1000
0000
0001
1000
0000
1000
0000
1000
0001
0000
0010
0000
0100
0000
1000
0100
,
0000
0100
0000
0100
1000
0000
0100
0000
0010
0000
0100
0000
1000
0000
0010
0100
,
0000
0100
0000
0100
0010
0000
1000
0000
0001
0000
0100
0010
0000
0010
0000
0010
,
0100
0000
0001
0000
0010
0000
0100
0000
1000
0000
0010
0000
0100
0000
0001
0010
,
0000
0010
0000
0010
0000
0010
0001
0000
0100
0000
0010
0000
1000
0000
0100
0000
,
1000
0010
0000
0010
0000
0010
1000
0000
0001
0000
0100
0000
0010
0000
0100
0000
,
0001
0010
0000
0010
0000
0010
0001
0000
0100
0000
0010
0000
1000
0000
0100
0000
,
1000
0001
0000
0001
0000
0001
1000
0000
0020
0030
0200
0300
0002
0013
0200
0300
,
1001
1000
0100
0110
0000
0001
0000
0001
,
0101
0000
0001
0000
1010
0000
0110
0000
0100
0000
0100
0000
0200
0302
0023
0230
,
2300
3010
1000
0100
0010
0001
0200
0000
0000
0000
0000
0000
0000
0000
0301
1000
,
0002
0200
0000
0000
,
0000
0000
0000
0000
0303
0M0M
2002
0000
,
0000
0000
0000
0000
0000
0000
3003
M00M
;

//---------------dance-single - Blank----------------
#NOTES:
     dance-single:
     Blank:
     Easy:
     4:
     0.468,0.735,0.229,0.533,0.119,264.000,24.000,56.000,0.000,0.000:



1001
0100
0010
0011
,
0001
0100
0010
0100
,
0101
0001
1000
1100
,
0100
0010
0100
1000
,
0110
0010
0100
0101
,
0001
0010
0100
0010
,
0011
0100
0010
0110
,
1000
0100
1000
0010
,
1001
1000
1000
1001
,
0001
1000
0100
1000
,
1010
0100
0010
0101
,
0010
0001
1000
0010
,
1001
1000
0100
1001
,
0100
1000
0010
0001
,
1010
0100
0010
0011
,
0001
0000
0100
0000
0010
1000
0010
0000
,
1001
1000
0100
0011
,
0100
0010
0100
0001
,
0101
1000
0100
0110
,
0001
0010
0100
1000
,
1010
0100
1000
1010
,
0100
0010
0001
0100
,
0101
0001
1000
0001
,
0100
0001
0010
0001
0100
0001
0010
0001
,
0200
0000
0000
0320
0000
0000
2030
3002
,
2003
0000
0000
3200
0000
0000
0320
0032
,
0023
0000
0000
0032
0000
0000
0000
0000
,
0203
0320
0230
0320
0000
0000
2030
0000
,
3002
0203
0320
2030
0000
0000
0000
3002
,
0203
0320
2030
3200
0000
0000
0320
0032
,
0203
0000
0000
0320
0000
0000
2030
3200
,
0320
0000
0000
0000
0000
0000
0230
0000
2300
0000
0000
3020
0000
0000
0230
0000
,
0301
0000
0000
0010
0000
0000
0000
0000
0001
0000
0000
0000
0010
0000
0000
0000
,
0100
0000
0000
0010
0000
0000
0000
0000
0100
0000
0000
0000
0010
0000
0000
0000
,
0100
0000
0000
1000
0000
0000
0000
0000
0100
0000
0000
0000
1000
0000
0000
0000
,
0010
0000
0000
1000
0000
0000
0000
0000
0010
0000
0000
0000
1000
0000
0000
0000
,
0001
0000
0000
0100
0000
0000
0000
0000
0001
0000
0000
0000
0100
0000
0000
0000
,
0001
0000
0000
0010
0000
0000
0000
0000
0001
0000
0000
0000
0010
0000
0000
0000
,
0001
0000
0000
0100
0000
0000
0000
0000
0001
0000
0000
0000
0100
0000
0000
0000
,
0001
0100
0001
0100
0001
0100
0001
0100
,
0001
0000
0000
0100
0000
0000
0000
0000
0001
0000
0000
0000
0100
0000
0000
0000
,
0010
0000
0000
1000
0000
0000
0000
0000
0010
0000
0000
0000
1000
0000
0000
0000
,
0100
0000
0000
1000
0000
0000
0000
0000
0100
0000
0000
0000
1000
0000
0000
0000
,
0100
0000
0000
0010
0000
0000
0000
0000
0100
0000
0000
0000
0010
0000
0000
0000
,
0001
0000
0000
0010
0000
0000
0000
0000
0000
0001
0000
0000
0010
0000
0000
0000
,
0001
0000
0000
0100
0000
0000
0000
0000
0001
0000
0000
0000
0100
0000
0000
0000
,
0010
0000
0000
1000
0000
0000
0000
0000
0010
0000
0000
0000
1000
0000
0000
0000
,
0100
0000
0000
1000
0000
0000
0000
0000
0100
0000
0000
0000
1000
0000
0000
0000
,
0100
0000
0000
1000
0000
0000
0100
0000
1000
0000
0000
0000
0100
0000
0000
0000
,
0010
0000
0000
0001
0000
0000
0010
0000
0001
0000
0000
0000
0010
0000
0000
0000
,
0001
0000
0000
0100
0000
0000
0010
0000
0100
0000
0000
0000
0001
0000
0000
0000
,
0100
0000
0000
0010
0000
0000
1000
0000
0010
0000
0000
0000
1000
0000
0000
0000
,
0100
0000
0000
1000
0000
0000
0100
0000
0010
0000
0000
0000
0100
0000
0000
0000
,
0010
0000
0000
0001
0000
0000
0100
0000
0010
0000
0000
0000
0100
0000
0000
0000
,
0001
0000
0000
0010
0000
0000
0100
0000
1000
0000
0000
0000
0010
0000
0000
0000
,
1000
0000
0000
0100
0000
0000
0010
0000
0001
0000
0000
0000
0100
0000
0000
0000
,
0020
2030
3200
0320
0000
0032
0000
0023
,
0230
2300
3020
0230
0000
0000
0302
0023
,
0230
2300
3020
2030
0000
0000
0000
3002
,
2003
0002
0000
0000
,
0000
0000
3003
2002
,
0000
0000
0000
3003
;

//---------------dance-single - Blank----------------
#NOTES:
     dance-single:
     Blank:
     Medium:
     7:
     0.661,0.853,0.200,0.514,0.252,411.000,21.000,54.000,0.000,0.000:



1000
0001
1000
0000
0001
1000
0001
0000
,
1000
0100
0010
0000
0010
0100
1000
0000
,
0010
0100
0001
0000
0001
0100
0010
0000
,
0010
0100
0001
0000
0010
0100
0010
0000
,
0100
1000
0010
0000
1000
0100
0010
0000
,
0001
0100
0010
0000
0100
0001
1000
0000
,
0001
1000
0100
0000
0010
0100
1000
0000
,
0010
1000
0100
0010
0001
0100
0010
1000
,
0001
0101
0001
0101
,
0010
0110
0010
0110
,
1000
1100
1000
1100
,
0010
0110
0010
0110
,
0001
0011
0001
0101
,
0010
0110
0010
1010
,
1000
1100
0100
1010
,
0100
0000
0000
0000
0001
0000
0100
0000
0010
0000
0100
0000
0001
0010
0000
0000
,
1001
0000
0001
1000
0100
1000
0010
0000
,
0010
1000
0100
1000
0010
1000
0100
0000
,
0010
0001
0100
0010
0100
0001
0010
0000
,
0100
1000
0010
1000
0100
0010
0001
0000
,
0001
1000
0010
1000
0100
0010
0100
0000
,
1000
0010
1000
0001
0100
0010
0100
0000
,
0001
0010
0100
0010
0001
1000
0010
1000
,
0100
0010
0100
1000
0010
1000
0001
0100
,
0020
2030
3002
2003
0000
0000
3200
0320
,
0032
0000
0203
0000
0320
0000
0230
0000
0000
0000
0000
0000
0302
0023
0230
0320
,
0032
0000
0203
0000
0320
0000
2030
0000
0000
0000
0000
3200
0320
0032
0000
0000
,
2003
0000
3200
0000
0320
0000
0032
0000
0000
0000
0000
0000
0203
0320
0000
0000
,
0230
0000
0302
0000
0203
0000
0320
2030
0000
0000
0000
0000
0000
0000
3200
0000
,
0320
0000
0032
0000
2003
0000
3020
0000
0000
0000
0000
0000
0230
0302
0203
0302
,
0023
0000
0000
0230
0000
0000
0320
0032
,
0203
0000
0000
0000
0000
0000
0320
0000
0230
0000
0000
0302
0000
0000
0203
0000
,
0310
1000
0000
0010
0000
0000
1000
0000
0010
0000
1000
0000
0010
0000
1000
0000
,
0100
0010
0000
0001
0000
0000
0010
0000
0100
0000
0010
0000
0001
0000
0100
0000
,
0010
0100
0000
0010
0000
0000
1000
0000
0100
0000
1000
0000
0010
0000
1000
0000
,
0100
0010
0000
0100
0000
0000
0010
0000
0001
0000
0100
0000
0010
0000
0100
0000
,
0001
1000
0000
0001
0000
0000
1000
0000
0100
0000
1000
0000
0010
0000
1000
0000
,
0100
1000
0000
0100
0000
0000
1000
0000
0010
0000
0100
0000
0001
0000
0100
0000
,
0010
0100
0000
0001
0000
0000
1000
0000
0010
0000
1000
0000
0100
0000
0010
0000
,
0001
0100
0010
0100
0001
0010
0100
1000
,
0010
1000
0000
0010
0000
0000
1000
0000
0001
0000
0100
0000
0000
0010
0100
0000
,
0001
0100
0000
0001
0000
0000
0100
0000
0010
0000
1000
0000
0100
0000
0010
0000
,
0100
0010
0000
0100
0000
0000
1000
0000
0010
0000
1000
0000
0100
0000
0010
0000
,
0001
0100
0000
0001
0000
0000
0100
0000
0010
0000
0100
0000
0001
0000
1000
0000
,
0100
1000
0000
0010
0000
1000
0000
0000
0100
0000
1000
0000
0010
0000
0100
0000
,
0001
0100
0000
0010
0000
0100
0000
0000
0001
0000
0010
0000
0100
0000
0010
0000
,
0001
0010
0000
0100
0000
0000
1000
0000
0010
0000
1000
0000
0100
0000
0010
0000
,
0001
0100
0000
0010
0000
0000
0100
0000
0001
0000
1000
0000
0010
0000
1000
0000
,
0100
0000
0000
0100
0000
0000
0100
0000
0010
0000
0001
0000
0100
0000
0010
0000
,
0100
0000
0001
0000
0010
0000
0100
0000
1000
0000
0010
0000
1000
0000
0000
1000
,
0000
1000
0010
0100
0010
1000
0001
0100
,
0001
0010
0100
1000
0010
0100
0010
1000
,
0100
0000
0000
0100
0000
0000
0100
0000
0010
0000
0001
0000
0100
0000
0001
0000
,
0010
0100
1000
0010
0100
0010
0100
0001
,
0010
0000
0000
0010
0000
0000
0010
0000
0001
0000
0100
0000
0001
0000
0010
0000
,
0100
0010
0001
0100
0010
1000
0010
0100
,
0001
0100
0001
0110
0000
1001
0000
1000
,
0110
0000
1000
0000
0101
0000
1010
0000
0010
0000
0010
0000
0001
0100
0010
0100
,
0001
0010
0100
1000
0010
1000
0100
0000
0100
0000
0100
0000
0100
0000
0010
0001
,
0200
0002
0000
0000
,
0000
0000
0303
0022
,
0000
0000
0000
0033
;

//---------------dance-single - Blank----------------
#NOTES:
     dance-single:
     Blank:
     Beginner:
     2:
     0.222,0.441,0.010,0.276,0.000,133.000,1.000,29.000,0.000,0.000:



1000
0000
0000
0001
,
0000
0000
0000
0000
,
0100
0000
0000
0010
,
0000
0000
0000
0000
,
1000
0000
0000
0100
,
0000
0000
0000
0000
,
0010
0000
0000
0001
,
1000
0001
1000
0001
,
1000
1000
0001
0001
,
0000
0000
0001
0000
,
0100
0100
0010
0010
,
0000
0000
1000
0000
,
1000
1000
0001
0001
,
0000
0000
0100
0000
,
0100
0100
0001
0001
,
0000
0010
0001
0010
,
0100
0100
1000
1000
,
0000
0000
0001
0000
,
0010
0010
0100
0100
,
0000
0000
0001
0000
,
1000
1000
0010
0010
,
0000
0000
0100
0000
,
0100
0100
0001
0001
,
0000
0000
1000
0001
,
0002
0000
0000
2003
0000
0000
0000
0000
,
3002
0000
0000
0203
0000
0000
0000
0000
,
0320
0000
0000
0230
0000
0000
0000
0000
,
0302
0000
0000
2003
0000
0000
0000
0000
,
3200
0000
0000
0320
0000
0000
0000
0000
,
0230
0000
0000
2300
0000
0000
0000
0000
,
3002
0000
0000
0203
0000
0000
0000
0000
,
0320
0000
0000
0000
,
1030
0000
0001
0000
,
1000
0000
0001
0000
,
0100
0000
0010
0000
,
0100
0000
0010
0000
,
1000
0000
0100
0000
,
1000
0000
0100
0000
,
0010
0000
0001
0000
,
0010
0001
0100
0001
,
0010
0000
0010
0000
,
0100
0000
0100
0000
,
1000
0000
1000
0000
,
0010
0000
0010
0000
,
0100
0000
0100
0000
,
0001
0000
0001
0000
,
0010
0000
0010
0000
,
0100
0000
0100
0000
,
1000
0000
1000
0000
,
0100
0000
0100
0000
,
1000
0000
1000
0000
,
0010
0000
0010
0000
,
0100
0000
0100
0000
,
0001
0000
0001
0000
,
0010
0000
0010
0000
,
0100
0000
0100
0000
,
0020
0000
0000
0032
0000
2003
0000
3002
,
2003
0000
0000
3200
0000
0000
0320
0000
,
0032
0000
0000
0203
0000
0000
0000
0320
,
2030
0002
0000
0000
,
0000
0000
3003
2002
,
0000
0000
0000
3003
;
