#TITLE:Sleigh Ride;
#SUBTITLE:;
#ARTIST:MC F 40;
#TITLETRANSLIT:;
#SUBTITLETRANSLIT:;
#ARTISTTRANSLIT:;
#CREDIT:;
#BANNER:Sleigh Ride - BN.png;
#BACKGROUND:Sleigh Ride - BG.png;
#LYRICSPATH:;
#CDTITLE:;
#MUSIC:MC F 40 - Sleigh Ride.mp3;
#OFFSET:-5.280;
#SAMPLESTART:9.360;
#SAMPLELENGTH:12.000;
#SELECTABLE:YES;
#BPMS:0.000=181.700;
#STOPS:;
#BGCHANGES:;
// cache tags:
#FIRSTBEAT:0.000;
#LASTBEAT:262.000;
#SONGFILENAME:Songs/DDRExtreme.co.uk presents ChristmasMix/Sleigh Ride/Sleigh Ride.sm;
#HASMUSIC:1;
#HASBANNER:1;
#MUSICLENGTH:92.656;
// end cache tags

//---------------dance-single - ----------------
#NOTES:
     dance-single:
     :
     Hard:
     8:
     0.643,0.600,0.367,0.054,0.000,378.000,34.000,5.000,0.000,0.000:
1000
0100
1000
0010
,
0010
0000
1000
0100
0000
1000
0000
0001
,
0010
0100
1000
0000
0001
0000
0010
0000
,
0100
0000
1000
0001
0010
0100
0010
0001
,
1000
0000
0100
0000
0001
0010
0001
1000
,
0100
0000
0001
0000
0010
0100
1000
0100
,
0010
0001
0010
0001
1000
0001
0010
0100
,
0010
0010
1000
0001
,
0010
0100
0010
0000
1000
0000
0010
0100
,
0010
1000
0001
0000
1000
0100
0010
0100
,
0001
0010
0100
0001
1000
0001
0010
0100
,
1000
1001
0110
1100
,
0100
0010
1000
0001
0010
0000
0100
0000
,
0010
0100
0010
0001
1000
0001
0010
0000
,
0100
1001
0110
0011
,
1000
0001
0010
1000
0001
0010
0100
0000
,
1000
0100
0010
0100
0010
0000
0001
0000
,
0100
0001
0010
1000
0001
0010
0100
0000
,
1000
0001
1000
0001
1000
0001
1000
0000
,
1100
0000
0011
0000
1100
0000
1000
0001
,
1000
0000
0100
0010
0100
0000
0001
0010
,
0001
0000
0200
0000
0320
0000
0031
0010
,
1000
0001
0010
0001
1000
0100
0010
0100
,
0010
0000
1000
0100
0000
0000
0001
0010
,
0001
0100
0010
0001
1000
0001
0010
0100
,
2000
0000
3010
0100
0000
1000
0100
0010
,
0100
0000
1000
0001
1000
0000
0100
0010
,
0100
0000
0001
0010
0001
0000
1000
0100
,
1000
0000
0001
0010
0100
0010
0001
1000
,
0001
0000
2000
0000
3200
0000
0310
0001
,
0010
1000
0001
0010
0100
0000
0100
0000
,
0100
0000
0001
0000
1000
0001
0010
0100
,
0001
1010
1001
0011
,
0100
0110
0001
1001
,
0110
0000
1100
0000
0001
0000
0001
1000
,
0001
0010
1000
0100
,
0010
0001
1000
0001
0010
0000
1000
0000
,
0001
0010
0100
0010
0001
0000
1000
0000
,
0001
0000
0100
0010
0100
0010
0001
1000
,
0010
0000
1100
0000
0100
0000
0001
0010
,
0001
0010
0001
0100
1000
0001
0100
1000
,
0010
0100
0010
0100
1000
0000
0001
0000
,
1000
0001
1001
0110
,
1001
0000
1000
0010
0001
1000
0001
0010
,
0100
0010
0001
1000
0001
0010
0100
0010
,
0001
1000
0100
0001
0010
0000
0100
0000
,
0010
0000
0010
0100
0010
1000
0001
0010
,
0100
1000
0001
0010
0100
0010
0001
1000
,
0001
0010
0100
0010
0001
1000
0100
1000
,
0001
0010
1000
0001
0100
0010
1000
0000
,
1001
0110
0001
0100
,
0001
0000
1000
0100
0000
0001
0010
0100
,
1000
1000
0010
0100
,
0001
0000
1000
0100
0000
0001
0010
0100
,
1000
0001
0100
0010
,
0001
0000
0100
0010
0000
1000
0100
0010
,
0001
1000
0100
0010
,
0100
0000
1000
0100
0000
0001
0000
0000
,
1001
0110
0011
1100
,
0011
0000
1000
0100
0000
0010
0100
0010
,
0001
1001
0101
0110
,
0011
0000
1000
0100
0000
0010
0100
0010
,
0001
1000
1001
0110
,
0101
0000
0001
0010
0000
0010
0001
0010
,
0100
1000
0010
0001
,
1000
0000
0010
0100
0000
0000
0000
0000
;

//---------------dance-single - Copied from----------------
#NOTES:
     dance-single:
     Copied from:
     Easy:
     4:
     0.398,0.353,0.000,0.054,0.000,253.000,0.000,5.000,0.000,0.000:
1000
0100
1000
0010
,
0010
1000
0100
1000
,
0000
1000
0001
0010
,
0100
1000
0001
0100
,
0001
0100
0001
0010
,
0100
0001
0010
1000
,
0100
0010
0001
0010
,
0010
0010
1000
0001
,
0010
0010
1000
0010
,
0100
0001
1000
0100
,
0001
0010
0001
0010
,
0100
0001
0100
0100
,
0100
1000
0010
0100
,
0010
0010
1000
0010
,
0100
0001
0100
0010
,
1000
0010
0001
0010
,
1000
0010
0100
0001
,
0100
0010
0001
0100
,
1000
1000
0001
1000
,
0100
0010
1000
1000
,
0001
0100
0010
0001
,
0001
0200
0320
0030
,
1000
0010
0001
0010
,
0100
1000
0100
0001
,
0001
0100
0001
0010
,
2000
3010
0100
1000
,
0100
1000
0001
0100
,
0100
0001
0010
1000
,
0100
0001
0010
0010
,
0001
2000
3200
0300
,
0010
0001
0010
0100
,
0100
0001
1000
0010
,
0001
0010
1000
0001
,
0100
0010
0001
0001
,
0100
1000
0001
0001
,
1000
0010
1000
0100
,
0010
1000
0010
1000
,
0001
0010
0010
1000
,
0001
0100
0010
0010
,
1000
1000
0100
0001
,
0010
0001
0100
0100
,
0010
0100
1000
0001
,
1000
0001
1000
0010
,
0001
1000
0010
0001
,
0100
0010
0001
0100
,
0010
0100
0010
0100
,
0010
0010
0100
1000
,
0010
0001
0100
0010
,
0001
0100
0010
1000
,
0001
1000
0001
1000
,
0001
0100
0001
0100
,
0001
1000
0100
0000
,
1000
1000
0010
0100
,
0001
0100
0000
0010
,
0100
0001
0100
0010
,
0001
0100
0010
0000
,
0010
1000
0100
0010
,
0100
1000
0100
0000
,
1000
0100
0010
0100
,
0001
1000
0100
0000
,
0010
0001
0100
0010
,
0001
1000
0100
0000
,
0010
1000
0001
0100
,
0100
0001
0010
0001
,
0010
1000
0010
0000
,
1000
0010
0100
0000
;

//---------------dance-single - Copied from Copied f----------------
#NOTES:
     dance-single:
     Copied from Copied f:
     Medium:
     4:
     0.520,0.495,0.000,0.065,0.000,331.000,0.000,6.000,0.000,0.000:
1000
0100
1000
0010
,
0010
0000
1000
0100
0000
0000
1000
0000
,
0000
1000
0001
0010
,
0100
1000
0001
0100
,
0001
1000
0100
0000
0001
0000
0010
0000
,
0100
1000
0001
0000
0010
0000
1000
0000
,
0100
0001
0010
0000
0001
0000
0010
0000
,
0010
1000
0010
0000
1000
0000
0001
0000
,
0010
0000
0010
0000
1000
0100
0010
0000
,
0100
0000
0001
0000
1000
0001
0100
0000
,
0001
1000
0010
0000
0001
0000
0010
1000
,
0100
0000
0001
0010
0100
0000
0100
0000
,
0100
0000
1000
0000
0010
1000
0100
0000
,
0010
0001
0010
0000
1000
0001
0010
0000
,
0100
1000
0001
0000
0100
0000
0010
0000
,
1000
0000
0010
1000
0001
0000
0010
0000
,
1000
0000
0010
0001
0100
0000
0001
0000
,
0100
0000
0010
1000
0001
0000
0100
0000
,
1000
0000
1000
0010
0001
0000
1000
0001
,
0100
0000
0010
0001
1000
0000
1000
0000
,
0001
0100
0010
0001
,
0001
0200
0320
0031
,
1000
0001
0010
0000
0001
1000
0010
0001
,
0100
1000
0100
0001
,
0001
1000
0100
0000
0001
1000
0010
0000
,
2000
0000
3010
0000
0100
0001
1000
0000
,
0100
0001
1000
0000
0001
1000
0100
0000
,
0100
0010
0001
0000
0010
0200
1300
0000
,
0100
1000
0001
0000
0010
0000
0010
0000
,
0001
2000
3200
0301
,
0010
1000
0001
0000
0010
0000
0100
0000
,
0100
0010
0001
0000
1000
0000
0010
0000
,
0001
1000
0010
0000
1000
0000
0001
0000
,
0100
0000
0010
0000
0001
1000
0001
0000
,
0100
0000
1000
0000
0001
1000
0001
0000
,
1000
0000
0010
0000
1000
0001
0100
0000
,
0010
0001
1000
0000
0010
0000
1000
0000
,
0001
0000
0010
1000
0010
0000
1000
0010
,
0001
0000
0100
1000
0010
0000
0010
0000
,
1000
0001
1000
0000
0100
0010
0001
0000
,
0010
0000
0001
0000
0100
1000
0100
0000
,
0010
0001
0100
0000
1000
0000
0001
0100
,
1000
0001
1000
0010
,
0001
0000
1000
0001
0010
0000
0001
0000
,
0100
1000
0010
0000
0001
0000
0100
0000
,
0010
0001
0100
0000
0010
0000
0100
0000
,
0010
1000
0010
0000
0100
0000
1000
0100
,
0010
0001
0100
0010
,
0001
1000
0100
0000
0010
0000
1000
0100
,
0001
0000
1000
0010
0001
0000
1000
0100
,
0001
0100
0001
0100
,
0001
1000
0100
0000
,
1000
1000
0010
0100
,
0001
1000
0100
0010
0001
0000
0010
0000
,
0100
0001
0100
0010
,
0001
0000
0100
1000
0010
0001
1000
0000
,
0010
1000
0100
0010
,
0100
0000
1000
0001
0100
0010
0001
0000
,
1000
0100
0010
0100
,
0001
0000
1000
0001
0100
0010
1000
0000
,
0010
0001
0100
0010
,
0001
0000
1000
0001
0100
0010
0100
0000
,
0010
1000
0001
0100
,
0100
0000
0001
1000
0010
0000
0001
0000
,
0010
0100
1000
0000
0010
0001
0010
0100
,
1000
0001
0010
1000
0100
0000
0000
0000
;
