#TITLE:Angels and Demons;
#SUBTITLE:Temple of Shadows (2004);
#ARTIST:Angra;
#TITLETRANSLIT:;
#SUBTITLETRANSLIT:;
#ARTISTTRANSLIT:;
#CREDIT:;
#BANNER:Angles and Demons-banner.png;
#BACKGROUND:Angles and Demons-bg.png;
#LYRICSPATH:;
#CDTITLE:CDTitle.gif;
#MUSIC:Angra - Angels and Demons.mp3;
#OFFSET:-0.115;
#SAMPLESTART:21.193;
#SAMPLELENGTH:16.600;
#SELECTABLE:YES;
#BPMS:0.000=205.002;
#STOPS:126.000=0.595
;
#BGCHANGES:;
// cache tags:
#FIRSTBEAT:0.000;
#LASTBEAT:846.000;
#SONGFILENAME:Songs/Astronomic Metal Collection/Angels and Demons (Charlo)/Angels and demons.sm;
#HASMUSIC:1;
#HASBANNER:1;
#MUSICLENGTH:251.010;
// end cache tags

//---------------dance-single - Blank----------------
#NOTES:
     dance-single:
     Blank:
     Hard:
     13:
     1.000,1.000,1.000,0.470,1.000,1944.000,527.000,118.000,0.000,0.000:
1100
0001
0110
1000
0101
1010
0101
1010
,
0001
1100
0010
0011
0101
0110
1100
0001
,
0110
1000
0011
0110
0011
1001
0010
0110
,
1000
0110
0011
1100
0101
1000
0110
0001
,
1010
1100
0110
1001
0010
1001
0100
1010
,
0110
0101
1100
0001
0110
0010
1100
1010
,
0011
0110
0100
1001
0100
0011
1100
0101
,
1000
0100
0010
0001
0100
0010
1000
0100
1000
0001
0100
0010
1000
0100
1000
0001
,
0100
0010
0100
0001
1000
0100
1000
0001
0100
0001
0010
0100
1000
0100
0010
0100
,
1000
0001
0100
0010
0100
0001
1000
0010
1000
0001
0100
0010
1000
0100
1000
0010
,
0100
0001
0100
0010
1000
0100
0010
0100
1000
0001
0100
0010
1000
0010
0100
0001
,
1100
0010
0110
0001
1100
0110
0101
1010
,
0100
0000
0011
0000
0010
0000
1100
0010
0001
1000
0100
0010
0101
0000
0100
0000
,
1010
0100
0011
0110
1100
1001
0010
1100
,
0010
0000
0011
0100
0010
1000
0100
1000
0011
0000
0100
0000
1010
0000
0001
0000
,
0110
0011
1001
0110
0100
0101
0010
1000
,
0001
1000
0011
1000
0110
0001
0110
1100
,
1001
0011
0100
1010
0100
0011
1100
0110
,
1001
0100
0010
0001
1000
0100
0010
0001
1000
0001
0010
0100
1000
0010
0100
0001
,
0100
0010
1000
0100
0010
0100
1000
0001
0100
0010
0100
0001
1000
0010
0100
0001
,
1000
0100
0010
0001
1000
0100
1000
0001
0100
0001
0010
0001
1000
0010
0100
0010
,
1000
0100
0010
0001
1000
0100
1000
0010
0100
0001
0010
0001
0100
0010
1000
0100
,
0010
0001
0100
0010
1000
0100
0010
0001
0100
0001
0100
0010
1000
0100
1000
0001
,
0010
0001
1000
0010
1000
0001
0100
0001
0010
0100
1000
0001
0100
0001
1000
0010
,
1000
0100
0010
0001
0100
0010
1000
0100
0010
0001
0100
0010
1000
0100
1000
0001
,
0100
0010
0100
0001
1000
0010
0100
0001
1000
0100
1000
0010
0100
0001
0100
0010
,
1100
0001
0110
0001
1100
0110
1001
0011
,
1000
0000
0110
0000
0100
0000
1000
0010
0100
0001
0100
0010
1001
0000
0100
0000
,
0101
1000
0110
1100
1001
0011
1000
0110
,
0100
1100
0110
1001
0011
0100
1000
1100
,
0010
0000
0100
0000
0011
1000
0010
0100
0001
0000
0010
0100
1000
0001
0100
0000
,
0010
0100
0001
0100
0010
1000
0010
0100
0001
0000
0000
0000
0000
0000
0000
0000
,
1100
0010
0001
0100
0010
1000
0100
1000
,
0010
0100
0001
1000
0100
1000
0011
0100
,
1001
0001
1000
0110
0010
0100
1100
0010
,
1001
0100
0010
1000
0100
1000
0101
0001
,
0110
1000
0001
1010
0100
0001
0011
1000
,
0110
0100
0010
1100
0001
0100
1001
0100
,
1001
0100
0010
0001
0100
0010
1000
0100
1000
0001
0100
0010
0100
0001
0010
0100
,
1000
0010
0100
0001
0010
0100
1000
0100
1000
0100
0010
0001
0100
0010
1000
0001
,
0110
1000
0100
0010
0001
1000
0010
0100
,
0011
0100
0010
1000
1001
0010
0100
1000
,
0110
0000
0010
0000
0100
0000
0001
0000
1000
0010
1100
0000
1100
0000
0010
0000
,
0101
0101
0101
0101
0011
0011
0011
0011
,
1100
0010
0100
0001
0010
0001
1000
0100
,
0010
1000
0101
0010
0011
0100
0110
1000
,
1001
0100
0001
0110
1000
0010
1001
0100
,
0011
0100
0010
1000
0100
1000
0001
0100
,
0011
1000
0100
0110
1000
0001
1100
0100
,
1001
0010
0100
0011
1000
0010
0101
0010
,
1100
0001
0100
0010
1000
0010
0100
0001
1000
0100
1000
0001
0100
0010
1000
0001
,
0100
0001
0010
0100
1000
0010
0100
0001
1000
0100
1000
0001
0100
0010
0100
0001
,
1100
0010
0100
0010
1000
0001
0010
1000
,
1100
0010
0100
0001
0101
0010
1000
0100
,
0011
0100
0010
1000
0100
0010
0001
1000
,
0011
0100
0010
1000
0110
0110
0110
0110
,
1001
0000
0000
0000
1001
0100
1010
0100
,
0010
1000
0011
0100
0010
1000
0110
0001
,
1100
1010
0110
0101
1001
0011
1010
1100
,
0110
0101
1001
1100
1001
0110
0101
0110
,
1100
1010
1001
0011
0110
0011
1001
1100
,
1010
0110
0011
0101
0011
1001
1100
1001
,
0110
1100
1010
0101
0011
0110
1100
0101
,
1100
0110
0011
1100
0011
0011
0011
0011
,
1100
1100
1100
1100
1010
0100
0010
1000
,
0011
0100
0001
1000
0101
0010
1100
1100
,
0011
0110
1010
1001
0101
0110
1100
1001
,
0011
1100
0110
0101
1010
1100
0110
0011
,
2020
0000
3030
0220
0000
0330
2200
3300
,
2002
0000
3003
0022
0000
0033
0202
0303
,
1001
1100
0110
0011
0101
0110
1010
1100
,
2002
0000
0000
3003
0220
0000
0000
0330
,
1000
0010
0100
0001
0100
0010
1000
0100
0010
0100
1000
0001
,
0100
0010
1000
0001
0100
0010
0100
0001
1000
0100
0010
0001
,
0110
0000
0200
0000
,
0000
0000
0020
0000
0000
0000
0000
0330
,
1100
0101
0011
0000
0110
0000
1100
0110
,
0101
1010
0110
0000
1001
0000
0110
1100
,
0110
0011
1010
0000
0011
0000
1100
0011
,
0210
0000
0000
0000
0020
0000
0000
0330
,
1100
0101
0110
0100
1100
0001
0110
0101
,
1100
0110
1001
1000
0101
0010
0110
1100
,
0101
0011
1100
0010
0101
1000
0110
0101
,
2010
0000
0000
0000
0020
0000
0000
3030
,
1010
0100
0010
0001
0100
0010
1000
0100
0010
0100
1000
0001
0100
0010
1000
0010
,
0100
0001
1000
0001
0100
0010
1000
0001
0010
0100
0010
0001
1000
0010
1000
0001
,
0100
0001
0100
0010
1000
0100
0010
0100
1000
0001
0100
0010
1000
0001
0100
0010
,
0201
0000
0000
0000
0002
0000
0000
0303
,
1010
0001
0101
0010
0110
1000
1001
0010
,
0011
0100
1100
0010
1010
0100
0101
0010
,
0110
1000
1001
0100
0110
0001
0011
0000
,
0100
0001
1000
0010
0100
0001
0100
0010
1000
0100
0010
0001
1010
0000
0000
0000
,
1100
0001
0100
0010
1000
0100
0010
0100
1000
0001
0010
0100
0010
0001
1000
0010
,
0100
0001
1000
0100
1000
0001
0100
0001
0010
0001
1000
0010
0100
0001
1000
0100
,
0010
0100
1000
0001
0100
0010
0100
0001
1000
0010
0100
0001
1000
0100
1000
0001
,
0101
0110
1100
0110
0101
1001
1010
1100
,
0110
0011
0110
1100
1010
0101
0110
1010
,
1001
0100
0010
0100
1000
0001
0100
0010
0100
0001
1000
0010
0100
0010
1000
0001
,
0100
0001
1000
0010
1000
0100
0010
0001
0100
0010
1000
0100
0010
0100
1000
0001
,
0100
0010
1000
0100
0010
0100
1000
0001
0100
0010
0100
0001
1000
0010
0100
0001
,
0110
1100
0110
0101
1001
1010
0110
0101
,
0011
0110
1100
1010
0101
1001
1100
0000
,
1100
0101
0000
0101
0110
0000
1100
1001
,
0000
0000
1100
0000
0110
0000
0000
0000
1000
0100
0010
0100
1000
0001
0100
0010
,
0101
0000
2100
0000
,
0000
0000
0000
0000
3200
0000
0000
0000
0000
0000
0000
0000
0000
0000
0000
0300
,
0020
0000
0032
0000
,
0003
0000
0100
0000
0010
0000
0100
0000
2000
0000
0000
0000
0000
0000
0000
3000
,
0010
0000
0000
0000
0001
0000
0000
0000
1000
0000
0000
0000
0100
0000
0000
0010
0000
0000
0100
0000
0000
1000
0000
0000
0001
0000
0000
0010
0000
0000
0001
0000
0000
1000
0000
0000
0100
0000
0000
0010
0000
0000
0100
0000
0000
1000
0000
0000
,
0001
0000
0000
0100
0000
0000
0010
0000
0000
0100
0000
0000
0001
0000
0000
1000
0000
0000
0100
0000
0000
0010
0000
0000
0100
0000
0000
1000
0000
0000
0001
0000
0000
0010
0000
0000
0100
0000
0000
0000
1000
0000
0000
0000
0010
0000
0000
0000
,
0100
0001
0010
0001
0100
0010
1000
0100
0010
0100
1000
0001
0100
0010
1000
0010
,
0100
0001
1000
0010
1000
0001
0100
0001
1000
0100
1000
0001
0200
0000
0000
0000
,
0320
0000
0000
0000
0000
0000
0000
0000
0031
1000
0100
0010
0100
1000
0001
0100
,
0010
0100
0010
1000
0001
0010
0100
0010
0001
1000
0010
0100
0001
0010
0100
1000
,
0020
0000
0000
0000
0000
0000
0000
0000
0000
0000
0000
0000
0000
0000
0000
0000
0000
0000
0000
0000
0000
0030
0000
0000
0001
0000
0000
0000
0100
0000
0000
0000
0001
0000
0000
0000
0010
0000
0000
0000
0100
0000
0000
0000
1000
0000
0000
0000
,
0001
0100
0001
0010
0100
1000
0010
0100
0001
0010
0100
0010
,
0001
0000
0100
0000
0010
0000
1000
0000
0001
0000
0100
0000
0002
0000
0000
0000
0000
0000
0000
0000
0000
0203
0000
0000
,
0000
0000
0320
0000
2030
0000
0000
3200
,
0000
0000
0000
0000
0320
0000
0000
0000
0031
1000
0100
1000
0001
0100
0010
0100
,
0001
1000
0100
0010
0001
0010
0100
1000
0001
0010
0100
1000
0100
0010
0001
0010
,
0100
1000
0010
0100
0001
0010
0100
1000
0220
0000
0000
0000
0000
0000
0000
0330
,
0220
0000
0000
0000
,
0000
0000
0000
0000
0330
0000
0001
0000
0000
0000
0001
1000
0100
1000
0010
0100
,
0010
1000
0001
1000
0100
0010
0001
0010
0100
1000
0010
0100
0001
0100
0010
1000
,
0200
0000
0000
0000
0000
0000
0000
0300
1002
0000
0000
0000
0000
0000
0000
0000
,
0000
0000
0000
0000
0000
0003
0000
1000
0200
0000
0000
0000
0000
0000
0000
0300
,
0010
0001
1000
0100
0020
0000
0000
0000
0000
0000
0000
0000
0000
0000
0000
0030
,
1100
1100
0000
0101
0101
0000
1010
1010
,
0000
0000
0001
0010
0100
1000
0001
0100
1010
0100
0001
0100
0010
1000
0100
1000
,
0001
0000
0000
0100
0000
0000
0010
0000
0000
0100
0000
0000
0001
0000
0000
1000
0000
0000
0100
0000
0000
0010
0000
0000
0001
0000
0000
0000
1000
0000
0000
0000
0100
0000
0000
0000
0010
0000
0000
0000
0100
0000
0000
0000
1000
0000
0000
0000
,
0010
0100
0001
0100
0010
1000
0001
0010
0100
0010
0100
1000
,
0001
0010
0100
0010
0001
1000
0010
0100
0010
1000
0001
0100
0001
0010
0100
1000
,
0020
0000
0000
0000
0000
0030
0000
0000
0200
0000
0000
0000
0310
1000
0001
0010
,
0100
1000
0001
0100
0001
1000
0100
0010
0002
0000
0000
0000
0000
0000
0103
0010
,
1002
0000
1000
0000
1000
0000
1003
0000
1000
0100
0010
0001
0100
0010
1000
0100
,
1000
0001
0100
0001
0010
0001
1000
0010
0100
0001
1000
0010
1000
0001
0100
0010
,
1000
0100
0010
0100
1000
0001
0100
0010
0100
0001
0100
0010
1000
0100
0010
0100
,
1000
0001
0100
0010
1000
0100
0010
0001
0010
0100
1000
0001
0100
0010
0100
0001
,
0010
0100
1000
0001
0100
0010
1000
0100
0011
0000
0100
0000
0010
0000
0110
0000
,
1000
0001
0100
0010
1000
0100
1000
0001
,
0100
0010
1100
0001
0110
1000
0010
0110
,
1000
0001
1100
0010
1001
0010
0100
0001
,
1000
0100
1000
0001
1100
0010
1000
0110
,
0010
0100
0101
1000
0110
0001
0100
1100
,
0001
0000
0100
0000
1010
0000
0001
0000
0010
0100
1000
0001
0100
0010
0100
0001
,
1000
0100
1000
0001
0100
0001
0010
0100
1000
0100
0010
0100
1000
0001
0100
0010
,
0100
0001
1000
0100
1000
0001
0100
0001
0110
0000
1000
0000
0100
0000
0010
0000
,
0001
0100
0010
1000
0100
0010
0001
0100
,
0001
0010
0101
1000
1100
0001
0100
1010
,
0100
0010
0011
1000
1010
0100
0001
0010
,
0001
1000
0100
0010
0101
0010
1000
0110
,
1000
0001
0101
0010
1100
0010
1000
0101
,
0010
0000
0100
0000
1100
0000
0001
0000
0100
0010
1000
0100
1000
0001
0100
0001
,
0010
0100
1000
0001
0010
0100
1000
0010
0100
0001
0100
0010
1000
0100
0010
0100
,
1000
0001
0100
0010
1100
0000
0000
0000
0011
0000
0100
0000
0010
0000
1000
0000
,
0100
0010
0001
0100
1010
0100
0001
0010
,
0110
1000
0100
0010
0101
0010
0100
1000
,
0001
0100
0010
1000
0101
0010
1000
0100
,
0011
0100
0010
1000
0110
0001
0100
0010
,
0100
0001
1000
0010
1100
0010
0100
0001
,
0101
1000
0010
0100
1100
0010
0100
0001
,
0010
0100
1000
0010
0101
0010
1000
0100
,
1010
0001
0100
0010
2200
0000
0000
0000
,
0000
0000
0000
0000
,
0000
0000
0000
3300
0202
0000
0000
0000
,
0000
0000
0000
0303
2200
0000
0000
3300
,
0220
0000
0000
0330
0110
0000
0000
0000
,
1001
0010
1100
0001
0010
0100
1001
0010
,
1000
0001
1010
0100
0011
0101
1001
1010
,
1100
0110
0011
0101
0011
0110
1100
1001
,
0101
1001
1100
0110
0011
0101
0110
1010
,
1001
0101
0110
1100
0110
0101
0011
1001
,
1100
0110
0011
0110
1100
0110
0101
0011
,
0110
1100
0110
0101
0011
1100
0110
1100
,
0011
0011
0100
1000
0010
1000
0001
0100
,
1010
0100
0010
1000
0011
0100
0010
1000
,
0101
0010
1001
1001
0110
0101
1001
1010
,
1100
0110
0011
0110
1010
0110
0011
1001
,
1100
0110
0011
1001
2200
0000
3300
0220
,
0000
0330
0022
0033
2020
0000
3030
0202
,
0000
0303
0220
0330
1001
1100
0110
0011
,
1001
0000
0000
1100
0000
0000
0110
0000
0000
0101
0000
0000
1010
0000
0100
0000
0001
0000
0010
0000
0100
0000
1000
0000
,
0010
0100
0001
0100
0010
1000
0011
0100
0010
0100
0001
1000
,
0001
0100
0010
1000
0100
0010
0100
1000
0010
0100
0001
0100
,
0010
0100
0001
0010
0100
1000
0100
0010
0001
0100
0010
0100
,
0010
1000
0100
1000
0001
0100
0001
0010
0100
1000
0010
0100
,
0001
1000
0001
0100
0010
1000
0100
0010
0100
0010
0001
0100
,
0010
1000
0001
0100
0010
0100
0001
0100
0010
1000
0001
0100
,
0010
1000
0010
0100
0001
1000
0100
0010
0001
0100
0010
1000
,
0001
0100
0001
1000
0010
0100
0010
0100
0001
0010
0100
1000
,
0100
0010
0001
0100
0001
0010
0100
1000
0100
0010
0001
1000
,
0101
0010
0100
0010
0100
0010
1001
0100
0001
0100
0001
0100
,
1010
0001
0010
0001
0010
0001
1100
0010
0100
0001
0010
0100
,
0010
0001
0010
0100
1000
0100
0010
0001
0100
0010
1000
0010
,
0100
0000
0000
0000
0001
0000
0000
0000
0010
0000
0000
0000
0100
0000
0000
0000
1000
0000
0000
0000
0010
0000
0000
0000
2200
0000
0000
0000
0000
0000
0000
0000
0000
0000
0000
0000
0000
0000
0000
3300
0000
0000
0220
0000
0000
0000
0000
0000
,
0000
0000
0000
0330
0202
0000
0000
0303
2020
0000
0000
0000
0000
3030
2002
0000
,
0000
0000
0000
0000
0000
0000
0000
0000
0000
3003
0000
0000
0220
0000
0000
0000
0000
0000
0000
0000
0000
0330
0000
0000
1100
0000
0000
0000
0001
0000
0000
0000
1000
0000
0000
0000
0001
0000
0000
0000
0100
0000
0000
0000
0010
0000
0000
0000
,
0100
0001
0010
0100
0010
0001
0100
0010
1000
0010
0100
0001
,
0100
0001
1000
0001
0100
0001
0110
1000
0010
1000
0010
1000
,
0101
0010
0100
0010
0100
0010
1100
0001
0100
0001
0100
0001
,
1010
0100
0010
0100
0010
0100
1001
0010
0001
0100
0010
1000
,
0010
0100
0001
0010
0001
0010
0100
0010
0001
0100
0010
1000
,
0001
0000
0000
0000
0100
0000
0000
0000
0010
0000
0000
0000
1000
0000
0000
0000
0010
0000
0000
0000
1000
0000
0000
0000
0202
0000
0000
0000
0000
0000
0000
0000
0000
0000
0000
0000
0000
0000
0000
0303
0000
0000
2200
0000
0000
0000
0000
0000
,
0000
0000
0000
3300
0220
0000
0000
0330
0202
0000
0000
0000
0000
0303
2020
0000
,
0000
0000
0000
3030
2002
0000
0000
3003
0220
0000
0000
0000
0000
0330
0022
0000
,
0000
0000
0000
0033
2020
0000
0000
3030
0220
0000
0000
0000
0000
0330
2020
0000
,
0000
0000
0000
3030
2002
0000
0000
3003
0202
0000
0000
0000
0000
0303
0022
0000
,
0000
0000
0000
0033
2200
0000
0000
3300
2020
0000
0000
0000
0000
3030
2002
0000
,
0000
0000
0000
0000
0000
0000
0000
3003
0011
0000
0100
0000
1010
0000
0100
0000
,
1001
0110
0011
0110
1000
0101
0010
1100
,
0110
1001
0011
0100
1010
0100
0011
1100
,
0110
2002
0000
0000
3003
0000
0000
0000
;
