#TITLE:Zombie(Remix);
#SUBTITLE:;
#ARTIST:DJ D3monic;
#TITLETRANSLIT:;
#SUBTITLETRANSLIT:;
#ARTISTTRANSLIT:;
#CREDIT:;
#BANNER:;
#BACKGROUND:;
#LYRICSPATH:;
#CDTITLE:!Monst3rJoeCDTITLE!.jpg;
#MUSIC:Zombie (Remix).ogg;
#OFFSET:0.830;
#SAMPLESTART:92.327;
#SAMPLELENGTH:12.000;
#SELECTABLE:YES;
#BPMS:0.000=152.200;
#STOPS:;
#BGCHANGES:;
// cache tags:
#FIRSTBEAT:4.000;
#LASTBEAT:519.000;
#SONGFILENAME:Songs/new cedric/Zombie remix/zombie.sm;
#HASMUSIC:1;
#HASBANNER:0;
#MUSICLENGTH:105.000;
// end cache tags

//---------------dance-single - Blank----------------
#NOTES:
     dance-single:
     Blank:
     Hard:
     10:
     1.000,1.000,0.943,1.000,0.252,757.000,99.000,111.000,11.000,3.000:

0000
0000
0000
0000
,
2002
0000
0000
0000
0000
0000
0000
3003
,
0000
0001
0000
0100
0000
0100
0000
0010
,
0000
0000
0010
0000
0000
0000
1000
0000
0000
0000
1000
0000
0000
0000
0001
0200
,
0000
0310
0000
0010
0000
1000
0000
1000
,
0000
0000
0001
0000
0000
0000
0001
0000
0000
0000
0001
0000
0001
0000
1000
0200
,
0000
0300
0011
0000
0001
0000
0101
0000
,
0100
0000
0000
0000
1010
0000
0000
0000
0010
0000
1000
0000
0000
0000
0001
0020
,
0000
0130
0000
0100
0000
1000
0000
1000
,
0000
0000
0000
0010
0000
0000
0000
0000
0000
0010
0000
0000
0000
0000
0000
0200
0000
0000
0000
0000
0000
0001
0300
0000
,
0001
0100
0010
1000
0100
0010
0001
0100
0001
0000
0100
0000
0110
0000
0010
0000
,
1000
0100
1100
1000
0001
0100
0110
0100
,
MMM2
0000
1003
0100
0010
0001
1000
0001
0100
0000
0010
0000
0110
0000
0010
0000
,
0100
0001
1001
1000
0001
0100
0101
0100
,
MM2M
0000
1030
0010
0100
0010
0100
0001
1000
0000
0010
0000
1010
0000
0010
0000
,
0100
0001
1001
0001
0010
0100
1100
1000
,
MMM2
0000
1003
0100
1000
0010
0100
0001
0010
0000
0001
0000
0001
0000
0100
0000
,
0100
0010
1000
0100
0010
0001
0100
0010
0100
0001
1000
0010
0100
0001
0010
0100
,
2000
0000
0000
0000
0000
0000
0000
3000
,
0011
0000
1000
0000
0010
0110
0000
1010
,
0000
1100
0000
0011
0000
0001
0101
1001
,
1010
0000
0110
0000
0001
0110
0000
1100
,
0100
0010
0001
0000
0100
0010
0100
0000
0002
0000
2003
0000
3002
0000
2003
3000
,
0101
0001
0101
0100
,
0101
0001
0101
0100
,
1010
0010
0101
1000
1100
0001
0011
1000
,
0001
0000
0000
1000
0000
0000
0001
0000
0000
0000
0000
0000
0100
0000
0000
0001
0000
0000
1000
0000
0000
0000
0000
0000
0010
0000
0000
0100
0000
0000
0001
0000
0000
0000
0000
0000
2MM2
0000
0000
0000
0000
0000
0000
0000
3003
0000
0000
0000
,
0110
0000
0001
0000
1000
1010
0000
0101
,
0000
0011
0000
1100
0000
1001
0001
0001
,
0101
0000
0110
0000
1000
0110
0000
0011
,
0000
0002
0000
0200
0003
0320
1000
1030
,
1001
0000
0001
0000
0100
0110
0000
1010
,
0000
1100
0000
0011
0000
0001
0101
1001
,
1010
0000
0110
0000
0001
0110
0000
1100
,
1000
0010
0100
0000
0010
0100
0010
0000
0100
0000
0100
0000
0400
0000
0000
0000
,
0301
0001
1000
0200
0000
1300
0001
0200
,
0000
0310
1000
0002
0000
0103
0001
2000
,
0100
3100
0010
0001
0100
0010
1000
0001
,
1000
0001
0001
0001
,
0000
0100
0010
2000
0000
3100
1000
0020
,
0000
0130
0001
0020
0000
0130
1000
0002
,
0100
0103
0010
1000
0100
1000
0010
0100
,
0001
0010
0100
0000
0010
0100
1000
0000
0100
0000
1000
0000
0001
0000
0001
0000
,
0200
0010
0010
0010
0000
0001
0001
0301
,
0000
1000
0100
0010
0000
0001
0100
0010
,
2000
0000
0000
0000
,
0000
0000
0000
0000
,
3000
0000
0100
0020
0000
0031
0000
0200
,
0000
0320
0000
2030
0000
3020
0000
0230
,
0000
0302
0000
2003
0000
3200
0000
1300
,
2000
0000
0000
0000
0000
0000
0000
3000
,
0000
0001
0100
0010
0000
0010
0000
0200
,
0000
0302
0000
0023
0000
0230
0000
2300
,
0000
3020
0000
2030
0000
3002
0000
0203
,
0002
0300
0000
0003
0000
1000
0100
0020
,
0030
0000
0000
0000
0000
0000
0000
0000
0000
0000
0000
0000
0000
0000
0000
0000
0000
0000
0000
0000
0000
0000
0000
0000
0001
0000
0000
0000
0000
0000
0000
0000
0000
0000
0000
0000
0000
0000
0000
0000
0000
0000
0000
0000
0000
0000
0000
0000
0100
0000
0000
0000
0000
0000
0000
0000
0000
0000
0000
0000
0000
0000
0000
0000
0000
0000
0000
0000
0000
0000
0000
0000
0020
0030
0000
0000
0000
0000
0000
0000
0000
0000
0000
0000
0000
0000
0000
0000
0000
0000
0000
0000
0000
0000
0000
0000
0000
0000
0000
0000
0000
0000
0000
0000
0000
0000
0000
0000
0000
0000
0000
0000
0000
0000
0000
0000
0000
0000
0000
0000
0001
0000
0000
0000
0000
0000
0000
0000
0000
0000
0000
0000
0000
0000
0000
0000
0000
0000
0000
0000
0000
0000
0000
0000
0100
0000
0000
0000
0000
0000
0000
0000
0000
0000
0000
0000
0000
0000
0000
0000
0000
0000
0000
0000
0000
0000
0000
0000
0020
0030
0000
0000
0000
0000
0000
0000
0000
0000
0000
0000
0000
0000
0000
0000
0000
0000
0000
0000
0000
0000
0000
0000
,
0000
0100
0001
1000
0000
0100
1000
0001
,
0200
0310
1000
0100
1000
0001
0100
0002
,
2000
0000
0003
3000
0000
0001
1000
0010
,
1000
0100
0010
0200
0000
1300
0001
0200
,
0000
0310
1000
0002
0000
0203
0320
2030
,
3200
1300
0001
0002
0000
0103
0010
1010
,
2000
0000
0000
0000
0000
0000
3001
0100
,
0102
0000
0100
0000
0100
0000
0100
0013
,
0210
0000
0010
0000
0010
0000
0310
1000
,
1100
0011
0101
1010
,
1100
0000
1001
0000
0011
0000
0101
0100
,
0020
0000
0030
1000
0000
0000
0001
1000
,
0200
0000
0000
0320
0000
0002
0030
0203
,
0000
0000
0310
0000
0100
0000
0001
0100
0001
0000
1000
0000
0100
0000
0010
0001
,
0010
0000
0001
0100
0001
0000
0100
0010
1000
0000
0010
1000
0100
0000
1000
0001
,
2000
0001
0000
0001
0000
0001
0000
0001
,
0001
0000
0001
0000
0001
0000
3002
0103
,
0010
0100
0000
0010
0000
0010
0000
1000
,
0000
0001
0000
0010
0000
0100
1000
0002
,
0000
0103
0001
0200
0000
0310
2000
0001
,
0000
0001
0000
3001
0100
0010
0100
0010
,
2000
0001
0000
0100
3000
0020
2030
0100
,
3100
0010
0000
0001
0000
1000
0100
0200
,
0000
0310
0001
0002
0000
2003
0000
3020
,
0000
0100
0000
0100
0000
0130
0002
2003
,
3002
1103
0200
0311
,
0002
0000
0113
0000
1001
0001
0100
0020
,
0000
0000
1030
0000
0100
0000
4000
3000
0000
0000
0002
0000
0000
0000
2003
0000
,
0000
0001
0000
3001
0100
0100
0010
2000
,
0000
0100
0000
0100
0000
0100
0000
3100
,
0000
0010
0000
0001
0000
0200
0000
0320
,
0000
2030
0000
3002
0000
0203
0000
0302
,
0000
1000
0000
1003
0000
1000
0000
1000
,
1100
0011
0101
1010
,
1100
0011
0101
1010
,
1100
1001
0011
0101
,
0110
1010
1100
1100
,
2002
3003
0000
0000
0000
0000
0000
0000
0000
0000
0000
0000
0000
0000
0000
0000
0000
0000
0000
0000
0000
0000
0000
0000
0002
0000
0000
0000
0000
0000
0000
0000
0000
0000
0000
0000
0000
0000
0000
0000
0000
0000
0000
0000
0000
0000
0000
0000
0000
0000
0000
0000
0000
0000
0000
0000
0000
0000
0000
0000
0000
0000
0000
0000
0000
0000
0000
0000
0000
0000
0000
0000
0103
0000
0000
0000
0000
0000
0000
0000
0000
0000
0000
0000
0000
0000
0000
0000
0000
0000
0000
0000
0000
0000
0000
0000
0010
0000
0000
0000
0000
0000
0000
0000
0000
0000
0000
0000
0000
0000
0000
0000
0000
0000
0000
0000
0000
0000
0000
0000
1000
0000
0000
0000
0000
0000
0000
0000
0000
0000
0000
0000
0000
0000
0000
0000
0000
0000
0000
0000
0000
0000
0000
0000
0100
0000
0000
0000
0000
0000
0000
0000
0000
0000
0000
0000
0000
0000
0000
0000
0000
0000
0000
0000
0000
0000
0000
0000
1000
0000
0000
0000
0000
0000
0000
0000
0000
0000
0000
0000
0000
0000
0000
0000
0000
0000
0000
0000
0000
0000
0000
0000
,
0001
1000
0100
0010
0000
0010
0001
0100
,
0000
0100
0010
1000
0000
0001
1000
0001
,
0000
0000
0001
0000
0000
0000
0001
0000
1001
0000
1000
0100
1000
0000
0001
0010
,
0001
2000
0000
3010
0100
0001
0010
0001
,
1000
0001
0010
0100
0000
0100
1000
0010
,
0000
0010
0100
0001
0000
1000
0001
0100
,
0000
0100
0000
0100
0000
0100
0000
0101
,
0001
0100
0000
0100
0000
0100
0000
0010
,
1010
0100
0110
0010
0101
0001
1001
0001
,
1000
0010
0100
0010
1000
0001
0100
0010
0100
0001
1000
0100
0010
0001
1000
0001
,
2000
0000
0000
0200
0300
0100
0001
3001
,
0101
0200
0300
0010
0100
0001
0010
0001
,
1000
0001
0010
0100
0000
0100
1000
0010
,
0000
0010
0100
0001
0000
1000
0001
1000
,
0000
1000
0000
1000
0000
0001
0100
0001
,
1001
0002
0000
0103
0010
1000
0100
1000
,
0001
1000
0100
0010
0000
0010
0001
0100
,
0000
0100
0010
1000
0000
0001
1000
0010
,
0000
0000
0010
0000
0000
0000
0010
0000
1000
0000
0010
0100
0010
0000
0100
0001
,
2000
3001
0000
0001
0100
0010
0100
0001
,
1000
0001
0010
0100
0000
0100
1000
0010
,
0000
0010
0100
0001
0000
1000
0001
1000
,
0000
1000
0000
1000
0000
0010
0100
0001
,
1000
0002
0000
1003
0010
0100
0001
1000
,
0001
1000
0100
0010
0000
0010
0001
0100
,
0000
0100
0010
1000
0000
0001
1000
0001
,
0000
0001
0000
0001
0100
0001
0100
0001
,
1000
1100
0000
0100
0010
0001
0100
0010
,
1000
0001
1000
0001
0000
0100
0010
0100
,
0000
0010
0100
0010
0000
0100
0010
1000
,
0000
0000
1100
0000
0000
0000
0011
0000
0000
0000
0101
0000
0100
0000
0010
1000
,
0010
2000
0000
3100
0010
0001
0100
0010
,
0100
0001
1000
0002
0000
0103
0001
1000
,
0000
0001
0100
0001
0000
1000
0100
1000
,
0000
0100
0000
0010
0000
0001
0000
0002
,
0000
0000
0000
0003
;
