#TITLE:Tsugaru;
#SUBTITLE:(apple mix);
#ARTIST:RevenG vs DE-SIRE;
#TITLETRANSLIT:;
#SUBTITLETRANSLIT:;
#ARTISTTRANSLIT:;
#CREDIT:;
#BANNER:tsugarubanner.png;
#BACKGROUND:tsugaruBG.png;
#LYRICSPATH:;
#CDTITLE:!sq3rtitle.png;
#MUSIC:tsugaru(applemix).mp3;
#OFFSET:-1.503;
#SAMPLESTART:59.400;
#SAMPLELENGTH:15.000;
#SELECTABLE:YES;
#BPMS:0.000=165.000,229.000=165.000,232.000=128.000,235.000=120.000,235.250=114.000,238.750=97.000,240.250=80.000,241.000=68.000;
#STOPS:;
#BGCHANGES:;
// cache tags:
#FIRSTBEAT:15.750;
#LASTBEAT:241.750;
#SONGFILENAME:Songs/Keyboard Collaboration II/Sq3r - Tsugaru (Apple Mix)/tsugaru(applemix).sm;
#HASMUSIC:1;
#HASBANNER:1;
#MUSICLENGTH:98.063;
// end cache tags

//---------------dance-single - ----------------
#NOTES:
     dance-single:
     :
     Hard:
     12:
     1.000,1.000,0.571,0.000,1.000,647.000,56.000,0.000,0.000,0.000:  // measure 1
0000
0000
0000
0000
,  // measure 2
0000
0000
0000
0000
,  // measure 3
0000
0000
0000
0000
,  // measure 4
0000
0000
0000
0000
0000
0000
0000
0000
0000
0000
0000
0000
0000
0000
0000
0001
,  // measure 5
1000
1000
1000
1000
,  // measure 6
1000
0110
1000
0110
1000
0110
1000
0010
,  // measure 7
0010
1100
0010
1100
0010
1100
0010
1100
,  // measure 8
0010
0000
1100
0000
0010
0000
1100
0000
0010
0000
1100
0000
0010
0000
1100
0010
,  // measure 9
0100
0000
1001
0000
0100
0000
1001
0000
0100
0000
1001
0000
0100
0010
1001
0000
,  // measure 10
0100
1001
0100
1001
0100
1001
0010
0001
,  // measure 11
0100
0000
0100
1000
0010
0000
0010
0001
,  // measure 12
1000
0000
0000
0000
0000
0000
1000
0100
0010
0001
0000
0000
0100
0000
0000
0000
0000
0000
1000
0000
0000
1000
0000
0000
,  // measure 13
0001
0000
0000
0000
0000
0000
0001
1000
0100
0010
0000
0000
0010
0000
0000
0000
0000
0000
0100
0000
0000
0100
0000
0000
,  // measure 14
0100
0000
1000
0000
0100
0000
0010
0000
0000
0001
0000
0000
0100
0000
0000
0000
0000
0000
0001
0000
0000
0000
0000
0000
1000
0000
0000
0000
0000
0000
0000
0000
0000
0000
0000
0000
0100
0000
0000
0000
0000
0000
0100
0000
0000
0000
0000
0000
,  // measure 15
0100
0000
0010
0000
0100
0000
0001
0000
0000
0010
0000
0000
0100
0000
0000
0000
0000
0000
1000
0000
0000
0000
0000
0000
1000
0000
0000
0000
0000
0000
0000
0000
0000
0000
0000
0000
1000
0000
0000
0000
0000
0000
1000
0000
0000
0000
0000
0000
,  // measure 16
0000
1000
1000
0001
0001
0100
0010
1000
,  // measure 17
1000
0000
0000
0000
0000
0000
0100
0000
0000
0000
0000
0000
0100
0000
0000
0000
0000
0000
0001
0000
0000
0000
0000
0000
0010
0000
0001
0000
0000
0000
0100
0000
0000
0100
0000
0000
0100
0000
0000
0100
0000
0000
0100
0000
0000
0000
0000
0000
,  // measure 18
0010
0000
0000
0000
0000
0000
0010
0000
0000
0000
0000
0000
1000
0000
0000
0000
0000
0000
0010
0000
0000
0000
0000
0000
0010
0000
0000
0000
0000
0000
1000
0000
0000
0100
0000
0000
1000
0000
0100
0000
1000
0000
0010
0000
0100
0000
0001
0000
,  // measure 19
0010
0000
0001
0000
1000
0000
0010
0000
0010
0100
0000
0100
0010
0100
0001
0000
,  // measure 20
0001
0001
1000
0010
0010
0010
0010
0010
,  // measure 21
1000
0100
1000
0001
0010
0001
0100
0000
0000
1000
0000
0000
1000
0000
0000
0001
0000
0000
0001
0000
0000
1001
0000
0000
,  // measure 22
1000
0000
0000
0010
0000
0000
0100
0000
0000
0010
0000
0000
0010
0000
0000
0001
0010
0100
1000
0000
0000
1000
0000
0000
,  // measure 23
0000
0000
1000
0000
0001
0000
0010
0000
0100
0000
0000
0000
1000
0000
0001
0000
0100
0000
0010
0000
0100
0000
0000
0010
1000
0000
0000
0000
0000
0000
1000
0000
,  // measure 24
0001
0000
0010
0000
0100
0000
0010
0000
0001
1000
0100
0010
0001
1000
0010
0000
1000
0000
0001
0000
0000
0000
0001
0000
1000
0000
0001
0000
0000
0000
0100
0000
,  // measure 25
0010
0000
1000
0001
0010
0000
0100
0010
0001
0000
1000
0010
0100
0001
0000
0000
0000
0000
0000
0000
0001
0010
0100
0010
0001
0000
0000
0000
1000
0100
0010
0100
,  // measure 26
1000
0001
0000
1000
0000
0000
1000
0001
0010
0000
0000
0000
0000
0000
0010
0000
0100
0000
0010
0000
0001
0000
0000
1000
0100
0000
0000
0000
0100
0010
0001
0000
,  // measure 27
1000
0000
0000
0000
0000
0000
0000
0000
0000
0000
0000
0000
0000
0000
0000
0000
0000
0000
0000
0000
0000
0000
0000
0000
1000
0000
0000
0000
0000
0000
0001
0000
0000
0000
0000
0000
0010
0000
0000
0000
0000
0000
0000
0000
0000
0000
0000
0000
0100
0000
0000
0000
0000
0000
0000
0000
1000
0000
0000
0000
0000
0000
0000
0000
0010
0000
0000
0000
0000
0000
0000
0000
0100
0000
0000
0000
0000
0000
0000
0000
0000
0000
0000
0000
0000
0000
0000
0000
0000
0000
0010
0000
0000
0000
0000
0000
1000
0000
0000
0000
0000
0000
0000
0000
0000
0000
0000
0000
0001
0000
0000
0000
0000
0000
0000
0000
0000
0000
0000
0000
0001
0000
0000
0000
0000
0000
0000
0000
0000
0000
0000
0000
1000
0000
0000
0000
0000
0000
0000
0000
0000
0000
0000
0000
0100
0000
0000
0000
0000
0000
0010
0000
0000
0000
0000
0000
0001
0000
0000
0000
0000
0000
0000
0000
0000
0000
0000
0000
0010
0000
0000
0000
0000
0000
0100
0000
0000
0000
0000
0000
1000
0000
0000
0000
0000
0000
0000
0000
0000
0000
0000
0000
,  // measure 28
0100
0000
0010
0000
0100
0000
1000
0000
0001
0010
0001
0000
0100
0010
1000
0000
0001
0010
0100
0000
0010
0000
0100
0000
1000
0000
0100
0000
0010
0000
0001
0000
,  // measure 29
0010
0000
0100
0000
0010
0000
0001
0000
0010
0000
0100
1000
0001
0000
0000
1000
0100
0010
0001
0000
0100
0000
0010
0000
1000
0000
0100
0010
0000
0100
1000
0001
,  // measure 30
0010
0000
0100
0000
0010
0000
0001
0000
0010
0000
0001
0010
0100
0000
1000
0100
0010
0000
0001
0000
0100
0000
0010
0000
0100
0000
0001
0010
0001
0000
0100
0010
,  // measure 31
1000
0010
0100
0001
0100
0000
0010
0000
1000
0000
0100
0010
0001
0000
1000
0000
0001
0000
0000
0000
0001
0000
0000
1000
0100
0000
0000
0000
0100
0010
0001
0000
,  // measure 32
0000
0000
0000
0000
0000
0000
0000
0000
0000
0000
0000
0000
1000
0000
0000
0000
0000
0000
0000
0000
0000
0000
0000
0000
0000
0000
0000
0000
0000
0000
0000
0000
0001
0000
0000
0000
0000
0000
0000
0000
0000
0000
0100
0000
0000
0000
0000
0000
0000
0000
0000
0000
0000
0000
0000
0000
0000
0000
0000
0000
0010
0000
0000
0000
0000
0000
0000
0000
0000
0000
0000
0000
1000
0000
0000
0000
0000
0000
0001
0000
0000
0000
0000
0000
0100
0000
0000
0000
0000
0000
0000
0000
0000
0000
0000
0000
0000
0000
0000
0000
0000
0000
0000
0000
0000
0000
0000
0000
0001
0000
0000
0000
0000
0000
0000
0000
0000
0000
0000
0000
1000
0000
0000
0000
0000
0000
0001
0000
0000
0000
0000
0000
0100
0000
0000
0000
0000
0000
0000
0000
0000
0000
0000
0000
0000
0000
0000
0000
0000
0000
0000
0000
0000
0000
0000
0000
0001
0000
0000
0000
0000
0000
0000
0000
0000
0000
0000
0000
1000
0000
0000
0000
0000
0000
0010
0000
0000
0000
0000
0000
0100
0000
0000
0000
0000
0000
0000
0000
0000
0000
0000
0000
,  // measure 33
0010
0000
0100
0000
0000
0000
0010
0100
0000
0000
0001
0000
0010
0000
0100
1000
0000
0000
1000
0000
0010
0100
0001
0000
1000
0000
0000
0000
0001
0010
0100
0000
,  // measure 34
1000
0000
0000
0000
1000
0100
1000
0001
0010
0000
0100
0000
1000
0000
0001
1000
0000
0000
0000
0000
0100
0010
0100
0000
0001
0000
1000
0100
0010
0000
0001
0000
,  // measure 35
1000
0100
1000
0000
0001
0000
0010
0100
0010
0000
0001
0000
1000
0000
0100
0010
0100
0000
0010
0000
0001
0000
0010
0100
0010
0000
0001
0000
1000
0000
0010
0100
,  // measure 36
0010
0000
0100
0000
0001
0000
0010
0100
0010
0000
0100
0000
1000
0010
0100
0000
0001
0000
0001
0000
0001
0010
0100
0000
1000
0000
0100
0000
0010
0000
0001
0000
,  // measure 37
1000
0100
1000
0110
1000
0100
1100
0000
0000
0110
0100
0010
,  // measure 38
0001
0010
0001
0110
0001
0010
0011
0000
0000
0110
0010
0100
,  // measure 39
1000
0010
1000
0110
1000
0010
1000
0001
0100
0110
0100
0001
,  // measure 40
1000
0100
0010
0110
0110
0110
0110
0000
0000
0000
0000
0000
,  // measure 41
1000
0000
0000
0001
0000
0000
1000
0000
0000
0010
0100
0000
0010
0000
0000
0001
0000
0000
0100
0000
0000
1000
0100
0000
,  // measure 42
1000
0000
1000
0000
0001
0000
1000
0010
1000
0000
1000
0000
0001
0000
1000
0100
,  // measure 43
0010
0000
0000
0000
0000
0000
0000
0000
0000
0001
0000
0000
0010
0000
0000
0000
0000
0000
0010
0000
0000
0100
0000
0000
1000
0000
0100
0000
0000
0000
1000
0000
0001
0000
0100
0000
0010
0000
0000
0000
0000
0000
1000
0000
0000
0001
0000
0000
,  // measure 44
0010
0000
0010
0000
0010
0000
1000
0000
1001
0000
1000
0001
1000
0000
1001
0000
,  // measure 45
0100
0000
0000
0000
0010
0000
0001
0000
0100
0000
0000
0000
0010
0000
1000
0000
0100
0000
0000
0000
0010
0000
0001
0000
0100
0010
0000
0000
0010
0000
1000
0000
,  // measure 46
0100
0000
0010
0001
0100
0010
1000
0100
0010
0000
0010
0100
1000
0000
0001
0000
,  // measure 47
1000
0000
0000
0000
0010
0000
0001
0000
0010
0000
0001
0000
1000
0100
0010
0000
0100
0000
0000
0000
1000
0000
0000
0000
1000
0000
0000
0000
1000
0000
0010
0000
,  // measure 48
0100
0000
0100
0000
0100
0000
0100
0001
0100
0000
0010
0001
1000
0000
0001
0000
,  // measure 49
1001
0000
0000
0000
1000
0100
0010
0000
0001
0000
0010
0000
1001
0000
0000
0000
1000
0100
0010
0000
0001
0000
0010
0000
1001
0000
0000
0000
1000
0100
0010
0000
,  // measure 50
1001
0000
0000
0000
0000
0000
0000
0000
0000
0000
0000
0000
0000
0000
0000
0000
0000
0000
0000
0000
0000
0000
0000
0000
0000
0000
0000
0000
0000
0000
1000
0000
0000
0000
0000
0000
0000
0000
0000
0000
0010
0000
0000
0000
0000
0000
0000
0000
0100
0000
0000
0000
0000
0000
0000
0000
0000
0000
0000
0000
0001
0000
0000
0000
0000
0000
0000
0000
0000
0000
0000
0000
0100
0000
0000
0000
0000
0000
0000
0000
0000
0000
0000
0000
0000
0000
0000
0000
0000
0000
0000
0000
0000
0000
0000
0000
0100
0000
0000
0000
0000
0000
0000
0000
0000
0000
0000
0000
0000
0000
0000
0000
0000
0000
0000
0000
0000
0000
0000
0000
0010
0000
0000
0000
0000
0000
0000
0000
0000
0000
0000
0000
0010
0000
0000
0000
0000
0000
0000
0000
0000
0000
0000
0000
0000
0000
0000
0000
0000
0000
0000
0000
0000
0000
0000
0000
0000
0000
0000
0000
0000
0000
0000
0000
0000
0000
0000
0000
0000
0000
0000
0000
0000
0000
0000
0000
0000
0000
0000
0000
1000
0000
0000
0000
0000
0000
0000
0000
0000
0000
0000
0000
,  // measure 51
1000
0000
0000
0000
0000
0000
0000
0000
0000
0000
0000
0000
0000
0000
0000
0000
0000
0000
0000
0000
0000
0000
0000
0000
0000
0000
0000
0000
0000
0000
0000
0000
0000
0000
0000
0000
0001
0000
0000
0000
0000
0000
0000
0000
0000
0000
0000
0000
0001
0000
0000
0000
0000
0000
0000
0000
0000
0000
0000
0000
1000
0000
0000
0000
0000
0000
0000
0000
0000
0000
0000
0000
0010
0000
0000
0000
0000
0000
0100
0000
0000
0000
0000
0000
0000
0000
0000
0000
0000
0000
0000
0000
0000
0000
0000
0000
1000
0000
0000
0000
0000
0000
0000
0000
0000
0000
0000
0000
0000
0000
0000
0000
0000
0000
0000
0000
0000
0000
0000
0000
0000
0000
0000
0000
0000
0000
0001
0000
0000
0000
0000
0000
0000
0000
0000
0000
0000
0000
0000
0000
0000
0000
0000
0000
0000
0000
0000
0000
0000
0000
0000
0000
1000
0000
0000
0000
0000
0000
0000
0000
0000
0000
0000
0000
0000
0000
0000
0000
0010
0000
0000
0000
0000
0000
0000
0000
0000
0000
0000
0000
0000
0000
0000
0000
0000
0000
0000
0000
0000
0000
0000
0000
,  // measure 52
0000
0000
0100
0000
0100
0000
0100
0000
0100
0000
0100
0010
1000
0000
1000
0100
,  // measure 53
0010
0000
0011
0000
1010
0000
0011
0010
1010
0000
1000
0001
0010
0000
1000
0001
,  // measure 54
0100
0000
0000
0000
0000
0000
0100
0000
0000
0000
0000
0000
0100
0000
0000
0010
0000
0000
0100
0000
0000
0000
0000
0000
0100
0000
0000
0000
0000
0000
0000
0000
0000
0001
0000
0000
0001
0000
0000
0000
0000
0000
1000
0000
0000
0000
0100
0000
,  // measure 55
0010
0000
0001
0000
1000
0100
1000
0010
0100
0000
0010
0100
0010
0000
0010
0100
,  // measure 56
0010
0000
0010
0100
0010
1000
0001
0010
0100
0000
1000
0001
1000
0000
0000
0100
,  // measure 57
0011
0000
1100
0000
1001
0000
0000
0101
,  // measure 58
0000
1010
0000
0110
1001
0000
0110
0000
,  // measure 59
1001
0000
0000
0000
0000
0000
0000
0000
0000
0000
0000
0000
1000
1100
0000
0000
,  // measure 60
0000
0000
0000
0000
0000
0000
0000
0000
0000
0000
0001
0011
0000
0000
1010
0000
,  // measure 61
0000
0000
0000
0101
0000
0000
0000
0000
0000
0000
0000
0000
1100
0000
0000
0000
0001
0000
1000
0000
0000
1001
0000
0000
0000
0000
0000
0000
0000
0000
0000
0000
0000
0000
0000
0000
0000
0000
0000
0000
0000
0000
0000
0000
0000
0000
0000
0000
;
