#TITLE:Era;
#SUBTITLE:(Big Beat 1st style mix);
#ARTIST:TaQ (Remixed by NVLM_ZK);
#TITLETRANSLIT:;
#SUBTITLETRANSLIT:;
#ARTISTTRANSLIT:;
#CREDIT:;
#BANNER:Era (Big Beat 1st style mix).png;
#BACKGROUND:Era (Big Beat 1st style mix)-bg.png;
#LYRICSPATH:;
#CDTITLE:NVLM-cdtitle.png;
#MUSIC:Era (Big Beat 1st style mix).mp3;
#OFFSET:-6.628;
#SAMPLESTART:25.554;
#SAMPLELENGTH:12.000;
#SELECTABLE:YES;
#BPMS:0.000=114.700;
#STOPS:;
#BGCHANGES:;
// cache tags:
#FIRSTBEAT:0.000;
#LASTBEAT:188.000;
#SONGFILENAME:Songs/toune 8/Era (Big Beat 1st style mix)/Era (Big Beat 1st style mix).sm;
#HASMUSIC:1;
#HASBANNER:1;
#MUSICLENGTH:105.613;
// end cache tags

//---------------dance-single - ----------------
#NOTES:
     dance-single:
     :
     Hard:
     9:
     0.463,0.512,0.133,0.066,0.336,321.000,14.000,7.000,0.000,0.000:  // measure 1
1000
0100
0000
0000
0100
0010
0000
0000
0010
0001
0010
0001
0010
0001
0010
0001
,  // measure 2
1000
0100
0010
0001
0100
1000
1010
0000
,  // measure 3
0001
0100
1000
0100
0010
1000
1001
0000
,  // measure 4
0010
0100
0001
0010
0100
1000
1010
0000
,  // measure 5
0100
0000
0001
0000
1000
0000
0100
0000
0010
0000
0001
0000
1000
0100
1000
0100
,  // measure 6
1000
0010
0100
0001
0010
0100
1100
0000
,  // measure 7
1000
0010
0100
0001
0010
0100
1001
0000
,  // measure 8
0100
0001
0100
1000
0010
0100
0101
0000
,  // measure 9
0001
0010
0000
0000
0010
0100
0000
0000
0100
1000
0100
1000
0100
1000
0100
1000
,  // measure 10
0001
0100
0000
0001
0000
0000
0010
0000
0100
0000
1000
0000
0010
0000
0000
0000
,  // measure 11
0100
0001
0000
0100
0000
0000
0010
0000
1000
0000
0100
0000
0010
0000
0000
0000
,  // measure 12
0001
0010
0000
0001
0000
0000
0100
0000
0010
0000
1000
0000
0100
0000
0000
0000
,  // measure 13
0010
0010
0010
0010
0001
0001
0001
0001
,  // measure 14
1000
0100
0000
1000
0000
0010
0100
0000
0001
0000
0010
0000
0100
0000
0000
0000
,  // measure 15
1000
0010
0000
1000
0000
0001
0010
0000
0100
0000
1000
0000
0001
0000
0000
0000
,  // measure 16
0100
0010
0000
0100
0000
1000
0001
0000
0010
0000
0100
0000
1000
0000
0000
0000
,  // measure 17
0010
0100
0000
0000
0100
0001
0000
0000
0001
1000
0001
1000
0001
1000
0001
1000
,  // measure 18
0200
0000
0000
0000
,  // measure 19
0320
0000
0000
0000
,  // measure 20
0032
0000
0000
0000
,  // measure 21
0203
0000
0000
0000
,  // measure 22
0320
0000
1030
1001
,  // measure 23
0110
0000
0100
0000
0001
0010
0100
0000
,  // measure 24
1000
0000
0010
0000
0100
0001
0001
0000
,  // measure 25
1000
0000
0010
0000
0100
0100
0001
0000
,  // measure 26
0010
0010
0100
0000
1000
1000
0010
0000
,  // measure 27
0110
0000
0000
0000
,  // measure 28
0101
0000
0000
0000
,  // measure 29
1100
0000
0000
0000
,  // measure 30
0100
0001
0000
0000
0001
1000
0000
0000
1000
0100
1000
0100
1000
0100
1000
0100
,  // measure 31
0010
0001
0000
0010
0001
0000
0100
0000
0010
0000
1000
0000
0100
0000
0000
0000
,  // measure 32
0001
1000
0000
0001
1000
0000
0100
0000
0010
0000
1000
0000
0100
0000
0000
0000
,  // measure 33
0001
0100
0000
1000
0100
0000
0010
0000
0001
0000
0100
0000
0010
0000
0000
0000
,  // measure 34
1000
0100
0001
0100
1000
0010
0010
0010
,  // measure 35
0100
0001
0000
0100
1000
0000
0010
0000
0100
0000
0001
0000
0010
0000
0000
0000
,  // measure 36
0100
1000
0000
1000
0001
0000
0100
0000
1000
0000
0100
0000
0010
0000
0000
0000
,  // measure 37
1000
0100
0000
0010
0100
0000
0010
0000
0001
0000
0100
0000
1000
0000
0000
0000
,  // measure 38
1000
0100
0010
0001
0100
1000
0100
0010
,  // measure 39
0001
0100
0000
0100
0010
0000
1000
0000
0100
0000
0010
0000
0001
0000
0100
0000
,  // measure 40
1000
0010
0000
0010
0100
0000
0001
0000
0010
0000
1000
0000
0010
0000
0001
0000
,  // measure 41
0100
0010
0000
0010
1000
0000
0100
0000
0010
0000
0001
0000
0100
0000
0010
0000
,  // measure 42
1000
0100
0010
0001
0101
0000
1100
0000
,  // measure 43
1000
0010
0000
1000
0100
0000
0010
0000
0001
0000
0100
0000
1000
0000
0100
0000
,  // measure 44
0010
1000
0000
1000
0001
0000
0010
0000
0100
0000
0001
0000
0100
0000
1000
0000
,  // measure 45
0010
0100
0000
0100
0001
0000
1000
0000
0100
0000
0010
0000
0001
0000
0100
0000
,  // measure 46
0010
1000
0000
0000
1000
0001
0000
0000
0001
0010
0001
0010
0100
1000
0100
1000
,  // measure 47
2002
0000
0000
0000
,  // measure 48
3003
0000
0000
0000
;

//---------------dance-single - ----------------
#NOTES:
     dance-single:
     :
     Challenge:
     11:
     1.000,1.000,1.000,0.170,1.000,587.000,190.000,18.000,0.000,53.000:  // measure 1
1001
0100
0010
0000
1100
0010
0001
0000
0011
0001
0010
0001
1100
0010
0100
0010
,  // measure 2
1001
0100
0010
0001
0100
0010
1000
0100
0001
0100
1000
0001
1010
1010
0000
0000
,  // measure 3
1001
0010
0100
1000
1000
0010
0100
0001
0010
0100
1000
0010
1001
1001
0000
0000
,  // measure 4
0011
1000
0100
0010
0001
0100
0010
1000
0100
0010
1000
0001
1010
1010
0000
0000
,  // measure 5
1100
0010
0001
0100
1000
0010
0100
0001
1010
0100
1001
0010
1100
1100
1100
1100
,  // measure 6
1100
0001
0010
1000
0100
0010
0001
1000
0010
0001
0100
0010
1100
1100
0000
0000
,  // measure 7
1001
0100
0010
0001
0100
1000
0001
0100
0010
0001
0100
0010
1001
1001
0000
0000
,  // measure 8
1100
0010
0001
1000
0100
0010
1000
0100
0010
0001
0100
1000
0101
0101
0000
0000
,  // measure 9
1001
0010
0100
0000
0011
0100
1000
0000
1100
1000
0100
1000
0011
0100
0010
0100
,  // measure 10
1001
0010
0000
0101
0000
0110
0000
0000
1001
0100
0010
0001
0100
0010
1000
0010
,  // measure 11
0101
0001
0000
0110
0000
1100
0000
0000
1001
0100
0010
0001
0100
1000
0100
0010
,  // measure 12
0011
1000
0000
1100
0000
0110
0000
0000
1001
0010
0100
1000
0010
0100
0001
0010
,  // measure 13
1100
1100
1100
1100
1100
1100
1100
1100
0011
0011
0011
0011
0011
0011
0011
0011
,  // measure 14
1001
0100
0000
1100
0000
1010
0000
0000
1001
0010
0100
1000
0010
0100
0001
0010
,  // measure 15
1100
1100
0000
1001
0000
0011
0000
0000
1100
0010
1000
0100
0001
0100
0010
1000
,  // measure 16
1100
0010
0000
0011
0000
1001
0000
0000
1010
1000
0100
0010
0001
0100
1000
0000
,  // measure 17
0011
0100
1000
0000
0110
0001
1000
0000
0101
1000
0001
1000
1100
0010
0100
0010
,  // measure 18
0220
0000
0000
0001
0000
0000
1000
0000
0000
0001
0000
0000
1000
0000
1331
0000
,  // measure 19
2020
0000
0000
0100
0000
0000
0001
0000
0000
0100
0000
0000
0001
0000
3131
0000
,  // measure 20
0202
0000
0000
1000
0000
0000
0010
0000
0000
1000
0000
0000
0010
0000
1313
0000
,  // measure 21
0220
0000
0000
1000
0000
0000
0001
0000
0000
1000
0000
0000
0001
0000
1331
0000
,  // measure 22
2002
0110
0110
0110
0110
0110
0110
3113
,  // measure 23
0110
0010
0000
0010
1010
0000
0010
0010
1000
0010
0010
0000
1010
0001
0010
0001
,  // measure 24
1010
1000
0000
1000
1010
0000
1000
1000
0010
1000
1000
0000
1010
0100
1000
0100
,  // measure 25
1001
0001
0000
0001
1001
0000
0001
0001
1000
0001
0001
0000
1001
0010
0001
0010
,  // measure 26
0101
0100
0000
0100
0101
0000
0100
0100
0001
0100
0100
0000
0101
1000
0100
1000
,  // measure 27
0220
0001
0001
1000
1000
0001
0331
1001
,  // measure 28
0202
0010
0010
1000
1000
0010
0313
1010
,  // measure 29
2200
0000
0010
0000
0010
0000
0001
0000
0001
0000
0010
0000
3310
0001
0110
0001
,  // measure 30
1100
0001
0010
0000
0101
1000
0010
0000
1100
0100
1000
0100
0011
1000
0001
1000
,  // measure 31
1010
0001
0100
0010
1001
1000
0100
0000
0010
0100
1000
0001
0101
0010
1100
0000
,  // measure 32
0001
1000
0100
0001
1001
1000
0100
0000
0010
0100
1000
0001
0101
1000
1100
0000
,  // measure 33
0001
0100
0010
1000
1100
0100
0010
0000
0001
0010
0100
1000
1010
0100
0011
0000
,  // measure 34
1000
0010
0100
0010
1001
1000
0100
0000
1001
0010
1100
1000
1100
0010
1001
0010
,  // measure 35
1100
0001
0010
0100
1100
1000
0010
0000
0100
1000
0001
0100
0110
1000
0011
0000
,  // measure 36
0100
1000
0010
1000
1001
0001
0100
0000
1000
0010
0100
0001
0011
1000
0110
0000
,  // measure 37
1000
0100
0001
0010
1100
1000
0010
0000
0001
0010
0100
0001
1001
0010
1100
0000
,  // measure 38
1000
0010
0100
0001
0011
0010
1000
0000
0100
0010
0001
0100
1100
0001
1010
0000
,  // measure 39
0001
0100
1000
0100
0110
0010
0001
0000
0100
1000
0010
0100
0101
1000
0011
0000
,  // measure 40
1000
0010
0100
0001
0011
0010
0001
0000
0010
0100
1000
0010
0110
1000
0101
0000
,  // measure 41
0100
0010
0001
0010
1010
1000
0100
0000
0010
1000
0001
0010
0110
1000
0011
0000
,  // measure 42
1100
1100
1100
0000
0101
0101
0101
0000
1001
1001
1001
1001
1001
1001
1001
1001
,  // measure 43
1001
0000
0000
0010
0000
0000
0100
0000
0000
1000
0000
0000
1100
0000
0000
0000
0000
1000
0010
0000
0000
0000
0000
0000
0001
0000
0000
0010
0000
0000
0100
0000
0000
1000
0000
0000
1001
0000
0000
0000
0000
0001
0100
0000
0000
0000
0000
0000
,  // measure 44
0010
0000
0000
1000
0000
0000
0100
0000
0000
1000
0000
0000
1001
0000
0000
0000
0000
0001
0010
0000
0000
0000
0000
0000
0100
0000
0000
0010
0000
0000
0001
0000
0000
1000
0000
0000
1100
0000
0000
0000
0000
1000
0010
0000
0000
0000
0000
0000
,  // measure 45
0100
0000
0000
0010
0000
0000
0001
0000
0000
0100
0000
0000
0110
0000
0000
0000
0000
0010
1000
0000
0000
0000
0000
0000
0100
0000
0000
1000
0000
0000
0010
0000
0000
0100
0000
0000
0101
0000
0000
0000
0000
0001
1000
0000
0000
0000
0000
0000
,  // measure 46
0110
0110
0110
0000
1001
1001
1001
0000
0110
0110
0110
0110
0110
0110
0110
0110
,  // measure 47
2002
0100
0100
0010
0010
0100
0100
0010
,  // measure 48
3113
0000
0000
0000
;

//---------------dance-double - ----------------
#NOTES:
     dance-double:
     :
     Hard:
     8:
     0.383,0.378,0.303,0.066,0.000,244.000,32.000,7.000,0.000,0.000:  // measure 1
01100000
00000000
00011000
00000000
00000010
00000100
00001000
00010000
,  // measure 2
00100000
01000000
10000000
00010000
01000000
00001000
00010000
00000000
,  // measure 3
00001000
00000100
00000010
00000001
00000100
00001000
00010000
00000000
,  // measure 4
00100000
01000000
00001000
00010000
00000100
00001000
00000010
00000000
,  // measure 5
00000100
00000001
00001000
00000100
00010000
00001000
00100000
00000000
,  // measure 6
01000000
10000000
00010000
01000000
00001000
00010000
00000010
00000000
,  // measure 7
00000100
00000001
00001000
00000010
00010000
00000100
00001000
00000000
,  // measure 8
00010000
00000100
00000010
00000001
00000100
00001000
00010000
00000000
,  // measure 9
00110000
00000000
01100000
00000000
10000000
01000000
00100000
00010000
,  // measure 10
00001000
00000100
00000010
00000001
00000100
00001000
00010000
00000000
,  // measure 11
00100000
01000000
10000000
00010000
01000000
00001000
00010000
00000000
,  // measure 12
00001000
00000100
00000010
00001000
00010000
00100000
01000000
00000000
,  // measure 13
11000000
01010000
00011000
00001100
,  // measure 14
00000100
00000010
00000001
00001000
00000100
00010000
00001000
00000000
,  // measure 15
00100000
00010000
01000000
00100000
10000000
01000000
00010000
00000000
,  // measure 16
00001000
00000100
00000010
00000001
00000100
00001000
00010000
00000000
,  // measure 17
01100000
00000000
00101000
00000000
00100000
00010000
00001000
00000100
,  // measure 18
00000020
00000000
00000000
00000000
,  // measure 19
00000032
00000000
00000000
00000000
,  // measure 20
00000203
00000000
00000000
00000000
,  // measure 21
00002300
00000000
00000000
00000000
,  // measure 22
00023000
00000000
00000000
00000000
,  // measure 23
00130000
01000000
10000000
00010000
,  // measure 24
00100000
00001000
00010000
00000100
,  // measure 25
00000010
00000001
00001000
00000010
,  // measure 26
00010000
00001000
00100000
00010000
,  // measure 27
10010000
00000000
00000000
00000000
,  // measure 28
00001001
00000000
00000000
00000000
,  // measure 29
01100000
00000000
00000000
00000000
,  // measure 30
01010000
00000000
00011000
00000000
00000100
00001000
00010000
00100000
,  // measure 31
01000000
10000000
00100000
01000000
00001000
00010000
00000100
00000000
,  // measure 32
00001000
00001000
00000001
00000100
00001000
00010000
00100000
00000000
,  // measure 33
01000000
01000000
10000000
00010000
00100000
00001000
00010000
00000000
,  // measure 34
00001100
00001010
00010010
00011000
,  // measure 35
00001000
00010000
00100000
01000000
00010000
00001000
00000100
00000000
,  // measure 36
00000010
00000001
00000100
00001000
00010000
00100000
01000000
00000000
,  // measure 37
10000000
00100000
01000000
00001000
00010000
00000100
00000010
00000000
,  // measure 38
00000101
00001100
00011000
01010000
,  // measure 39
10000000
01000000
00100000
00010000
00001000
01000000
01000000
00000000
,  // measure 40
00100000
10000000
00010000
00100000
00001000
00010000
00000100
00000000
,  // measure 41
00001000
00000100
00000010
00001000
00010000
00100000
01000000
00000000
,  // measure 42
10100000
00110000
00011000
00001100
,  // measure 43
00000100
00000010
00000001
00000100
00001000
00010000
00100000
00000000
,  // measure 44
01000000
10000000
00010000
00100000
00001000
00010000
00000100
00000000
,  // measure 45
00001000
00000100
00000010
00000001
00000100
00001000
00010000
00000000
,  // measure 46
00110000
00101000
00011000
00010100
,  // measure 47
00002200
00000000
00000000
00000000
,  // measure 48
00003300
00000000
00000000
00000000
;

//---------------dance-double - ----------------
#NOTES:
     dance-double:
     :
     Challenge:
     9:
     0.533,0.512,0.852,0.114,0.000,292.000,90.000,12.000,0.000,5.000:  // measure 1
01100000
00000000
00011000
00000000
00000110
00000100
00001000
00010000
,  // measure 2
00110000
01000000
10000000
00010000
01000000
00001000
00010000
00011000
,  // measure 3
00001000
00000100
00000010
00000001
00000100
00001000
00010000
00110000
,  // measure 4
00100000
01000000
00001000
00010000
00000100
00001000
00000010
00000110
,  // measure 5
00000100
00000001
00001000
00000100
00010000
00001000
00100000
01100000
,  // measure 6
01000000
10000000
00010000
01000000
00001000
00010000
00000010
00000110
,  // measure 7
00000100
00000001
00001000
00000010
00010000
00000100
00001000
00011000
,  // measure 8
00010000
00000100
00000010
00000001
00000100
00001000
00010000
00110000
,  // measure 9
00110000
00000000
01100000
00000000
11000000
01000000
00100000
00010000
,  // measure 10
00011000
00000100
00000010
00000001
00000100
00001000
00010000
00110000
,  // measure 11
00100000
01000000
10000000
00010000
01000000
00001000
00010000
00011000
,  // measure 12
00001000
00000100
00000010
00001000
00010000
00100000
01000000
11000000
,  // measure 13
11000000
00000000
01010000
00000000
00011000
00011000
00001100
00001100
,  // measure 14
00001100
00000010
00000001
00001000
00000100
00010000
00001000
00101000
,  // measure 15
00100000
00010000
01000000
00100000
10000000
01000000
00010000
00011000
,  // measure 16
00001000
00000100
00000010
00000001
00000100
00001000
00010000
00110000
,  // measure 17
01100000
00000000
00101000
00000000
00110000
00010000
00001000
00000100
,  // measure 18
00000220
00000000
00010000
00000330
,  // measure 19
00002002
00000000
00010000
00003003
,  // measure 20
00002020
00000000
00010000
00003030
,  // measure 21
00022000
00000000
00000100
00033000
,  // measure 22
00202000
00000000
00010000
00303000
,  // measure 23
00100000
00010000
01010000
00000000
10000000
01000000
01010000
00000000
,  // measure 24
00100000
00010000
00011000
00000000
00010000
00001000
00001100
00000000
,  // measure 25
00000010
00000001
00000101
00000000
00001000
00000010
00000110
00000000
,  // measure 26
00010000
00001000
00101000
00000000
00100000
00010000
01010000
00000000
,  // measure 27
10010000
00000000
00000000
00000000
,  // measure 28
00001001
00000000
00000000
00000000
,  // measure 29
01100000
00000000
00000000
00000000
,  // measure 30
01010000
00000000
00011000
00000000
00001100
00001000
00010000
00100000
,  // measure 31
01000000
10000000
00100000
01000000
00001000
00010000
00000100
00001100
,  // measure 32
00001000
00001000
00000001
00000100
00001000
00010000
00100000
01100000
,  // measure 33
01000000
01000000
10000000
00010000
00100000
00001000
00010000
00011000
,  // measure 34
00001100
00000000
00001010
00000000
00010010
00010010
00011000
00011000
,  // measure 35
00011000
00010000
00100000
01000000
00010000
00001000
00000100
00000110
,  // measure 36
00000010
00000001
00000100
00001000
00010000
00100000
01000000
11000000
,  // measure 37
10000000
00100000
01000000
00001000
00010000
00000100
00000010
00000011
,  // measure 38
00000101
00000000
00001100
00000000
00011000
00011000
01010000
01010000
,  // measure 39
10010000
01000000
00100000
00010000
00001000
01000000
01000000
01100000
,  // measure 40
00100000
10000000
00010000
00100000
00001000
00010000
00000100
00001100
,  // measure 41
00001000
00000100
00000010
00001000
00010000
00100000
01000000
11000000
,  // measure 42
10100000
00000000
00110000
00000000
00011000
00011000
00001100
00001100
,  // measure 43
00001100
00000010
00000001
00000100
00001000
00010000
00100000
01100000
,  // measure 44
01000000
10000000
00010000
00100000
00001000
00010000
00000100
00001100
,  // measure 45
00001000
00000100
00000010
00000001
00000100
00001000
00010000
00011000
,  // measure 46
00110000
00000000
00101000
00000000
00011000
00011000
00010100
00010100
,  // measure 47
00002200
00000000
00000000
00000000
,  // measure 48
00003300
00000000
00000000
00000000
;

//---------------dance-single - ----------------
#NOTES:
     dance-single:
     :
     Easy:
     4:
     0.249,0.312,0.076,0.265,0.000,148.000,8.000,28.000,0.000,0.000:  // measure 1
2000
3020
0230
0000
,  // measure 2
0301
0010
0100
1000
,  // measure 3
1000
0001
0100
1000
,  // measure 4
0100
0010
1000
0001
,  // measure 5
0010
0100
1000
0010
,  // measure 6
0100
0001
1000
0100
,  // measure 7
0001
0100
0010
1000
,  // measure 8
0001
0010
1000
0100
,  // measure 9
0020
0032
2003
0000
,  // measure 10
3002
0003
0100
0010
,  // measure 11
0200
0300
1000
0010
,  // measure 12
0002
0003
0010
0100
,  // measure 13
1000
1000
1000
1000
,  // measure 14
0200
0300
0001
0010
,  // measure 15
0200
0300
1000
0001
,  // measure 16
0020
0030
0100
1000
,  // measure 17
0020
0230
0302
0000
,  // measure 18
2003
0000
0000
0000
,  // measure 19
3200
0000
0000
0000
,  // measure 20
0320
0000
0000
0000
,  // measure 21
0032
0000
0000
0000
,  // measure 22
0203
0000
0000
0000
,  // measure 23
0310
0010
0010
0010
,  // measure 24
0100
0100
0100
0100
,  // measure 25
0001
0001
0001
0001
,  // measure 26
0010
0010
0010
0010
,  // measure 27
1001
0000
0000
0000
,  // measure 28
0101
0000
0000
0000
,  // measure 29
1100
0000
0000
0000
,  // measure 30
0200
0302
2003
0000
,  // measure 31
3010
0010
0100
0001
,  // measure 32
1000
1000
0100
0010
,  // measure 33
0001
0100
0001
0100
,  // measure 34
1000
0001
0020
0000
,  // measure 35
0130
1000
0010
0100
,  // measure 36
0001
0010
0100
0010
,  // measure 37
0001
0001
0100
0100
,  // measure 38
1000
0010
0200
0000
,  // measure 39
0301
0010
0100
1000
,  // measure 40
0001
0100
0001
0001
,  // measure 41
0010
0100
1000
0010
,  // measure 42
1000
0010
0002
0000
,  // measure 43
1003
0100
0010
0001
,  // measure 44
0100
0010
1000
0001
,  // measure 45
0010
0100
1000
0010
,  // measure 46
0110
0101
1001
1100
,  // measure 47
2002
0000
0000
0000
,  // measure 48
3003
0000
0000
0000
;

//---------------dance-single - ----------------
#NOTES:
     dance-single:
     :
     Medium:
     6:
     0.365,0.378,0.388,0.237,0.000,204.000,41.000,25.000,0.000,0.000:  // measure 1
1010
0000
0110
0000
0100
0001
0100
0001
,  // measure 2
1000
0100
0100
0000
0010
0000
1001
0000
,  // measure 3
0001
0100
0100
0000
0010
0000
1010
0000
,  // measure 4
0100
0100
0001
0000
0010
0000
1100
0000
,  // measure 5
0100
0000
1001
0000
0010
0100
1000
1000
,  // measure 6
1000
0010
0100
0000
0001
0000
0110
0000
,  // measure 7
1000
0010
0100
0000
0010
0000
1001
0000
,  // measure 8
0100
0001
0100
0000
0010
0000
1001
0000
,  // measure 9
0011
0000
0110
0000
1000
1000
1000
1000
,  // measure 10
0002
0000
0003
0000
0100
1000
0010
0000
,  // measure 11
0200
0000
0300
0000
1000
0100
0010
0000
,  // measure 12
0002
0000
0003
0000
0010
1000
0100
0000
,  // measure 13
0011
0101
1001
1100
,  // measure 14
0200
0000
0310
0000
0001
0100
0100
0000
,  // measure 15
2000
0000
3010
0000
0001
0100
0100
0000
,  // measure 16
0020
0000
1030
0000
0100
0010
0001
0000
,  // measure 17
0110
0000
0101
0000
0001
1000
0001
1000
,  // measure 18
0200
0000
0000
0000
,  // measure 19
0320
0000
0000
0000
,  // measure 20
0032
0000
0000
0000
,  // measure 21
0203
0000
0000
0000
,  // measure 22
0320
0000
0000
0000
,  // measure 23
0130
0000
0100
0000
0100
0100
0100
0000
,  // measure 24
1000
0000
1000
0000
1000
1000
1000
0000
,  // measure 25
0001
0000
0001
0000
0001
0001
0001
0000
,  // measure 26
0010
0000
0010
0000
0010
0010
0010
0000
,  // measure 27
0110
0000
0000
0000
,  // measure 28
0101
0000
0000
0000
,  // measure 29
1001
0000
0000
0000
,  // measure 30
0101
0000
1001
0000
1000
0100
1000
0100
,  // measure 31
0020
0000
0031
0000
0010
0100
1100
0000
,  // measure 32
0002
0000
0013
0000
0100
1000
1001
0000
,  // measure 33
0020
0000
0130
0000
0001
1000
1010
0000
,  // measure 34
0100
1001
1100
0110
,  // measure 35
0002
0000
1003
0000
0100
0001
0011
0000
,  // measure 36
0200
0000
0301
0000
1000
0100
0110
0000
,  // measure 37
0002
0000
0103
0000
0010
1000
1100
0000
,  // measure 38
0001
0110
1010
1100
,  // measure 39
0002
0000
0013
0010
0100
1000
0010
0000
,  // measure 40
2000
0000
3100
0100
0010
0001
1000
0000
,  // measure 41
0020
0000
1030
1000
0100
0010
0001
0000
,  // measure 42
0110
0101
1100
1010
,  // measure 43
2000
0000
3100
0010
0001
0100
0010
0000
,  // measure 44
2000
0000
3001
0010
0100
1000
0010
0000
,  // measure 45
0200
0000
0301
1000
0100
0010
0010
0000
,  // measure 46
1010
0000
1001
0000
0001
0010
0100
1000
,  // measure 47
2002
0000
0000
0000
,  // measure 48
3003
0000
0000
0000
;
