#TITLE:(^^)300;
#SUBTITLE:;
#ARTIST:Yamajet / Y.W;
#TITLETRANSLIT:;
#SUBTITLETRANSLIT:;
#ARTISTTRANSLIT:;
#CREDIT:;
#BANNER:foon300-banner.png;
#BACKGROUND:foon300-bg.png;
#LYRICSPATH:;
#CDTITLE:141logo.png;
#MUSIC:foon300.mp3;
#OFFSET:-0.080;
#SAMPLESTART:9.696;
#SAMPLELENGTH:12.000;
#SELECTABLE:YES;
#BPMS:0.000=300.000;
#STOPS:;
#BGCHANGES:;
// cache tags:
#FIRSTBEAT:16.000;
#LASTBEAT:444.000;
#SONGFILENAME:Songs/Japanese Collaboration Mix/foon300/foon300.sm;
#HASMUSIC:1;
#HASBANNER:1;
#MUSICLENGTH:89.376;
// end cache tags

//---------------dance-single - MANIAC----------------
#NOTES:
     dance-single:
     MANIAC:
     Hard:
     10:
     0.855,0.931,0.302,0.246,0.078,486.000,27.000,22.000,0.000,0.000:
0000
0000
0000
0000
,
0000
0000
0000
0000
,
0000
0000
0000
0000
,
0000
0000
0000
0000
,
0001
0000
0100
0000
0001
0100
0000
0001
,
1000
0000
0010
0000
1000
0010
0000
0100
,
0001
0000
0010
0000
0001
0010
0000
0001
,
1000
0001
1000
0000
,
1000
0001
1000
0010
,
1000
0001
0100
0001
,
1000
0010
0100
0001
,
0010
0001
1000
0100
,
1000
0001
0010
0001
,
0100
0001
1000
0010
,
0100
0010
0100
0000
0010
0100
0010
0000
,
1000
0001
0100
0010
1000
0001
0100
0010
,
1000
0001
0010
0001
,
0010
0100
0010
1000
,
0001
1000
0010
1000
,
0021
0031
1020
1030
,
0010
0000
1000
0000
0010
0100
0000
0010
,
0100
0000
0001
0000
0100
0010
0000
0100
,
0010
0000
0100
0000
0010
1000
0000
0010
,
1000
0001
0000
0001
1000
0000
0010
0100
,
0001
1000
1001
0001
,
1001
1000
1001
0001
,
1001
1000
1001
0001
,
0001
1000
0001
0000
1000
0001
1000
0000
,
0001
0000
0010
0100
0010
0000
1000
0000
,
0100
0000
1000
0001
1000
0000
0010
0000
,
1001
0000
0000
0110
0000
0000
1001
0000
,
0001
0100
1000
0100
0001
0100
1000
0100
,
0002
0000
1003
0100
,
1000
0100
2000
0000
,
3001
0010
0001
0010
,
0001
0010
0001
0010
,
0001
0100
0001
0100
,
0001
0100
0001
0100
,
0002
1000
0003
1000
,
0001
1000
0001
1000
,
0001
0100
0001
0100
,
0020
0100
0030
0100
,
0001
0000
0100
0010
0100
0010
0100
0000
,
0001
1000
0110
0000
,
0001
0010
1000
0100
,
0001
0010
1000
0100
,
0001
0010
1000
0100
,
0001
0010
1000
0100
,
0001
0100
1000
0010
,
0001
0100
1000
0010
,
0001
0100
1000
0010
,
0001
0100
1000
0010
,
0001
1000
0100
0010
,
0001
1000
0100
0010
,
0001
1000
0100
0010
,
0001
1000
0220
0330
,
1000
0000
0010
0100
0000
0100
0010
0000
,
0001
0000
0100
0010
0000
0010
0100
0000
,
0100
0000
0001
1000
0000
1000
0001
0000
,
0011
1100
0110
0000
,
0010
0000
0001
0100
0000
0001
1000
0000
,
0100
0000
1000
0010
0000
1000
0001
0000
,
0001
0000
0010
0100
0000
0010
1000
0000
,
1010
0101
1001
0000
,
1000
0000
0001
0100
0000
0100
0001
0000
,
0001
0000
1000
0010
0000
0010
1000
0000
,
0001
0000
0010
1000
0000
1000
0010
0000
,
0101
1010
0110
0000
,
0100
0000
0010
1000
0000
1000
0010
0000
,
0010
0000
0100
0001
0000
0001
0100
0000
,
0001
0000
0010
0000
0100
0000
1000
0000
0100
0000
0010
0000
,
1001
0000
0010
0000
0100
0000
2002
0000
0000
0000
0000
0000
,
0000
0000
0000
0000
,
0000
0000
0000
0000
,
0000
0000
0000
0000
,
0000
0000
0000
0000
,
0000
0000
0000
3003
,
0010
0100
0010
0000
1000
0000
0010
0100
,
0010
0000
1000
0000
0100
0010
0100
0000
,
0010
0000
0001
1000
0001
1000
0001
0000
,
0010
0100
0010
0100
0010
0000
0001
1000
,
0001
1000
0001
1000
0001
1000
0001
0000
,
0100
0010
0100
0010
0100
0000
0001
0000
,
0100
0010
0100
0000
0001
0000
1000
0001
,
1000
0001
1000
0001
1000
0000
0010
0000
,
0001
0010
0001
0010
0001
0000
1000
0100
,
1000
0100
1000
0000
0001
1000
0001
1000
,
0001
0000
0100
0010
0100
0010
0100
0000
,
0001
0100
1000
0100
0001
0000
1000
0100
,
0001
0100
1000
0000
0001
0010
1000
0010
,
0001
0000
1000
0010
0001
0010
1000
0000
,
0001
0100
1000
0100
0001
0000
1000
0010
,
0001
0010
1000
0010
0001
0010
1000
0000
,
0001
0000
0001
1000
0000
1000
0001
0000
,
0110
0000
2000
0000
0000
3002
0000
0000
,
1003
0000
1000
0001
0000
0001
1000
0000
,
0110
0000
0002
0000
0000
2003
0000
0000
,
3010
0000
0010
0100
0000
0100
0010
0000
,
1000
0000
1000
0001
0000
0001
1000
0000
,
0010
0000
0010
1000
0000
1000
0010
0000
,
0101
0000
2000
0000
0000
3020
0000
0000
,
1030
0000
0001
1000
0000
0010
1000
0000
,
0001
0000
1000
0001
0000
0100
0001
0000
,
0100
0000
0001
0100
0000
0010
0100
0000
,
0010
0000
1000
0010
0000
0100
0010
0000
,
0001
1000
0010
0100
0001
0010
0100
1000
,
0001
1000
0010
0100
0010
1000
0001
0100
,
0001
0000
0010
0000
0002
0000
0200
0000
0000
0000
0303
0000
,
1000
0000
0100
0000
2000
0000
0020
0000
0000
0000
3030
0000
,
0001
0000
1000
0000
0001
0000
0100
0000
0010
0000
0100
0000
,
2002
0000
0000
0000
,
3003
0000
0000
0000
;
