#TITLE:Rnw@Y;
#SUBTITLE:;
#ARTIST:Linkin Park;
#TITLETRANSLIT:;
#SUBTITLETRANSLIT:;
#ARTISTTRANSLIT:;
#CREDIT:Arch0wl;
#BANNER:rnway-bn.png;
#BACKGROUND:rnway-bg.png;
#LYRICSPATH:;
#CDTITLE:!Arch0wlTitle.png;
#MUSIC:rnw@y.ogg;
#OFFSET:-1.496;
#SAMPLESTART:47.876;
#SAMPLELENGTH:22.077;
#SELECTABLE:YES;
#BPMS:0.000=108.700;
#STOPS:;
#BGCHANGES:0.000=rnway-bg.png=1.000=0=0=1,
99999=-nosongbg-=1.000=0=0=0 // don't automatically add -songbackground-
;
// cache tags:
#FIRSTBEAT:3.500;
#LASTBEAT:219.500;
#SONGFILENAME:Songs/Archmage and Dark0wl Hammer of Thor UltraHyperMegaPack/Rnw@Y/rnw@y.sm;
#HASMUSIC:1;
#HASBANNER:1;
#MUSICLENGTH:105.000;
// end cache tags

//---------------dance-single - Arch0wl----------------
#NOTES:
     dance-single:
     Arch0wl:
     Medium:
     8:
     0.577,0.704,0.724,0.067,0.571,341.000,76.000,7.000,0.000,0.000:
0000
0000
0000
0000
,
0000
0000
0000
0000
,
0000
0000
0000
0000
,
0020
0000
0000
0000
,
0230
0000
0000
0000
,
0320
0000
0000
0000
,
0230
0000
0000
0000
,
0310
1000
0010
0000
0200
0300
0000
0000
0000
0000
0000
0000
0000
0000
0000
0010
,
1000
0010
1000
0010
0100
0000
0000
0000
0000
0000
0022
0000
0000
0000
0000
0033
,
0100
1000
0100
1000
0001
0000
0100
1000
0100
1000
0100
0000
0010
0000
0000
0100
,
1000
0100
1000
0100
1001
0000
0000
0000
0000
0000
0000
0000
0000
0000
0000
0000
,
0000
0000
0010
0000
1000
0100
0000
0010
0000
0001
0000
0010
0000
0000
0100
0000
,
0000
0000
1000
0000
0001
0100
0000
0010
0000
1000
0000
0010
0000
0000
0000
0000
,
0000
0000
1000
0000
0001
0000
0010
0100
0000
1000
0000
0001
0000
0000
1000
0000
,
0000
0000
0100
0000
1000
0001
0000
0100
0000
0010
0000
0100
0000
0000
0000
0000
,
0000
0000
0001
0000
0010
0100
0000
1000
0000
0010
0000
0100
0000
0010
0000
0000
,
0000
0000
1000
0000
0001
0000
0010
0001
0000
0100
0000
0001
0000
0000
0000
0000
,
0000
0000
1000
0100
0010
0000
0100
0010
0000
0001
0000
0010
0000
0000
0001
0000
,
0000
0000
1000
0000
1000
0000
1000
1000
0000
1000
1000
0000
1000
0000
1000
1000
,
0000
0000
1000
0100
0010
0000
0100
0010
0000
0001
0000
0010
0000
0000
0001
0000
,
0000
0000
1000
0000
1000
0000
1000
1000
0000
1000
1000
0000
1000
0000
1000
1000
,
0000
0000
0010
0000
0100
0000
1000
0000
0101
0000
0000
1100
0000
0000
1001
0000
,
0000
0000
0010
0000
0100
0000
1000
0000
0011
0000
0000
0101
0000
0000
1010
0000
,
0000
0000
0100
0000
0010
0000
0001
0000
1010
0000
0000
0011
0000
0000
1001
0000
,
0000
0000
0100
0000
0010
0000
1000
0000
0101
0000
0000
0011
0000
0000
1100
0000
,
0000
0000
0010
0000
0001
0000
0100
0000
1010
0000
0000
0101
0000
0000
1010
0000
,
0000
0000
0101
0000
0010
0000
1000
0000
0101
0000
0000
1010
0000
0000
0101
0000
,
0000
0000
1010
0000
0100
0000
0001
0000
0110
0000
0000
1001
0000
0000
0110
0000
,
0000
0000
1000
0000
0100
0000
0010
0000
1100
0000
0000
0011
0000
0000
1100
0000
,
0000
0000
0010
0000
0001
0000
0100
0000
1010
0000
0000
0101
0000
0000
1010
0000
,
0000
0000
0100
0000
0001
0000
0010
0000
1001
0000
0000
0110
0000
0000
1001
0000
,
0010
0000
0100
0001
0100
0000
1000
0100
0000
0010
0000
0100
0000
0000
1000
0000
,
0000
0000
0001
0000
0100
1000
0000
0100
0000
0010
0000
0100
0000
0000
0000
0000
,
0000
0000
0001
0000
0010
0000
0100
1000
0000
0010
0000
1000
0000
0000
0100
0000
,
0000
0000
0001
0000
0100
0000
1000
0010
0000
0100
0000
0010
0000
0000
0000
0000
,
0000
0000
1000
0010
0001
0000
0010
0001
0000
0010
0000
1000
0000
0100
0000
0000
,
0000
0000
0010
0000
0001
0000
1000
0010
0000
0100
0000
0010
0000
0000
0000
0000
,
0000
0000
1000
0100
0010
0000
0100
0010
0000
0001
0000
0010
0000
0000
0001
0000
,
0000
0000
1000
0000
1000
0000
1000
1000
0000
1000
1000
0000
1000
0000
1000
1000
,
0000
0000
1000
0100
0010
0000
0100
0010
0000
0001
0000
0010
0000
0000
0001
0000
,
0000
0000
1000
0000
1000
0000
1000
1000
0000
1000
1000
0000
1000
0000
1000
1000
,
0000
0000
0100
0000
0010
0000
0001
0000
1010
0000
0000
0011
0000
0000
1001
0000
,
0000
0000
0100
0000
0010
0000
0001
0000
1100
0000
0000
1010
0000
0000
0101
0000
,
0000
0000
0010
0000
0100
0000
1000
0000
0101
0000
0000
1100
0000
0000
1001
0000
,
0000
0000
0010
0000
0100
0000
0001
0000
1010
0000
0000
1100
0000
0000
0011
0000
,
0000
0000
0100
0000
1000
0000
0010
0000
0101
0000
0000
1010
0000
0000
0101
0000
,
0000
0000
1010
0000
0100
0000
0001
0000
1010
0000
0000
0101
0000
0000
1010
0000
,
0000
0000
0101
0000
0010
0000
1000
0000
0110
0000
0000
1001
0000
0000
0110
0000
,
0000
0000
0001
0000
0010
0000
0100
0000
0011
0000
0000
1100
0000
0000
0011
0000
,
0000
0000
0100
0000
1000
0000
0010
0000
0101
0000
0000
1010
0000
0000
0101
0000
,
0000
0000
0010
0000
1000
0000
0100
0000
1001
0000
0000
0110
0000
0000
1001
0000
,
1000
0100
1000
0100
0110
0000
0100
1000
0100
1000
1010
0000
0110
0000
0000
0010
,
1000
0100
1000
0100
0110
0001
0000
0000
0000
0000
1001
0000
0110
0000
0000
0010
,
0100
0000
0000
1000
0000
0000
0100
0000
0000
1000
0000
0000
0110
0000
0000
0000
0110
0000
0000
0000
0000
0100
0000
0000
1000
0000
0000
0100
0000
0000
0001
0000
0000
0000
0000
0000
1000
0000
0000
0000
0000
0000
0000
0000
0000
0001
0000
0000
,
1000
0000
0000
0000
0010
0100
0010
0000
1000
0000
1001
0000
0110
0000
0000
0000
;

//---------------dance-single - Arch0wl----------------
#NOTES:
     dance-single:
     Arch0wl:
     Hard:
     11:
     0.996,0.888,0.133,0.210,1.000,696.000,14.000,22.000,0.000,0.000:
0000
0000
0000
0000
0000
0000
0000
0000
0000
0000
0000
0000
0000
0000
0001
0002
,
0003
0000
0000
0002
0000
0000
0000
0000
0000
0000
0000
0000
0000
0000
0000
0000
0000
0000
0000
0000
0000
0000
0000
0000
0000
0000
0000
0000
0000
0000
0000
0000
0000
0000
0000
0000
0000
0000
0000
0000
0003
0000
0000
0000
0000
0000
0000
0000
,
0000
0000
0001
0000
0001
0001
0000
0002
0000
0000
0000
0000
0000
0000
0000
0000
,
0020
0000
0000
0003
,
0230
0000
0000
0000
,
0320
0000
0000
0000
,
0230
0000
0000
0000
0000
0000
1000
1000
1000
0000
1000
0000
1000
1000
0000
0000
,
0310
1000
0010
0000
0200
0300
0000
0000
0000
0000
0000
0000
0000
0000
0000
0010
,
1000
0010
1000
0010
0100
0000
0100
0000
0100
0000
0022
0000
0000
0000
0000
0033
,
0100
1000
0100
1000
0001
0000
0100
1000
0100
1000
0100
0000
0010
0000
0000
0100
,
1000
0100
1000
0100
1001
0000
0000
0000
0000
0000
0000
0000
0000
0000
0000
0000
,
0100
1000
0010
1000
0001
0100
0010
1000
0100
0010
0100
1000
0100
0010
0001
1000
,
0010
0100
0001
0100
0010
1000
0001
0010
0100
1000
0100
0010
0001
0100
0010
1000
,
0100
0010
0001
0010
0100
0010
0001
0100
0010
1000
0010
0100
0001
1000
0100
0010
,
0001
1000
0100
1000
0001
0100
0010
1000
0100
0010
0100
1000
0100
0010
0001
0100
,
0010
1000
0001
0010
0100
0010
0001
1000
0100
0010
0100
1000
0100
0010
0001
0100
,
0010
1000
0001
0010
0100
1000
0001
0010
0100
1000
0100
0010
0001
0100
0010
1000
,
0001
1000
0100
0010
0100
1000
0100
0010
0001
0100
0001
0010
0001
1000
0100
0010
,
0100
0010
0001
1000
0001
1000
0001
0001
1000
0001
0001
1000
0001
1000
0001
0001
,
1000
0001
0010
0100
0010
0001
0100
0010
1000
0100
1000
0010
1000
0001
0010
0100
,
0010
0100
1000
0001
1000
0001
1000
1000
0001
1000
1000
0001
1000
0001
1000
1000
,
0001
0010
0001
0100
0001
0100
0001
0100
0001
0010
0001
0100
0010
0100
0001
0010
,
0100
1000
0100
0010
0100
0010
0100
0010
0100
1000
0100
0010
0001
0010
0100
1000
,
0010
0100
0010
1000
0010
1000
0010
1000
0010
0100
0010
1000
0100
1000
0010
0100
,
0001
0010
0001
0100
0001
0100
0001
0100
0001
0010
0001
1000
0100
1000
0001
0100
,
0010
1000
0010
0100
0010
0100
0010
0100
0010
1000
0010
0100
0001
0100
0010
1000
,
0100
0010
0100
1000
0100
1000
0100
1000
0010
0100
0010
1000
0001
1000
0010
0100
,
0001
0010
0001
0100
0001
0100
0001
0100
0001
0100
0001
0010
0100
1000
0001
0100
,
0010
1000
0010
0100
0010
0100
0010
0100
0001
0010
0001
1000
0010
1000
0001
0010
,
0100
1000
0100
0010
0100
0010
0100
0010
0001
0100
0001
1000
0010
1000
0001
0010
,
0100
1000
0100
0010
0100
0010
0100
0010
0001
1000
0001
0100
0010
0100
0001
0010
,
0100
0000
0100
1000
0100
0000
1000
0100
0000
0010
0000
0100
0000
0000
1000
0000
,
0000
0000
0001
0000
0100
0000
0001
0010
0001
0010
0000
0010
0000
0010
0100
0000
,
2100
0000
0001
0000
0010
0000
0100
0001
0000
0010
0000
0001
0000
0000
3100
0000
,
0000
0000
0000
0000
0001
0000
0000
0000
0100
0000
0000
0000
0010
0000
1000
0010
1000
0000
1000
0000
0000
0000
1000
0000
0000
0000
1000
0000
0010
0000
0000
0000
,
0102
0000
0010
1000
0100
0000
0100
1000
0000
0010
0000
1000
0000
1003
0010
0000
,
0010
0000
0100
0000
0001
0000
0010
0000
0100
0000
0010
0000
0100
0000
0010
0000
0100
0000
0010
0000
0100
0000
0010
0000
0100
0000
0010
0100
0010
0000
0100
0000
,
1000
0001
0010
0100
0010
0001
0010
0100
1000
0010
1000
0100
1000
0001
0010
0100
,
0010
0100
1000
0001
1000
0001
1000
1000
0001
1000
1000
0001
1000
0001
1000
1000
,
0001
1000
0100
0010
0100
1000
0010
0100
0001
0010
0001
0100
0001
1000
0100
0010
,
0100
0010
0001
1000
0001
1000
0001
0001
1000
0001
0001
1000
0001
1000
0001
0001
,
1000
0100
1000
0010
1000
0010
1000
0010
1000
0100
1000
0010
0100
0010
1000
0100
,
0010
0001
0010
0100
0010
0100
0010
0100
0010
0001
0010
0100
1000
0100
0010
0001
,
0100
0010
0100
0001
0100
0001
0100
0001
0100
0010
0100
0001
0010
0001
0100
0010
,
1000
0100
1000
0010
1000
0010
1000
0010
1000
0100
1000
0001
0010
0001
1000
0010
,
0100
0001
0100
0010
0100
0010
0100
0010
0100
0001
0100
0010
1000
0010
0100
0001
,
0010
0100
0010
0001
0010
0001
0010
0001
0100
0010
0100
0001
1000
0001
0100
0010
,
1000
0100
1000
0010
1000
0010
1000
0010
1000
0010
1000
0100
0010
0001
1000
0010
,
0100
0001
0100
0010
0100
0010
0100
0010
1000
0100
1000
0001
0100
0001
1000
0100
,
0010
0001
0010
0100
0010
0100
0010
0100
1000
0010
1000
0001
0100
0001
1000
0100
,
0010
0001
0010
0100
0010
0100
0010
0100
1000
0001
1000
0010
0100
0010
1000
0100
,
0010
0010
0100
0010
0110
0000
0100
1000
0100
1000
2020
3030
0110
0000
0000
0010
,
1000
0100
1000
0100
0110
0001
1000
0000
1000
0000
2002
3003
0110
0000
0000
0010
,
0100
0000
0000
1000
0000
0000
0100
0000
0000
1000
0000
0000
0110
0000
0000
0000
0110
0000
0000
0000
0000
0100
0000
0000
1000
0000
0000
0100
0000
0000
0002
0000
0000
0000
0000
0000
1003
0000
0000
0000
0000
0000
0000
0000
0000
0001
0000
0000
,
2000
0000
0000
0000
3010
0100
0010
0000
1000
0000
2002
3003
0220
0000
0330
0000
;
