#TITLE:Max Don't Have Sex With Your Ex;
#SUBTITLE:(Grandale Mix);
#ARTIST:E-Rotic;
#TITLETRANSLIT:;
#SUBTITLETRANSLIT:;
#ARTISTTRANSLIT:;
#CREDIT:;
#BANNER:MDHSWYE-bn.png;
#BACKGROUND:MDHSWYE-bg.png;
#LYRICSPATH:;
#CDTITLE:!joeCDtitle.png;
#MUSIC:Max dont Have Sex With Your Ex (Grandale Mix).mp3;
#OFFSET:0.040;
#SAMPLESTART:29.004;
#SAMPLELENGTH:12.000;
#SELECTABLE:YES;
#BPMS:0.000=174.400;
#STOPS:;
#BGCHANGES:;
// cache tags:
#FIRSTBEAT:1.000;
#LASTBEAT:268.000;
#SONGFILENAME:Songs/Essential Sim Collection/(Joe) Max Dont Have Sex With Your Ex/MaxDontHaveSexWithYourEx.sm;
#HASMUSIC:1;
#HASBANNER:1;
#MUSICLENGTH:94.963;
// end cache tags

//---------------dance-single - ----------------
#NOTES:
     dance-single:
     :
     Hard:
     11:
     1.000,0.988,1.000,0.274,0.605,532.000,138.000,26.000,0.000,0.000:
0000
0000
0000
0000
1001
0000
0001
0000
0100
0001
0000
0100
0001
0000
1000
0001
,
0000
1000
0001
0000
1001
0000
0001
0000
0100
0010
0000
1000
0100
0000
1000
0100
,
0000
0010
0001
0000
1001
0000
0001
0000
0010
0001
0000
1000
0001
0000
1000
0010
,
0000
0100
0001
0000
0011
0000
0001
0000
0100
0010
0000
0100
0010
0000
1000
0010
,
0000
1000
0001
0000
0101
0000
0010
0000
0100
0001
0000
0100
0001
0000
1000
0001
,
0000
1000
0001
0000
0101
0000
0001
0000
1000
0010
0000
0100
0001
0000
0010
0001
,
0000
0010
0001
0000
1010
0000
0001
0000
1000
0010
0000
0100
0010
0000
0100
0001
,
0000
0100
0001
0000
0101
0000
0010
0000
1000
0001
1000
0001
1000
0000
0001
0000
,
1001
1000
1100
0001
1000
0010
1100
0001
,
1000
0010
0011
0001
0010
0001
1100
0010
,
0100
0010
0011
0000
0011
0000
1001
1000
,
1001
0000
0001
0000
1000
0001
0100
0001
1000
0001
0100
0001
1000
0010
0100
0010
,
1000
0001
1001
0000
0110
0000
1001
0000
,
1000
0001
1100
0010
0100
0001
1001
0001
,
1000
0100
1100
0001
0100
0010
1001
0001
,
0010
0001
0011
1100
0110
1001
1100
0011
,
2002
0000
3003
0002
2003
3020
0130
0000
,
2002
3003
1001
0000
1100
0100
0110
0000
,
0011
0000
0010
0000
0110
0000
0000
0000
0000
0000
0010
1000
0010
0000
1000
0000
,
1100
0100
0101
0000
0001
0000
1001
0000
,
1100
0002
2003
3020
,
2030
0000
3001
0000
1000
0001
1001
0000
,
0001
0000
1000
0000
1001
0000
0000
0000
0000
0000
0010
0100
0010
0000
0100
0000
,
1001
0110
1001
0000
0001
0000
0011
0000
,
1100
0011
1100
0110
,
0110
0000
0000
0000
1001
0000
0001
0000
0100
0001
0000
0100
0001
0000
1000
0001
,
0000
1000
0001
0000
1001
0000
1000
0000
0010
0100
0000
0001
0010
0000
0001
0010
,
0000
0100
1000
0000
1001
0000
1000
0000
0100
1000
0000
0001
1000
0000
0001
0100
,
0000
0010
1000
0000
1010
0000
1000
0000
0010
0100
0000
0010
0100
0000
0001
0100
,
0000
0010
1000
0000
1001
0000
0100
0000
0010
1000
0000
0010
1000
0000
0001
1000
,
0000
0001
1000
0000
1010
0000
1000
0000
0001
0100
0000
0010
1000
0000
0100
1000
,
0000
0010
1000
0000
0101
0000
1000
0000
0001
0100
0000
0010
0100
0000
0001
0100
,
0000
0001
1000
0000
0101
0000
1000
0000
0001
0100
0001
0100
0001
0100
0001
0000
,
0101
1000
0110
1000
0100
0010
0101
1000
,
0010
0100
1001
1000
0001
1000
0110
0001
,
0010
0001
0011
0000
0101
0000
1100
0100
,
1100
0000
1000
0000
0001
1000
0100
0010
0001
1000
0001
0100
0010
1000
0001
1000
,
0001
1000
1100
0000
0011
0000
1100
0000
,
0100
1000
1100
0001
0010
0100
0101
0001
,
1000
0001
1100
0010
1000
0001
1100
0010
,
1100
0001
1001
0110
0011
1100
0110
1001
,
2200
0000
3300
0002
2003
3020
0130
0000
,
2002
3003
1001
0000
1100
0100
0110
0000
,
0011
0000
0010
0000
0110
0000
0000
0000
0000
0000
0001
1000
0001
0000
1000
0000
,
1100
0100
0101
0000
0001
0000
1001
0000
,
1100
0020
2030
3002
,
0203
0000
0301
0000
0100
0001
0101
0000
,
0010
0000
1000
0000
1010
0000
0000
0000
0000
0000
1000
0010
1000
0000
0001
0000
,
0101
0110
1010
0000
1000
0000
1100
0000
,
0011
0101
1001
1010
,
1100
0000
1001
0001
0100
0001
1100
0011
,
1100
0001
1000
0010
0100
0001
1001
0110
,
1001
1000
0001
1000
0100
1000
1010
0101
,
1010
0100
0001
1000
0010
0100
0110
1001
,
0110
1000
1010
1000
0101
0001
1010
0011
,
0101
1000
1002
0000
1000
0003
1001
0100
,
1010
1000
2010
0000
0001
3000
0101
0001
,
0011
0000
1000
0000
0001
1000
0010
0100
0001
1000
0010
0100
0001
0010
0001
1000
,
0010
0100
0010
1000
0001
0000
1000
0000
0010
1000
0000
0010
1000
0000
0001
1000
,
0000
0001
1000
0000
1001
0000
0001
0000
0100
0010
0000
1000
0001
0000
1000
0010
,
0000
0100
0001
0000
1001
0000
0001
0000
0010
0001
0000
1000
0001
0000
1000
0010
,
0000
0100
0001
0000
0011
0000
0001
0000
0100
0010
0000
0100
0010
0000
1000
0010
,
0000
0100
0001
0000
1100
0000
0010
0000
0100
0001
0000
0100
0001
0000
1000
0001
,
0000
1000
0001
0000
0101
0000
0001
0000
1000
0010
0000
0100
0001
0000
0010
0001
,
0000
0100
0001
0000
1010
0000
0001
0000
0010
0001
0000
0100
0001
0000
1000
0010
,
0000
1000
0001
0000
1001
0000
0001
0000
1000
0001
0100
0001
1000
0000
0010
0000
,
0101
1000
2002
0000
0000
0000
0000
0000
,
3003
0000
0000
0000
;
