#TITLE:Burning Heat!;
#SUBTITLE:(Full Option Mix);
#ARTIST:Mr.T with Motoaki.F;
#TITLETRANSLIT:;
#SUBTITLETRANSLIT:;
#ARTISTTRANSLIT:;
#CREDIT:;
#BANNER:Burning Heat! (3 Option MIX).png;
#BACKGROUND:Burning Heat! (3 Option MIX)-bg.png;
#LYRICSPATH:;
#CDTITLE:;
#MUSIC:Burning Heat! (Full Option Mix).mp3;
#OFFSET:-0.426;
#SAMPLESTART:35.841;
#SAMPLELENGTH:20.000;
#SELECTABLE:YES;
#BPMS:0.000=166.000,208.000=83.000,217.000=166.000,281.667=120.000;
#STOPS:63.750=0.700
,280.750=0.700
;
#BGCHANGES:;
// cache tags:
#FIRSTBEAT:0.000;
#LASTBEAT:287.000;
#SONGFILENAME:Songs/Community Keyboard Megapack - Volume 2/(Fusion) Burning Heat (Full Option Mix)/Burning Heat!.sm;
#HASMUSIC:1;
#HASBANNER:1;
#MUSICLENGTH:115.559;
// end cache tags

//---------------dance-single - ----------------
#NOTES:
     dance-single:
     :
     Hard:
     10:
     0.881,1.000,1.000,0.061,1.000,556.000,150.000,7.000,0.000,0.000:
1001
0000
0000
0000
,
0000
0000
0000
0000
,
0110
0000
0000
0000
,
0011
0000
0000
0000
,
0101
0000
0000
0000
,
0000
0000
0000
0000
,
1010
0000
0000
0000
,
1100
0000
0000
0000
,
1001
0100
0010
1000
0100
0010
1000
0100
0010
1000
0100
0010
,
0001
0010
0100
0001
0010
0100
0001
0010
0100
0001
0010
0100
,
0110
0001
1000
0010
0001
1000
0010
0001
1000
0010
0001
1000
,
0110
1000
0001
0100
1000
0001
0100
1000
0001
0100
1000
0001
,
0110
0010
0100
0010
0100
0010
0100
1000
0001
1000
0001
1000
,
0010
1000
0010
1000
0010
1000
0100
0001
0100
0001
0100
0001
,
1001
0100
0010
0001
0010
0100
1000
0100
0010
0001
0010
0100
,
1001
0000
0000
0000
1000
0000
0000
0000
0010
0000
0000
0000
0100
0000
0000
0000
0001
0000
0000
0000
1000
0000
0000
0000
0010
0000
0000
0000
0100
0000
0000
0000
0001
0000
0000
0000
1000
0000
0000
0000
0010
0000
0000
0000
2002
3003
0000
0000
,
0001
0010
0100
0001
0010
0100
0000
0000
0000
0100
0010
0100
,
0010
0100
0010
0001
0000
0000
0010
0100
0010
0001
0000
0000
,
0100
1000
0100
0010
0000
0000
0000
0000
0000
0010
0001
1000
,
0010
0100
0010
0001
0000
0000
0010
0100
1000
0100
0000
0000
,
0010
0000
0000
0000
0010
0001
1001
0000
0110
0000
0011
0000
,
1100
0000
0101
0000
1010
0000
1001
0000
0000
0000
0000
0000
,
1000
0000
0100
0000
0010
0000
0100
0000
0000
0000
0000
0000
0000
0000
0000
1000
0100
0010
0001
0000
0010
0000
0100
0000
,
0010
0001
0010
0100
0000
0000
0000
0000
0000
0100
0010
0001
,
1001
0000
0000
1001
0100
0010
1001
0000
0000
1001
0000
0000
,
0110
0000
0000
0110
1000
0001
0110
0000
1000
0110
0001
0000
,
0011
0000
0000
0011
0100
1000
0011
0000
0000
0011
0100
0010
,
1001
0000
0110
0000
1100
0000
0011
0000
0101
0000
1010
0000
,
1100
0000
0000
1100
0010
0001
1100
0000
0000
1100
0000
0000
,
0101
0000
0000
0101
0010
1000
0101
0000
0010
0101
1000
0000
,
1001
0000
0000
1001
0100
0010
1001
0000
0000
1001
0000
0000
,
0000
1100
1100
1100
0000
0000
0000
0011
0000
0011
0000
0000
,
1001
0100
0010
0100
0010
0100
1001
0000
0000
0000
0000
0000
,
0110
0000
0000
1000
0100
0001
0110
0001
0100
0010
0000
1000
,
0011
0000
0000
0000
0100
0010
0011
0000
0000
0000
0010
0100
,
1100
0000
0000
0000
0000
0000
1100
0010
0100
0010
0001
0010
,
0101
1000
0100
0010
0001
0010
0101
0010
0100
1000
0100
0010
,
1010
0000
0000
1000
0100
0001
1010
0100
0010
0001
0000
0100
,
1001
0000
0000
0000
0010
0001
1001
0000
0000
0000
0000
0000
,
0110
0000
0000
0000
0000
0000
0110
1000
0100
0010
0100
0010
,
1001
0000
0010
0000
1000
0000
0100
0000
0010
0000
0001
0010
0001
0000
0100
0000
1000
0000
0100
0000
0010
0000
0001
0000
,
0010
0000
0000
0001
0010
0100
0010
0000
0010
0000
0000
0000
,
0000
0000
0000
0001
0010
0100
0010
0000
0100
0010
0000
0001
,
0010
0001
0000
0001
1000
0000
0001
0000
0000
0000
0001
0000
0000
0000
0000
0000
0000
0000
0000
0000
0000
0000
0000
0000
,
0000
0000
0000
0000
0000
0000
0000
0000
0000
0000
0000
0000
0000
0000
0000
0000
0000
0000
0000
0000
0000
0000
0000
0000
0000
0000
0000
0000
0000
0000
0000
0000
1000
0000
0000
0000
0000
0000
0000
0000
0000
0000
0000
0000
0000
0000
0000
0000
0001
0000
0000
0000
0000
0000
0000
0000
0000
0000
0000
0000
0000
0000
0000
0000
0000
0000
0000
0000
0000
0000
0000
0000
0100
0000
0000
0000
0000
0000
0000
0000
0000
0000
0000
0000
0000
0000
0000
0000
0000
0000
0000
0000
0000
0000
0000
0000
0000
0000
0000
0000
0000
0000
0010
0000
0000
0000
0000
0000
0000
0000
0000
0000
0000
0000
0000
0000
0000
0000
0000
0000
0000
0000
0000
0000
0000
0000
0000
0000
0010
0000
0000
0000
0000
0000
0000
0000
0000
0000
0000
0000
0000
0000
0000
0000
0100
0000
0000
0000
0000
0000
0000
0000
0000
0000
0000
0000
0000
0000
0000
0000
0000
0000
0000
0000
0000
0000
0000
0000
0000
0000
0000
0000
0000
0000
0000
0000
0100
0000
0000
0000
0000
0000
0000
0000
0000
0000
0000
0000
0000
0000
0000
0000
,
0010
0000
0010
0001
0000
0001
1000
0000
0001
0000
0000
0000
,
0000
0000
0000
0000
0000
0000
0000
0000
0000
0000
0000
1000
0000
0001
0010
0001
0000
0000
1000
0100
1000
0000
0001
0010
,
0001
0000
0010
0000
0100
1000
0000
0000
0100
0010
0100
0000
0000
0001
0000
0100
0010
0000
0002
0000
0000
0000
0000
0000
,
1000
0100
0010
0100
0010
1003
0000
0000
0000
0100
0010
0100
,
0010
0001
0010
0100
0000
0000
1000
0100
1000
0010
0000
0000
,
0001
0010
0001
0100
0000
0000
0000
0000
0000
1000
0100
1000
,
0010
0100
0010
0001
0000
0000
0010
0100
1000
0100
0000
0000
,
1001
0000
0000
0000
0010
0100
1001
0000
0110
0000
0011
0000
1100
0000
0101
0000
1010
0000
1001
0000
0000
0000
0000
0000
,
1000
0000
0100
0000
0010
0000
0100
0000
0000
0000
0000
0000
0000
0000
0000
1000
0100
0010
0001
0000
0010
0000
0001
0000
0100
0000
0010
0000
1000
0000
0100
0000
0000
0000
0000
0000
0000
0000
0000
0000
0000
0000
0010
0000
1000
0000
0100
0000
,
0001
0010
0100
1000
0100
0010
1001
0000
0000
0000
0000
0000
1001
0000
0100
0000
0010
0000
1001
0000
0000
0000
0000
0000
,
1001
0000
0000
0110
0000
0000
0110
0001
1000
0110
0000
0001
,
0110
1000
0000
1100
0000
0000
1100
0010
0001
1100
0000
0000
,
1100
0010
0100
1001
0000
0110
0000
1100
0000
0011
0000
1010
,
0000
0101
0000
0011
0000
0000
0011
0100
1000
0011
0000
0000
,
0011
0000
0000
0101
0000
0000
0101
0010
1000
0101
0000
1000
,
0101
0010
0000
1010
0000
0000
1010
0100
0010
1010
0000
0000
,
1010
0000
0000
0000
1001
1001
1001
0000
0000
0000
0110
0000
,
0110
0000
0000
1001
0100
0010
1001
0100
0010
1001
0100
0010
,
1001
0100
0010
0110
0001
1000
0110
0001
1000
0110
0001
1000
,
0110
0001
1000
0011
0100
1000
0011
0100
1000
0011
0100
1000
,
0011
0100
1000
1100
0010
0001
1100
0010
0001
1100
0010
0001
,
1100
0010
0001
0101
0010
1000
0101
0010
1000
0101
0010
1000
,
0101
0010
1000
1010
0100
0001
1010
0100
0001
1010
0100
0001
,
1010
0100
0001
0110
1000
0001
0110
1000
0001
0110
1000
0001
,
0110
1000
0001
1001
0010
0100
1001
0100
0010
1001
0010
0100
,
1001
0000
0000
0000
0100
0000
0000
0000
2002
3003
0000
0000
1001
0000
0000
0000
0000
0000
0000
0000
2002
0000
0000
0000
0000
0000
0000
0000
0000
0000
0000
0000
0000
0000
0000
0000
0000
0000
0000
0000
0000
0000
0000
0000
0000
0000
0000
0000
,
0000
0000
0000
3003
;
