#TITLE:Parlance;
#SUBTITLE:Tyrian (1995);
#ARTIST:Alexander Brandon;
#TITLETRANSLIT:;
#SUBTITLETRANSLIT:;
#ARTISTTRANSLIT:;
#CREDIT:;
#BANNER:bn.png;
#BACKGROUND:bg.png;
#LYRICSPATH:;
#CDTITLE:cdtitle.png;
#MUSIC:27_parlance.mp3;
#OFFSET:-1.046;
#SAMPLESTART:17.156;
#SAMPLELENGTH:12.000;
#SELECTABLE:YES;
#BPMS:0.000=149.000;
#STOPS:;
#BGCHANGES:;
// cache tags:
#FIRSTBEAT:0.000;
#LASTBEAT:92.500;
#SONGFILENAME:Songs/Hard Songs Megapack Volume 9/Parlance/27_parlance.sm;
#HASMUSIC:1;
#HASBANNER:1;
#MUSICLENGTH:40.829;
// end cache tags

//---------------dance-single - ----------------
#NOTES:
     dance-single:
     :
     Hard:
     10:
     1.000,1.000,1.000,0.024,1.000,339.000,136.000,1.000,0.000,9.000:
0010
1000
1000
0100
1000
1000
0010
0100
,
0001
0100
0010
0100
0100
0001
0100
0100
,
0010
0100
0100
1000
0100
0010
0100
0001
,
1000
0000
0100
0000
0011
0100
0010
1000
0010
1000
0101
0010
1000
0001
1000
0001
,
1100
0010
0100
1000
0011
0100
0010
0001
1100
0010
0100
0001
0100
0001
0110
1000
,
0001
1000
0001
1000
0011
0100
0010
1000
0010
1000
0101
0010
1000
0100
1001
0100
,
1010
0100
0011
1000
0110
0001
1100
0010
1101
0010
1000
0100
1000
0100
0011
0100
,
0010
0001
0010
0001
1100
0010
0100
0001
0110
1000
0001
0100
1001
0010
0100
0010
,
0100
0010
1001
0100
0010
0100
0010
0100
0011
0100
1000
0010
1000
0010
1100
0001
,
0100
1001
0110
1001
0110
1001
0110
1001
0110
1001
0110
1001
0110
0001
1010
0100
,
0011
1000
0101
0010
1001
0010
1100
0001
1100
0010
1001
0100
1010
0100
1001
0010
,
0101
1000
0011
0100
1010
0001
1100
0001
0110
1000
0101
0010
1001
0100
1010
0001
,
1100
0010
1001
0100
0011
1000
0101
0010
1001
0100
0011
0100
1010
0001
1100
0010
,
1101
0010
0101
1000
0110
0001
1100
0010
1001
0100
0011
0100
1001
0010
1001
0100
,
1010
0001
1100
0010
1001
0100
0011
1000
0101
0010
1100
0001
1010
0001
0110
1000
,
0011
0100
1001
0010
1100
0010
0101
1000
0110
0001
1010
0100
1011
0100
1001
0010
,
1101
0010
0100
1000
0111
1000
0110
0001
1100
0010
1001
0100
0011
0100
1001
0010
,
1100
0001
0110
1000
0011
0100
1010
0100
1010
0001
0110
1000
0101
0010
0101
1000
,
0101
0010
1001
0100
1001
0010
0101
1000
0110
0001
1010
0001
0110
0001
1100
0010
,
0101
1000
0011
1000
0101
1000
0110
0001
1110
0001
1100
0010
0101
1000
0110
0001
,
1100
0001
0110
1000
0101
0010
1001
0100
1010
0001
1100
0010
0101
1000
0011
1000
,
0101
0010
1001
0100
0011
1000
0110
1000
0011
0100
1001
0010
1100
0001
0110
1000
,
0011
0100
1001
0010
1101
0010
0101
1000
0111
1000
0101
0010
1102
0000
0000
0000
,
0000
0003
0000
0000
0000
0000
0000
0000
;

//---------------dance-single - ----------------
#NOTES:
     dance-single:
     :
     Challenge:
     14:
     1.000,1.000,1.000,1.000,1.000,339.000,117.000,105.000,0.000,11.000:
0010
1000
1000
0100
1000
1000
0010
0100
,
0001
0100
0010
0100
0100
0001
0100
0100
,
0010
0100
0100
1000
0100
0010
0100
0001
,
1000
0000
0100
0000
0010
0010
1000
1000
1000
1000
0001
0001
0100
0100
0100
0100
,
1000
1000
0010
0010
0001
0001
0100
0100
0010
0010
1000
1000
1000
1000
0100
0100
,
0001
0001
0001
0001
0010
0010
0100
0100
0100
0100
1000
1000
0010
0010
0001
0001
,
0100
0100
0010
0010
1000
1000
0100
0100
0011
0010
0100
0100
0100
0100
0001
0001
,
0010
0010
0010
0010
1000
1000
0100
0100
1000
1000
0001
0001
0010
0010
0100
0100
,
0100
0100
0010
0010
1000
1000
1000
1000
0010
0010
0100
0100
0100
0100
1000
1000
,
0001
0000
0000
0000
0101
0000
0000
0000
1010
0000
0000
0000
1010
0000
0000
0000
1101
0000
0000
0000
1100
0000
0000
0000
0011
0000
0000
0000
0011
0000
0000
0000
1101
0000
0000
0000
0101
0000
0000
0000
1001
0000
0000
0000
1001
0000
0000
0000
1120
0030
0000
0000
0100
0000
0000
0000
1020
0030
0000
0000
1000
0000
0000
0000
,
1002
0003
0000
0000
1000
0000
0000
0000
0210
0300
0000
0000
0010
0000
0000
0000
1002
0003
0000
0000
1000
0000
0000
0000
1020
0030
0000
0000
1000
0000
0000
0000
0201
0300
0000
0000
0001
0000
0000
0000
1020
0030
0000
0000
1000
0000
0000
0000
0012
0003
0000
0000
0010
0000
0000
0000
2100
3000
0000
0000
0100
0000
0000
0000
,
0021
0030
0000
0000
0001
0000
0000
0000
0210
0300
0000
0000
0010
0000
0000
0000
2010
3000
0000
0000
0010
0000
0000
0000
0102
0003
0000
0000
0100
0000
0000
0000
2010
3000
0000
0000
0010
0000
0000
0000
0210
0300
0000
0000
0010
0000
0000
0000
2001
3000
0000
0000
0001
0000
0000
0000
0120
0030
0000
0000
0100
0000
0000
0000
,
0102
0003
0000
0000
0100
0000
0000
0000
2010
3000
0000
0000
0010
0000
0000
0000
1200
0300
0000
0000
1000
0000
0000
0000
0021
0030
0000
0000
0001
0000
0000
0000
0120
0030
0000
0000
0100
0000
0000
0000
2001
3000
0000
0000
0001
0000
0000
0000
2010
3000
0000
0000
0010
0000
0000
0000
1200
0300
0000
0000
1000
0000
0000
0000
,
0121
0030
0000
0000
0001
0000
0000
0000
2100
3000
0000
0000
0100
0000
0000
0000
0120
0030
0000
0000
0100
0000
0000
0000
1002
0003
0000
0000
1000
0000
0000
0000
0120
0030
0000
0000
0100
0000
0000
0000
2100
3000
0000
0000
0100
0000
0000
0000
0012
0003
0000
0000
0010
0000
0000
0000
1200
0300
0000
0000
1000
0000
0000
0000
,
0021
0030
0000
0000
0001
0000
0000
0000
2100
3000
0000
0000
0100
0000
0000
0000
0012
0003
0000
0000
0010
0000
0000
0000
1200
0300
0000
0000
1000
0000
0000
0000
1020
0030
0000
0000
1000
0000
0000
0000
0201
0300
0000
0000
0001
0000
0000
0000
1020
0030
0000
0000
1000
0000
0000
0000
1002
0003
0000
0000
1000
0000
0000
0000
,
0120
0030
0000
0000
0100
0000
0000
0000
2001
3000
0000
0000
0001
0000
0000
0000
2001
3000
0000
0000
0001
0000
0000
0000
2010
3000
0000
0000
0010
0000
0000
0000
1200
0300
0000
0000
1000
0000
0000
0000
0120
0030
0000
0000
0100
0000
0000
0000
1012
0003
0000
0000
0010
0000
0000
0000
2001
3000
0000
0000
0001
0000
0000
0000
,
1210
0300
0000
0000
0010
0000
0000
0000
0102
0003
0000
0000
0100
0000
0000
0000
1021
0030
0000
0000
1000
0000
0000
0000
0012
0003
0000
0000
0010
0000
0000
0000
0210
0300
0000
0000
0010
0000
0000
0000
0201
0300
0000
0000
0001
0000
0000
0000
2010
3000
0000
0000
0010
0000
0000
0000
0012
0003
0000
0000
0010
0000
0000
0000
,
2100
3000
0000
0000
0100
0000
0000
0000
0021
0030
0000
0000
0001
0000
0000
0000
1020
0030
0000
0000
1000
0000
0000
0000
0012
0003
0000
0000
0010
0000
0000
0000
2100
3000
0000
0000
0100
0000
0000
0000
2001
3000
0000
0000
0001
0000
0000
0000
0021
0030
0000
0000
0001
0000
0000
0000
1020
0030
0000
0000
1000
0000
0000
0000
,
0012
0003
0000
0000
0010
0000
0000
0000
0210
0300
0000
0000
0010
0000
0000
0000
2100
3000
0000
0000
0100
0000
0000
0000
0012
0003
0000
0000
0010
0000
0000
0000
0210
0300
0000
0000
0010
0000
0000
0000
1200
0300
0000
0000
1000
0000
0000
0000
0120
0030
0000
0000
0100
0000
0000
0000
2001
3000
0000
0000
0001
0000
0000
0000
,
0120
0030
0000
0000
0100
0000
0000
0000
0012
0003
0000
0000
0010
0000
0000
0000
1002
0003
0000
0000
1000
0000
0000
0000
0120
0030
0000
0000
0100
0000
0000
0000
1021
0030
0000
0000
0001
0000
0000
0000
1200
0300
0000
0000
1000
0000
0000
0000
1020
0030
0000
0000
1000
0000
0000
0000
0120
0030
0000
0000
0100
0000
0000
0000
,
2001
3000
0000
0000
0001
0000
0000
0000
0201
0300
0000
0000
0001
0000
0000
0000
0210
0300
0000
0000
0010
0000
0000
0000
1002
0003
0000
0000
1000
0000
0000
0000
0021
0030
0000
0000
0001
0000
0000
0000
1200
0300
0000
0000
1000
0000
0000
0000
0012
0003
0000
0000
0010
0000
0000
0000
1200
0300
0000
0000
1000
0000
0000
0000
,
1020
0030
0000
0000
1000
0000
0000
0000
0102
0003
0000
0000
0100
0000
0000
0000
0021
0030
0000
0000
0001
0000
0000
0000
2001
3000
0000
0000
0001
0000
0000
0000
0210
0300
0000
0000
0010
0000
0000
0000
1200
0300
0000
0000
1000
0000
0000
0000
1020
0030
0000
0000
1000
0000
0000
0000
0102
0003
0000
0000
0100
0000
0000
0000
,
1002
0003
0000
0000
1000
0000
0000
0000
0210
0300
0000
0000
0010
0000
0000
0000
1201
0300
0000
0000
1000
0000
0000
0000
0021
0030
0000
0000
0001
0000
0000
0000
1120
0030
0000
0000
0100
0000
0000
0000
2010
3000
0000
0000
0010
0000
0000
0000
1102
0000
0000
0000
0000
0000
0000
0000
0000
0000
0000
0000
0000
0000
0000
0000
,
0000
0003
0000
0000
0000
0000
0000
0000
;

//---------------dance-single - Copied from----------------
#NOTES:
     dance-single:
     Copied from:
     Beginner:
     15:
     1.000,1.000,1.000,1.000,1.000,365.000,313.000,108.000,0.000,116.000:
0010
0100
1000
0010
1000
0001
0100
0010
1000
0001
1000
0100
0010
1000
0100
0010
,
0001
1000
0100
0001
0010
1000
0100
0001
0100
0010
0001
1000
0100
0010
0100
0001
,
0010
1000
0100
0001
0100
0010
1000
0001
0100
1000
0010
0001
0100
1000
0001
0010
,
1000
0001
0100
1000
0011
1010
1001
1010
1001
1010
1001
0101
0110
0101
0110
0101
,
1010
1100
1010
0110
0011
1001
0101
0110
1010
0110
1001
1010
1001
1010
1100
0110
,
0101
0011
1001
0011
0110
1010
0101
0110
1100
0101
1010
1001
0110
1010
0101
1001
,
0110
1100
0011
0110
1010
1100
0110
1100
0011
0110
1100
0110
1100
0110
1001
0011
,
0110
1010
0110
1010
1001
1010
0101
0101
1010
1100
1001
0011
0110
1010
0101
0110
,
1100
0101
1010
0011
1100
1001
1100
1001
1010
0011
1100
0110
0101
0110
1001
1100
,
0011
0000
0000
0000
0111
0000
0000
0000
1110
0000
0000
0000
1011
0000
0000
0000
1101
0000
0000
0000
1110
0000
0000
0000
1011
0000
0000
0000
0111
0000
0000
0000
1101
0000
0000
0000
0111
0000
0000
0000
1101
0000
0000
0000
1101
0000
0000
0000
1120
0030
0000
0000
0110
0000
0000
0000
1021
0030
0000
0000
1001
0000
0000
0000
,
1102
0003
0000
0000
1001
0000
0000
0000
0211
0300
0000
0000
0110
0000
0000
0000
1012
0003
0000
0000
1001
0000
0000
0000
1120
0030
0000
0000
1010
0000
0000
0000
1201
0300
0000
0000
0101
0000
0000
0000
1021
0030
0000
0000
1010
0000
0000
0000
0112
0003
0000
0000
0110
0000
0000
0000
2110
3000
0000
0000
0101
0000
0000
0000
,
1021
0030
0000
0000
1001
0000
0000
0000
0211
0300
0000
0000
1010
0000
0000
0000
2011
3000
0000
0000
0110
0000
0000
0000
1102
0003
0000
0000
0110
0000
0000
0000
2110
3000
0000
0000
0011
0000
0000
0000
0211
0300
0000
0000
0110
0000
0000
0000
2011
3000
0000
0000
0011
0000
0000
0000
1120
0030
0000
0000
1100
0000
0000
0000
,
0112
0003
0000
0000
0101
0000
0000
0000
2110
3000
0000
0000
0110
0000
0000
0000
1201
0300
0000
0000
1010
0000
0000
0000
1021
0030
0000
0000
1001
0000
0000
0000
0121
0030
0000
0000
0110
0000
0000
0000
2011
3000
0000
0000
0101
0000
0000
0000
2011
3000
0000
0000
0011
0000
0000
0000
1210
0300
0000
0000
1001
0000
0000
0000
,
0121
0030
0000
0000
1001
0000
0000
0000
2110
3000
0000
0000
0110
0000
0000
0000
0121
0030
0000
0000
1100
0000
0000
0000
1102
0003
0000
0000
1010
0000
0000
0000
1120
0030
0000
0000
0101
0000
0000
0000
2101
3000
0000
0000
0110
0000
0000
0000
1012
0003
0000
0000
0110
0000
0000
0000
1210
0300
0000
0000
1001
0000
0000
0000
,
0121
0030
0000
0000
1001
0000
0000
0000
2110
3000
0000
0000
0110
0000
0000
0000
1012
0003
0000
0000
1010
0000
0000
0000
1201
0300
0000
0000
1100
0000
0000
0000
1021
0030
0000
0000
1001
0000
0000
0000
0211
0300
0000
0000
0101
0000
0000
0000
1120
0030
0000
0000
1001
0000
0000
0000
1012
0003
0000
0000
1010
0000
0000
0000
,
0121
0030
0000
0000
1100
0000
0000
0000
2011
3000
0000
0000
0101
0000
0000
0000
2101
3000
0000
0000
0011
0000
0000
0000
2011
3000
0000
0000
0011
0000
0000
0000
1210
0300
0000
0000
1010
0000
0000
0000
0121
0030
0000
0000
1100
0000
0000
0000
1012
0003
0000
0000
0110
0000
0000
0000
2101
3000
0000
0000
0011
0000
0000
0000
,
1210
0300
0000
0000
0011
0000
0000
0000
1102
0003
0000
0000
0110
0000
0000
0000
1021
0030
0000
0000
1100
0000
0000
0000
1012
0003
0000
0000
1010
0000
0000
0000
0211
0300
0000
0000
1010
0000
0000
0000
1201
0300
0000
0000
0011
0000
0000
0000
2110
3000
0000
0000
0011
0000
0000
0000
0112
0003
0000
0000
0110
0000
0000
0000
,
2101
3000
0000
0000
0110
0000
0000
0000
1021
0030
0000
0000
0101
0000
0000
0000
1120
0030
0000
0000
1001
0000
0000
0000
0112
0003
0000
0000
1010
0000
0000
0000
2101
3000
0000
0000
0110
0000
0000
0000
2011
3000
0000
0000
0101
0000
0000
0000
0121
0030
0000
0000
1001
0000
0000
0000
1120
0030
0000
0000
1001
0000
0000
0000
,
1012
0003
0000
0000
0110
0000
0000
0000
0211
0300
0000
0000
1010
0000
0000
0000
2110
3000
0000
0000
0101
0000
0000
0000
1012
0003
0000
0000
0110
0000
0000
0000
0211
0300
0000
0000
1010
0000
0000
0000
1210
0300
0000
0000
1001
0000
0000
0000
0121
0030
0000
0000
0110
0000
0000
0000
2011
3000
0000
0000
0101
0000
0000
0000
,
1120
0030
0000
0000
0101
0000
0000
0000
0112
0003
0000
0000
0110
0000
0000
0000
1012
0003
0000
0000
1010
0000
0000
0000
0121
0030
0000
0000
1100
0000
0000
0000
1021
0030
0000
0000
0101
0000
0000
0000
1210
0300
0000
0000
1010
0000
0000
0000
1021
0030
0000
0000
1001
0000
0000
0000
1120
0030
0000
0000
0101
0000
0000
0000
,
2011
3000
0000
0000
0011
0000
0000
0000
1201
0300
0000
0000
0101
0000
0000
0000
1210
0300
0000
0000
0011
0000
0000
0000
1012
0003
0000
0000
1100
0000
0000
0000
0121
0030
0000
0000
0011
0000
0000
0000
1210
0300
0000
0000
1001
0000
0000
0000
0112
0003
0000
0000
1010
0000
0000
0000
1201
0300
0000
0000
1010
0000
0000
0000
,
1021
0030
0000
0000
1100
0000
0000
0000
0112
0003
0000
0000
1100
0000
0000
0000
1021
0030
0000
0000
0011
0000
0000
0000
2101
3000
0000
0000
0011
0000
0000
0000
1210
0300
0000
0000
0011
0000
0000
0000
1201
0300
0000
0000
1010
0000
0000
0000
1021
0030
0000
0000
1100
0000
0000
0000
0112
0003
0000
0000
0110
0000
0000
0000
,
1102
0003
0000
0000
1010
0000
0000
0000
0211
0300
0000
0000
1010
0000
0000
0000
1201
0300
0000
0000
1010
0000
0000
0000
0121
0030
0000
0000
1001
0000
0000
0000
1120
0030
0000
0000
0101
0000
0000
0000
2011
3000
0000
0000
0110
0000
0000
0000
2222
0000
0000
0000
0000
0000
0000
0000
0000
0000
0000
0000
0000
0000
0000
0000
,
0000
3333
0000
0000
0000
0000
0000
0000
;
