#TITLE:Stargazer;
#SUBTITLE:(DJ Shimamura Remix);
#ARTIST:P*Light feat. Yukacco;
#TITLETRANSLIT:;
#SUBTITLETRANSLIT:;
#ARTISTTRANSLIT:;
#CREDIT:;
#BANNER:;
#BACKGROUND:BG.PNG;
#LYRICSPATH:;
#CDTITLE:;
#MUSIC:Stargazer (DJ Shimamura Remix).ogg;
#OFFSET:-0.647;
#SAMPLESTART:154.247;
#SAMPLELENGTH:29.999;
#SELECTABLE:YES;
#BPMS:0.000=175.000,192.000=87.500,240.000=175.000,528.000=87.500,560.000=175.000;
#STOPS:;
#BGCHANGES:;
// cache tags:
#FIRSTBEAT:0.000;
#LASTBEAT:827.000;
#SONGFILENAME:Songs/owenviau1 Simfiles 7/Stargazer - [owenviau1] v1.0.3/Stargazer.sm;
#HASMUSIC:1;
#HASBANNER:0;
#MUSICLENGTH:314.226;
// end cache tags

//---------------dance-single - 14.70 (15-) (owenvia----------------
#NOTES:
     dance-single:
     14.70 (15-) (owenvia:
     Challenge:
     15:
     1.000,1.000,0.188,0.586,1.000,2350.000,59.000,184.000,15.000,2.000:
1000
0000
0110
0010
0000
0100
0101
0000
,
0001
0000
1100
0000
0000
0100
0110
0000
,
0000
0010
0011
0001
0000
1000
1010
0000
,
0100
0000
0101
0000
0001
1000
1001
0000
,
0010
0000
1010
1000
0000
0001
0101
0000
,
1000
0000
0110
0000
0000
0001
1001
0000
,
0000
1000
1010
0010
0000
0100
0101
0000
,
0010
0000
1100
0000
0001
0100
0110
0000
,
1000
0000
1010
0010
0000
1000
1001
0000
,
0001
0000
0110
0000
0000
1000
1010
0000
,
0000
0100
0110
0010
0000
1000
1001
0000
,
0010
0000
1100
0000
0001
0100
0101
0000
,
0010
0000
1100
1000
0000
0001
0011
0000
,
0100
0000
1010
0000
0000
0001
0101
0000
,
0000
1000
1100
0100
0000
0010
0011
0000
,
1001
0000
0000
0000
1000
0100
0010
0000
,
0001
1000
0010
0100
0010
1000
0001
0010
,
0100
1000
0001
0100
0010
1000
0001
0100
,
0001
1000
0010
0100
0010
1000
0001
0010
,
0001
1000
0100
1000
0010
0100
0001
0100
,
0010
1000
0001
1000
0010
0100
0010
1000
,
0001
0010
0100
1000
0001
0100
0001
1000
,
0010
0100
0010
1000
0001
0010
0001
1000
,
0100
1000
0010
0100
0001
1000
0100
1000
,
0001
0010
0100
1000
0010
0100
0010
1000
,
0001
0000
0100
0000
0001
1000
0010
0100
0001
1000
0100
1000
0010
0100
0010
1000
,
0001
0100
0001
1000
0010
0100
0001
1000
0010
1000
0100
0010
0001
0100
0010
0100
,
0001
1000
0010
0100
0001
1000
0100
1000
0010
0100
0010
1000
0001
0010
0001
1000
,
0100
0010
0001
0100
0010
1000
0001
0100
0001
1000
0010
0100
0010
1000
0001
0010
,
0001
1000
0010
1000
0100
0010
0001
0100
0001
1000
0010
0100
0001
1000
0100
1000
,
0001
0010
0100
1000
0010
0100
0001
0100
0010
1000
0001
0100
0010
1000
0100
0010
,
0001
1000
0010
0100
0010
1000
0001
0010
0100
1000
0010
0100
0001
1000
0010
1000
,
0200
0000
0000
0000
0310
0001
1000
0010
0100
0010
1000
0001
0100
0001
0010
0100
,
1000
0001
0010
0001
0100
0010
0100
0001
1000
0010
1000
0001
0100
0010
1000
0001
,
0010
0001
1000
0100
1000
0010
0100
0010
1000
0001
0100
0001
0010
0100
1000
0010
,
0100
0010
1000
0001
0100
0001
0010
0100
1000
0010
0100
0001
0100
0010
1000
0001
,
2000
0000
0000
0000
3100
0010
0001
1000
0010
0100
0001
1000
0010
1000
0100
0010
,
0001
1000
0100
1000
0010
0100
0010
1000
0001
0010
0001
0100
0010
0100
0001
1000
,
0010
1000
0100
0010
0001
1000
0010
0100
0001
1000
0001
0010
0100
1000
0010
0100
,
0001
1000
0100
1000
0010
0100
0010
1000
0001
0010
0001
1000
0100
0010
0001
0100
,
0020
0000
0000
0000
1030
0001
0100
0001
0010
0100
1000
0010
0100
0001
0100
0010
,
1000
0001
0010
0001
1000
0010
1000
0100
0010
0001
0100
0010
1000
0001
0100
0001
,
1000
0010
0100
0010
1000
0001
0010
0001
0100
0010
0100
0001
1000
0100
1000
0010
,
0100
0001
1000
0100
0010
0001
0100
0001
1000
0010
0100
0001
0100
0010
1000
0001
,
0020
0000
0000
0000
0130
1000
0001
1000
0100
0010
0001
1000
0010
0100
0010
1000
,
0001
0100
0001
1000
0010
0100
0010
1000
0001
0010
0001
0100
0010
1000
0001
0010
,
0001
1000
0100
1000
0010
0100
0010
1000
0001
0100
0001
1000
0100
0010
0001
0100
,
0010
1000
0001
0010
0001
1000
0100
0010
0001
1000
0010
1000
0100
0010
0001
1000
,
0020
0000
0000
0230
0000
0000
0302
0000
0000
0000
0000
0000
0000
0000
0000
0000
,
2003
0000
0000
3200
0000
0000
2300
0000
0000
0000
0000
0000
0000
0000
0000
0000
,
3020
0000
0000
0230
0000
0000
0302
0000
0000
0000
0000
0000
0000
0000
0000
0000
,
0203
0000
0000
0320
0000
0000
2030
0000
0000
0000
0000
0000
0M00
0000
3020
0000
,
0230
0000
0000
0000
0000
0000
0302
00M0
0000
0000
0000
0000
0000
0000
2003
0000
0000
0000
0000
0000
0000
0000
0000
0000
30M0
0000
0000
0000
0200
0000
0000
0000
,
2300
0000
0000
0000
0000
0000
0000
0000
3020
0000
0000
0000
0000
0000
0230
0000
0000
0000
0000
0000
0000
0000
0000
0300
00M0
0000
0000
0000
0002
0000
0000
0000
,
2003
0000
0000
0000
3200
0000
0000
0000
0320
0000
0000
0000
0030
0000
0002
0000
0000
0000
0000
0000
0000
0000
0000
0003
0M00
0000
0000
0000
2000
0000
0000
0000
,
3020
0000
0000
0000
0230
0000
0000
0000
0320
0000
0000
0000
2030
0000
0000
0000
0000
0000
0000
0000
0000
3000
0000
00M0
0000
0000
0001
0000
0100
0000
0010
0000
,
2000
3000
0001
0100
0010
0100
0001
1000
0100
1000
0010
0200
03M0
0001
1000
0100
,
1000
0020
0030
0100
0001
0100
0010
1000
0020
0030
0200
0000
M300
0000
0001
1000
,
0020
0000
0000
0000
0030
0M00
0000
0000
2000
0000
0000
0000
0000
0000
0000
0000
3010
0000
0200
0000
0000
0000
0000
0000
0300
0000
0000
0000
00M0
0000
0001
0000
,
1000
0000
0000
0000
0000
0000
0100
0000
0000
0000
0000
0000
2000
0000
0000
0000
0000
0000
0000
0000
0000
0000
0000
0000
3000
0000
0000
0000
0000
0000
0020
0000
0000
0000
0000
0000
0000
0000
0000
0000
0000
0000
0030
0000
0200
0000
0000
0000
0000
0000
0000
0000
0000
0000
0000
0000
0300
0000
0000
0000
0000
0000
0000
0000
0000
0000
0000
0000
0000
M000
0000
0000
0002
0000
0000
0000
0000
0000
0000
0000
0000
0000
0000
0000
0000
0000
0000
0000
0000
0000
0000
0000
0000
0000
0000
0000
,
2003
0000
0000
3020
0000
0000
0230
0000
,
0000
0302
0000
0000
2003
0000
3200
0000
,
2300
0000
0000
3020
0000
0000
0230
0000
,
0000
0000
0000
0301
1000
0100
0010
0001
,
2000
0000
0000
3200
0000
0000
0320
0000
,
0000
0032
0000
0000
2003
0000
3020
0000
,
0230
0000
0000
0302
0000
0000
2003
0000
,
0000
3200
0000
0000
0320
0000
0032
0000
,
1003
0100
0010
0001
1000
0010
0100
0010
,
1000
0001
0100
0001
1000
0010
0100
0001
,
1000
0100
1000
0001
0010
0001
1000
0100
,
0010
0001
1000
0010
0100
0010
1000
0001
,
0010
0100
1000
0001
0010
0001
0100
0010
,
1000
0010
0100
0001
1000
0100
0010
0001
,
0100
0010
1000
0001
0100
0001
1000
0010
,
0100
0010
1000
0001
0010
0100
1000
0001
,
1001
0100
0010
0100
0001
1000
0100
1000
,
0010
0100
0001
1000
0010
1000
0001
0100
,
0010
0100
0001
1000
0100
1000
0010
0100
,
0001
1000
0100
0010
0001
1000
0010
1000
,
0002
0103
0020
1030
0002
0013
0200
1300
,
0020
0130
0002
1003
0200
1300
0002
0103
,
0020
2030
3002
0023
0032
2003
3200
0320
,
0031
1000
0010
0100
0010
1000
0001
0010
0200
0000
0000
0000
0000
0000
0000
0000
,
1300
0010
0100
0001
0100
0010
1000
0001
0010
0001
0100
0010
0100
0001
1000
0010
,
1000
0100
0010
0001
1000
0010
0100
0001
0100
0010
1000
0001
0010
0001
0100
0010
,
1000
0001
0100
0001
0010
0100
1000
0010
0100
0001
0100
0010
1000
0001
1000
0010
,
0100
0010
1000
0001
0010
0001
0100
0010
0100
0001
1000
0010
1000
0001
0100
0010
,
1000
0001
0010
0001
1000
0100
0010
0001
0100
0010
1000
0010
0100
0001
1000
0001
,
0100
0010
0100
0001
1000
0100
1000
0010
0100
0010
1000
0001
0100
0001
1000
0010
,
0100
0001
0010
0001
0100
0010
1000
0001
0100
0010
0100
0001
1000
0100
0010
0001
,
0100
0010
1000
0001
0100
0001
1000
0010
0100
0010
1000
0001
0010
0001
0100
0010
,
1000
0010
0100
0001
0100
0010
1000
0001
0010
0001
0100
0010
0100
0001
1000
0010
,
1000
0100
0010
0001
1000
0010
0100
0001
0100
0010
1000
0001
0010
0001
0100
0010
,
1000
0001
0100
0001
0010
0100
1000
0010
0100
0001
0100
0010
1000
0001
1000
0010
,
0100
0010
1000
0001
0010
0001
0100
0010
0100
0001
1000
0010
1000
0001
0100
0010
,
1000
0001
0010
0001
1000
0100
0010
0001
0100
0010
1000
0010
0100
0001
1000
0001
,
0100
0010
0100
0001
1000
0100
1000
0010
0100
0010
1000
0001
0100
0001
1000
0010
,
0100
0001
0010
0001
0100
0010
1000
0001
0100
0010
0100
0001
2000
0000
0000
0000
,
0000
0000
0020
0000
0000
0000
0000
0000
3130
0001
0100
0010
1000
0001
0010
0100
,
1000
0100
0010
0001
0100
0001
1000
0010
0100
0001
1000
0100
0010
0001
1000
0010
,
1000
0100
0010
0001
1000
0010
0100
0001
0100
0010
1000
0001
0010
0001
0100
0010
,
1000
0001
0100
0001
0010
0100
1000
0010
0100
0001
0100
0010
1000
0001
1000
0010
,
0100
0010
1000
0001
0010
0001
0100
0010
0100
0001
1000
0010
1000
0001
0100
0010
,
1000
0001
0010
0001
1000
0100
0010
0001
0100
0010
1000
0010
0100
0001
1000
0001
,
0100
0010
0100
0001
1000
0100
1000
0010
0100
0010
1000
0001
0100
0001
1000
0010
,
0100
0001
0010
0001
0100
0010
1000
0001
0100
0010
0100
0001
1000
0100
0010
0001
,
0100
0010
1000
0001
0100
0001
1000
0010
0100
0010
1000
0001
0010
0001
0100
0010
,
1000
0010
0100
0001
0100
0010
1000
0001
0010
0001
0100
0010
0100
0001
1000
0010
,
1000
0100
0010
0001
1000
0010
0100
0001
0100
0010
1000
0001
0010
0001
0100
0010
,
1000
0001
0100
0001
0010
0100
1000
0010
0100
0001
0100
0010
1000
0001
1000
0010
,
0100
0010
1000
0001
0010
0001
0100
0010
0100
0001
1000
0010
1000
0001
0100
0010
,
1000
0001
0010
0001
1000
0100
0010
0001
0100
0010
1000
0010
0100
0001
1000
0001
,
0100
0010
0100
0001
1000
0010
0100
0001
1000
0100
1000
0010
0100
0001
0100
0010
,
2000
0000
3000
0120
0000
0030
0102
0000
,
1003
0100
1000
0010
0100
0001
1000
0001
,
0020
0000
0000
0030
0200
0000
0300
2000
,
3001
0010
0100
1000
0001
0100
0001
0000
,
0010
0100
1000
0001
0100
0010
1000
0001
0010
0001
0100
0010
0100
0001
1000
0010
,
1000
0100
0010
0001
1000
0010
0100
0001
0100
0010
1000
0001
0010
0001
0100
0010
,
1000
0001
0100
0001
0010
0100
1000
0010
0100
0001
0100
0010
1000
0001
1000
0010
,
0100
0010
1000
0001
0010
0001
0100
0010
0100
0001
1000
0010
1000
0001
0100
0010
,
1000
0001
0010
0001
1000
0100
0010
0001
0100
0010
1000
0010
0100
0001
1000
0001
,
0100
0010
0100
0001
1000
0100
1000
0010
0100
0010
1000
0001
0100
0001
1000
0010
,
0100
0001
0010
0001
0100
0010
1000
0001
0100
0010
0100
0001
1000
0100
0010
0001
,
0100
0010
1000
0001
0100
0001
1000
0010
0100
0010
1000
0001
0010
0001
0100
0010
,
1000
0010
0100
0001
0100
0010
1000
0001
0010
0001
0100
0010
0100
0001
1000
0010
,
1000
0100
0010
0001
1000
0010
0100
0001
0100
0010
1000
0001
0010
0001
0100
0010
,
1000
0001
0100
0001
0010
0100
1000
0010
0100
0001
0100
0010
1000
0001
1000
0010
,
0100
0010
1000
0001
0010
0001
0100
0010
0100
0001
1000
0010
1000
0001
0100
0010
,
1000
0001
0010
0001
1000
0100
0010
0001
0100
0010
1000
0010
0100
0001
2000
0000
,
0000
0000
3000
0000
0M00
0000
0000
0002
0000
0000
0000
0000
0000
0000
0000
0003
,
2000
0000
3020
0000
0200
0000
0300
0200
0000
0000
0300
0000
0000
0000
0000
0000
,
2000
0000
0000
0000
3000
0000
2000
0000
0000
0000
3000
0000
2000
0000
0000
0030
0000
0000
0000
0M00
0000
0000
3001
0000
0010
0000
0100
0000
1000
0000
0020
0000
,
0230
0000
0000
0002
0000
0003
0002
0000
0003
0000
0000
0000
0000
0000
0320
2030
,
0000
0000
0002
0000
0000
0000
0003
0000
0002
0000
0000
0000
0003
3000
0002
0000
0000
0000
0000
0000
0M00
0000
0000
0000
2003
0000
0000
0000
0000
0000
0000
0000
,
3020
0000
0000
0030
0200
0000
0020
0000
0000
0000
0030
0000
0020
0000
0000
0000
0030
0000
0000
0000
0000
0000
0000
0000
0000
0000
0000
0000
0000
0000
0000
0000
,
0020
0000
0000
0000
0000
0000
0030
0000
0000
0020
0000
0000
0000
0000
0000
0030
0000
0000
0020
0000
0000
0000
0000
0000
0330
0000
0000
0000
000M
0000
0000
0000
0000
1000
0000
0000
0100
0000
0000
1000
0000
0000
0010
0000
0000
0100
0000
0000
,
0002
2000
0003
0002
0000
0003
0002
0000
0003
0000
0000
0000
0000
3000
0010
0200
,
0002
0000
0003
0002
0000
0003
0302
0000
0000
0000
0000
0000
0000
0000
0000
0000
,
2203
0000
3300
0220
0000
0330
0022
0000
,
0033
2002
0000
3003
2200
3300
2200
3300
,
0220
0000
0330
0022
0000
0033
2020
0000
,
3030
0220
0000
0330
0202
0303
0202
0303
,
2020
0000
3030
0220
0000
0330
0202
0000
,
0303
2200
0000
3300
0220
0330
0220
0330
,
0022
0000
0033
0202
0000
0303
0220
0000
,
0330
2020
0000
3030
2002
3003
2002
3003
,
1000
0100
0010
0001
0100
0010
0100
0001
1000
0010
1000
0001
0100
0010
0100
0001
,
1000
0010
1000
0100
0010
0001
1000
0100
1000
0010
0100
0001
0100
0010
1000
0001
,
0010
0001
1000
0100
1000
0010
0100
0001
1000
0010
0100
0010
1000
0001
0010
0001
,
0100
0010
0100
0001
1000
0010
0100
0001
1000
0100
1000
0001
0010
0100
1000
0010
,
0100
0001
0100
0010
1000
0001
0100
0010
1000
0001
0010
0100
1000
0010
0100
0001
,
0100
0010
1000
0001
0100
0001
1000
0010
0100
0001
0010
0001
0100
0010
0100
0001
,
1000
0010
1000
0001
0100
0010
0100
0001
1000
0100
1000
0010
0100
0001
1000
0100
,
0010
0001
1000
0010
1000
0001
0100
0010
1000
0001
0010
0001
0100
0010
1000
0001
,
1000
0100
0010
0001
0100
0001
1000
0100
0010
0001
1000
0010
0100
0001
1000
0010
,
1000
0100
0010
0001
1000
0010
0100
0001
0100
0010
1000
0001
0010
0001
0100
0010
,
1000
0001
0100
0001
0010
0100
1000
0010
0100
0001
0100
0010
1000
0001
1000
0010
,
0100
0010
1000
0001
0010
0001
0100
0010
0100
0001
1000
0010
1000
0001
0100
0010
,
1000
0001
0010
0001
1000
0100
0010
0001
0100
0010
1000
0010
0100
0001
1000
0001
,
0100
0010
0100
0001
1000
0100
1000
0010
0100
0010
1000
0001
0100
0001
1000
0010
,
0100
0001
0010
0001
0100
0010
1000
0001
0100
0010
0100
0001
1000
0100
0010
0001
,
0100
0010
1000
0001
0100
0001
1000
0010
0100
0010
1000
0001
0010
0001
0100
0010
,
1000
0010
0100
0001
0100
0010
1000
0001
0010
0001
0100
0010
0100
0001
1000
0010
,
1000
0100
0010
0001
1000
0010
0100
0001
0100
0010
1000
0001
0010
0001
0100
0010
,
1000
0001
0100
0001
0010
0100
1000
0010
0100
0001
0100
0010
1000
0001
1000
0010
,
0100
0010
1000
0001
0010
0001
0100
0010
0100
0001
1000
0010
1000
0001
0100
0010
,
1000
0001
0010
0001
1000
0100
0010
0001
0100
0010
1000
0010
0100
0001
1000
0001
,
0100
0010
0100
0001
1000
0100
1000
0010
0100
0010
1000
0001
0100
0001
1000
0010
,
0100
0001
0010
0001
0100
0010
1000
0001
0100
0010
0100
0001
2000
0000
0000
0000
,
0000
0000
3020
0000
0230
0000
0000
0000
0301
0010
0100
1000
0020
0000
0000
0030
,
1000
0100
0010
0001
0100
0001
1000
0010
0100
0001
1000
0100
0010
0001
1000
0010
,
1000
0100
0010
0001
1000
0010
0100
0001
0100
0010
1000
0001
0010
0001
0100
0010
,
1000
0001
0100
0001
0010
0100
1000
0010
0100
0001
0100
0010
1000
0001
1000
0010
,
0100
0010
1000
0001
0010
0001
1000
0010
0100
0001
1000
0010
1000
0001
0100
0010
,
1000
0001
0010
0001
1000
0100
0010
0001
0100
0010
1000
0010
0100
0001
1000
0001
,
0100
0010
0100
0001
1000
0100
1000
0010
0100
0010
1000
0001
0100
0001
1000
0010
,
0100
0001
0010
0001
0100
0010
1000
0001
0100
0010
0100
0001
1000
0100
0010
0001
,
0100
0010
1000
0001
0100
0001
1000
0010
0100
0010
1000
0001
0010
0000
0100
0000
,
1000
0010
0100
0001
0100
0010
1000
0001
0010
0001
0100
0010
0100
0001
1000
0010
,
1000
0100
0010
0001
1000
0010
0100
0001
0100
0010
1000
0001
0010
0001
0100
0010
,
1000
0001
0100
0001
0010
0100
1000
0010
0100
0001
0100
0010
1000
0001
1000
0010
,
0100
0010
1000
0001
0010
0001
0100
0010
0100
0001
1000
0010
1000
0001
0100
0010
,
1000
0001
0010
0001
1000
0100
0010
0001
0100
0010
1000
0010
0100
0001
1000
0001
,
0100
0010
0100
0001
1000
0010
0100
0001
1000
0100
1000
0010
0100
0001
0100
0010
,
1000
0100
1000
0001
0100
0010
1000
0001
0010
0001
0100
0010
0100
0001
1000
0010
,
0400
0000
0000
0000
0310
1000
0001
0000
,
1000
0001
0100
0001
0010
0100
1000
0010
0100
0001
0100
0010
1000
0001
1000
0010
,
0100
0010
1000
0001
0010
0001
0100
0010
0100
0001
1000
0010
1000
0001
0100
0010
,
1000
0001
0010
0001
1000
0100
0010
0001
0100
0010
1000
0010
0100
0001
1000
0001
,
0100
0010
0100
0001
1000
0100
1000
0010
0100
0010
1000
0001
0100
0001
1000
0010
,
1000
0001
0010
0001
0100
0010
1000
0001
0100
0010
0100
0001
1000
0100
0010
0001
,
0100
0010
1000
0001
0100
0001
1000
0010
0100
0010
1000
0001
0010
0001
0100
0010
,
1000
0010
0100
0001
0100
0010
1000
0001
0010
0001
0100
0010
0100
0001
1000
0010
,
1000
0100
0010
0001
1000
0010
0100
0001
1000
0000
0100
0000
0010
0000
0001
0000
,
1000
0010
0100
0001
0010
0100
1000
0010
0100
0001
0100
0010
1000
0001
1000
0010
,
0100
0010
1000
0001
0010
0001
0100
0010
0100
0001
1000
0010
1000
0001
0100
0010
,
1000
0001
0010
0001
1000
0100
0010
0001
0100
0010
1000
0010
0100
0001
1000
0001
,
0100
0010
0100
0001
1000
0100
1000
0010
0100
0010
1000
0001
1000
0010
0100
0001
,
0100
0010
1000
0001
0010
0001
0100
0010
0100
0001
1000
0010
1000
0100
0010
0001
,
1000
0010
0100
0001
0100
0010
1000
0001
0010
0001
0100
0010
1000
0001
0100
0001
,
0010
0100
1000
0010
0100
0001
0100
0010
1000
0001
1000
0010
0100
0010
1000
0001
,
0100
0010
1000
0002
0023
0130
1000
0002
,
0000
0203
0000
0000
0000
0000
0000
0000
,
0000
0000
0000
0000
0000
0000
0000
0000
0000
0000
0000
0000
0000
0000
0000
0000
0300
0000
0020
0000
0000
2000
0000
0000
,
0000
0000
0000
3030
,
0000
0000
0000
0000
,
0000
0000
0000
0000
;
