#TITLE:Terror from Beyond;
#SUBTITLE:)V(-122Y;
#ARTIST:Digital Explosion;
#TITLETRANSLIT:;
#SUBTITLETRANSLIT:;
#ARTISTTRANSLIT:;
#CREDIT:;
#BANNER:terror.png;
#BACKGROUND:terror-bg.png;
#LYRICSPATH:;
#CDTITLE:!IzzyTitle.JPG;
#MUSIC:Digital Explosion - Terror_From_Beyond.mp3;
#OFFSET:-0.428;
#SAMPLESTART:20.363;
#SAMPLELENGTH:12.000;
#SELECTABLE:YES;
#BPMS:0.000=185.000,526.000=328.889,528.667=493.333,528.667=657.778;
#STOPS:;
#BGCHANGES:;
// cache tags:
#FIRSTBEAT:0.000;
#LASTBEAT:528.667;
#SONGFILENAME:Songs/Izzy/Terror From Beyond/Terror.sm;
#HASMUSIC:1;
#HASBANNER:1;
#MUSICLENGTH:173.330;
// end cache tags

//---------------dance-single - 1246 notes of terror----------------
#NOTES:
     dance-single:
     1246 notes of terror:
     Challenge:
     11:
     1.000,1.000,1.000,0.069,0.378,936.000,314.000,12.000,0.000,0.000:
1001
0000
0110
0000
1001
0220
0000
0000
,
0000
0000
0000
0000
0000
0000
0000
0330
,
1001
0000
0110
0000
1100
0022
0000
0000
,
0000
0000
0000
0000
0000
0000
0000
0033
,
1100
0000
0100
0000
0011
0100
0000
0000
,
0100
0000
0001
0000
,
1000
0000
0110
0000
0110
0110
0000
0000
,
1100
0000
0011
0001
,
1100
0000
0011
0000
1100
0110
0000
0000
,
1001
0000
1100
0000
,
1001
0000
0000
0000
1000
0000
0000
0000
0001
0000
0011
0000
1000
1000
0001
1000
,
0001
1000
0001
1000
0010
1000
0010
1000
0100
1000
0100
1000
0100
1000
0010
1000
,
0001
1001
1000
1001
,
0010
1001
0100
1001
,
0010
1100
0010
0011
,
1000
0000
0000
0000
1100
0000
1000
0100
0010
0000
0100
0000
0100
0000
0100
0000
,
1001
1001
1001
0100
,
0110
1000
0110
0001
,
0110
1000
0011
0010
,
1100
0000
0000
0000
1100
0000
1000
0100
0010
0000
0010
0000
0010
0000
0010
0000
,
1001
1000
0010
0100
,
1001
0100
1100
0100
,
1000
0100
0010
0001
0100
0010
1000
0100
0010
0001
0100
0010
1000
0100
0010
0001
,
0100
0010
1000
0100
0010
0001
0100
0010
1000
0100
0010
0001
0100
0010
1000
0100
,
0011
0010
0110
1000
,
0110
0001
0110
1100
,
0010
0011
1000
0110
,
1001
0000
0000
0000
0011
0000
0001
0010
0100
0000
0100
0000
0100
0000
0100
0000
,
1001
0100
0110
0100
,
1100
0100
0110
0100
,
0011
0010
0011
0100
,
1100
0000
0000
0000
0110
0000
1000
0100
0010
0000
0010
0000
0010
0000
0010
0000
,
1001
1000
0100
0000
0001
0010
0100
0000
,
1000
0000
0100
0000
0010
0000
0001
0000
1000
0001
1000
0001
1000
0000
0100
0000
,
1000
0100
0010
0000
0001
0010
0100
0100
,
1000
0000
0100
0000
0010
0000
0010
0000
1000
0001
1000
0001
1000
0000
0100
0000
,
0001
0110
0001
0000
1000
1100
1000
0000
,
0001
0000
0011
0000
0001
0000
0100
0000
1000
0001
1000
0001
1000
0000
0100
0000
,
1100
0100
0110
0000
0001
0011
0100
0000
,
1001
0000
0100
0000
0110
0000
0010
0000
0001
1000
0001
1000
0001
0000
0100
0000
,
1001
0100
1100
0000
1100
0100
0110
0000
,
0001
0000
0110
0000
1100
0000
0110
0000
0001
0100
0010
0100
0001
0000
0010
0000
,
0110
0000
0100
0000
0110
0000
0000
1000
0100
0010
0001
0010
0100
0010
0001
0010
,
0100
0010
0001
0010
0100
1000
0010
0100
0010
1000
0100
0010
0001
0100
0010
0100
,
0001
0011
0001
0011
0001
1000
1001
1000
,
1001
1000
0001
1001
0001
0010
1001
0010
,
1100
0010
0101
0100
1010
1000
1100
1000
,
1100
1000
1010
1000
1010
1000
1001
1000
,
1001
0001
0011
0001
0011
0001
0101
0001
,
0101
0001
1001
0001
1001
0001
0110
0001
,
0110
0001
0011
0001
0011
0100
0011
0100
,
0011
0000
0100
0000
0011
0000
0100
1000
0100
0000
0100
0000
0100
0000
0100
0000
,
1001
1000
1001
1000
1001
1000
0101
1000
,
0101
1000
0110
1000
0110
1000
1100
1000
,
1100
1000
0110
1000
0110
1000
0011
1000
,
0011
0000
0100
0000
0110
0000
0100
0010
0001
0000
0001
0000
0001
0000
0001
0000
,
1001
0100
0010
0100
0010
0001
0010
0100
,
0010
0100
1000
0100
1000
0100
0010
0100
,
0010
0000
0001
0000
0010
0000
0100
0000
1000
0100
0010
0001
0010
0100
0010
0001
,
0010
0100
1000
0100
0010
0100
1000
0100
0010
0001
0100
0010
1000
0100
0010
0001
,
0100
1000
1100
1000
1100
1000
1100
1000
,
0110
1000
0110
1000
0110
1000
0011
1000
,
0011
1000
0011
1000
0101
1000
0101
1000
,
0101
1000
1010
1000
1010
1000
1010
1000
,
1001
1000
1001
1000
1001
0100
0110
0010
,
0110
0100
0110
0010
0110
0100
0110
0010
,
0110
0000
0100
0000
0010
0000
0100
0000
0000
0000
1000
0000
0001
0010
0100
1000
,
0100
0010
0001
0010
0100
1000
0100
0010
0100
1000
0100
0010
0001
0010
0100
1000
,
0010
1000
0100
0010
0001
0100
1000
0100
,
1000
0100
0010
0100
0010
0001
0010
0100
,
0010
0100
1000
0100
1000
0100
0001
0010
,
0100
0010
0001
0010
0100
1000
0100
0010
,
0001
0010
0100
0010
0001
0010
0100
1000
,
0100
0010
0001
0010
0001
0010
0100
1000
,
0001
0010
0100
0100
0010
0010
0100
0100
,
1000
1000
0100
0100
0001
0001
0010
0010
,
2000
0000
3000
0000
0002
0000
0003
0000
0000
0000
0200
0300
0020
0030
0000
0000
,
2000
0000
3000
0000
0002
0000
0003
0000
0000
0000
0200
0300
0020
0030
0000
0000
,
1100
1000
0110
0010
0011
0010
0110
0100
,
1100
1000
0110
0100
0110
0010
0011
0101
,
0010
1010
0100
1001
0100
1010
0010
1001
,
0010
0100
1000
0100
0010
0100
0001
0010
,
0100
0000
1000
0000
0100
0000
1000
0100
0010
0001
1000
0100
0010
0001
0010
0100
,
1000
0100
0010
0100
1000
0010
0100
0010
1000
0001
1000
0001
0010
0100
1000
0000
,
1001
0010
0100
1001
,
0100
1001
0010
1001
,
0100
1100
1001
0010
,
1001
0000
0000
0000
0100
0000
1000
0001
0100
0000
0100
0000
0100
0000
0100
0000
,
1001
1001
1100
0011
,
0110
1100
0101
0011
,
1010
0101
1100
0011
,
0110
0000
0000
0000
0110
0000
0001
0010
0100
0000
0100
0000
0100
0000
0100
0000
,
1001
1001
0110
0110
,
1100
0011
0110
1010
,
0101
0000
0000
0000
0110
0000
1000
0100
0010
0100
1000
0001
0010
0100
0010
0001
,
1000
0100
0010
0100
1000
0001
0010
0100
0010
0001
1000
0100
0010
0100
1000
0100
,
0010
1100
0110
0010
,
0010
0110
1000
0110
,
0110
0110
1100
0110
,
1100
0000
0000
0000
0110
0000
1000
0010
0100
0000
0100
0000
0100
0000
0100
0000
,
1001
0100
0110
0010
,
0110
1000
1100
0011
,
0001
1001
0110
0110
,
1100
0000
0000
0000
0011
0000
0001
0100
0001
0000
0001
0000
0001
0000
0001
0000
,
1001
0000
1001
0000
,
1000
0000
1001
0000
,
0010
0000
0000
0000
0000
0000
0000
0000
1001
0000
1000
0100
0010
0100
1000
0001
,
0010
0100
0010
0001
1000
0100
0010
0100
1000
0001
0010
0100
0010
0001
0010
0001
,
0010
1001
1001
1001
0110
0110
1001
0110
,
0110
1100
1100
0011
0011
0110
0110
1100
,
0110
0011
0110
1001
1001
1001
1001
0110
,
0110
0000
1001
0000
0110
0000
1000
0001
1000
0000
1001
0000
1001
0000
1001
0000
,
0110
0110
1100
1100
0110
0110
0011
0011
,
0110
1001
1010
1010
0101
0101
1001
1001
,
0110
0110
1100
0110
0011
0110
1100
1100
,
1100
0000
1001
0000
1001
0000
1000
0001
1000
0000
1001
0000
0110
0000
0110
0000
,
1001
0000
1001
0000
,
0110
0000
0110
0000
,
1001
0000
0110
0000
,
0110
0000
0000
0000
1001
0000
0001
1000
0100
0000
0100
0000
0100
0000
0100
0000
,
1001
0000
0110
0000
,
1100
0000
0011
0000
,
0110
0000
1001
0000
,
1100
0000
0000
0000
1001
0000
0010
0100
0010
0000
0010
0000
0010
0000
0010
0000
,
1001
1000
1100
1000
1100
1000
1100
1000
,
1010
1000
1010
1000
1010
1000
1001
1000
,
1001
1000
1001
1000
1010
1000
1010
1000
,
1010
1000
0101
1000
0101
1000
0101
1000
,
0011
0100
0110
0100
0110
1000
0011
1000
,
0011
0100
1100
0100
0110
0010
0011
0001
,
0011
0000
0010
0000
0110
0000
0100
0000
1100
0000
0100
0010
0001
0010
0100
1000
,
0100
0000
0000
0000
0010
0000
0000
0000
0001
0000
0000
0000
0010
0000
0000
0000
0100
0000
0000
0000
1000
0000
0000
0000
0100
0000
0000
0000
0010
0000
0000
0000
0001
0000
0000
0000
0000
0000
0000
0000
0000
0000
0000
0000
0000
0000
0001
0000
0000
0000
0000
0000
0000
0000
0000
0000
0000
0000
0000
0000
0000
1000
0000
0000
,
0000
0000
0001
0000
0000
0000
0000
0000
0000
0000
0000
0000
;
