#TITLE:Keep It Up!;
#SUBTITLE:;
#ARTIST:J&R Project;
#TITLETRANSLIT:;
#SUBTITLETRANSLIT:;
#ARTISTTRANSLIT:;
#CREDIT:;
#BANNER:sonic.png;
#BACKGROUND:sonicBG.png;
#LYRICSPATH:;
#CDTITLE:!joeCDtitle.png;
#MUSIC:J&R Project - Keep It Up.ogg;
#OFFSET:-0.130;
#SAMPLESTART:44.925;
#SAMPLELENGTH:12.000;
#SELECTABLE:YES;
#BPMS:0.000=139.000,68.000=69.500,70.000=139.000,164.000=69.500,165.000=139.000;
#STOPS:;
#BGCHANGES:;
// cache tags:
#FIRSTBEAT:16.000;
#LASTBEAT:240.500;
#SONGFILENAME:Songs/Rodd's Revival/Keep It Up! (Rodd Steps)/Keep It Up (Rodd Steps).sm;
#HASMUSIC:1;
#HASBANNER:1;
#MUSICLENGTH:106.057;
// end cache tags

//---------------dance-single - R. Farias----------------
#NOTES:
     dance-single:
     R. Farias:
     Challenge:
     11:
     0.971,0.935,0.009,0.057,1.000,714.000,1.000,6.000,0.000,0.000:

0000
0000
0000
0000
,
0000
0000
0000
0000
,
0000
0000
0000
0000
,
0000
0000
0000
0000
,
0001
0000
0000
0100
0000
0000
0010
0000
0100
0010
0000
0100
0010
0000
0000
1000
0000
0000
0100
0000
0000
1000
0000
0000
,
0001
0000
0000
0100
0000
0000
0010
0000
1000
0100
0000
1000
0100
0000
0000
0010
0000
0000
0001
0000
0000
0100
0000
0000
,
0010
0000
0000
0000
0000
0000
0100
0000
0000
0000
0000
0000
0001
0000
0000
0000
1000
0000
0001
0000
0000
0000
1000
0000
0001
0000
0000
0000
0000
0000
0100
0000
0000
0000
0000
0000
0010
0000
0000
0100
0000
0000
0001
0000
0000
1000
0000
0000
,
0100
0000
0000
0000
0000
0000
0010
0000
0000
0000
0000
0000
0001
0000
0000
0000
0010
0000
0001
0000
0000
0000
0010
0000
0001
0000
0000
0000
0000
0000
0100
0000
0000
0000
0000
0000
0010
0000
0000
0100
0000
0000
0010
0000
0000
0100
0000
0000
,
0010
0000
0000
0000
0000
0000
1000
0000
0000
0000
0000
0000
0100
0000
0000
0000
0010
0000
0100
0000
0000
0000
0010
0000
0100
0000
0000
0000
0000
0000
0010
0000
0000
0000
0000
0000
0001
0000
0000
0100
0000
0000
0010
0000
0000
1000
0000
0000
,
0100
0000
0000
0010
0000
0000
0100
0000
1000
0001
0000
0100
0010
0000
0000
0100
0000
0000
0001
0000
0000
1000
0000
0000
,
0100
0010
0001
0010
0100
1000
0001
0100
0010
0100
0001
1000
0100
0010
0100
1000
,
0001
0100
0010
0100
0001
1000
0100
1000
0010
0100
0001
0010
0100
1000
0100
0010
,
0001
0000
0100
0020
0000
0000
0030
0000
1000
0000
0100
0020
0000
0000
0030
0000
,
0001
0100
0001
0000
0100
0010
0100
0000
0010
1000
0010
0000
1000
0100
1000
0100
,
1000
0100
1000
0000
0001
0100
0001
0000
0010
0001
0010
0001
0100
0001
0100
0010
,
1000
0100
0010
0000
0001
0100
0010
0000
0010
1000
0100
0000
0100
0010
0001
0100
,
0001
0100
0010
0000
1000
0100
0010
0000
0001
0010
0100
1000
0001
0010
0100
0000
,
0220
0000
0000
0000
0000
0000
0330
0000
0010
0001
0100
0000
0010
1000
0100
0000
,
0010
0100
0010
0000
0001
0100
0010
1000
0100
0010
0001
0000
0001
0010
0100
0000
,
0100
1000
0010
0100
0001
1000
0100
0010
0100
1000
0001
0000
0100
0010
1000
0000
,
0100
0010
0100
0000
0010
0001
0010
0100
1000
0001
0100
0000
0010
0100
0010
0000
,
1000
0100
1000
0001
1000
0100
1000
0010
0100
0001
0010
0000
1000
0010
1000
0000
,
0010
0001
0010
0000
0001
0100
0001
0100
0010
1000
0010
0000
1000
0100
0010
0000
,
0010
0100
1000
0001
0100
0010
1000
0100
0010
0100
0010
0000
0100
0010
0100
0000
,
0010
0001
0010
0000
0001
1000
0001
1000
0100
1000
0100
0000
0010
0100
0010
0001
,
0010
0100
1000
0001
0100
0010
1000
0001
1000
0100
1000
0000
0001
0100
0001
0000
,
0100
0010
0100
0000
0010
1000
0010
1000
0100
1000
0100
0000
0010
0001
0010
0000
,
0001
0100
0010
1000
0100
0010
0001
0010
0100
1000
0001
0000
0100
0010
1000
0000
,
0100
0010
0100
0000
0010
0001
0010
0001
0100
0001
0100
0000
0010
0100
0010
0000
,
1000
0100
1000
0100
1000
0001
0100
0010
1000
0100
1000
0000
0001
0000
0100
0000
,
0010
0100
0001
1000
0100
1000
0010
0100
,
0001
0000
0010
0000
0001
0000
1000
0000
0001
0100
0010
1000
0001
0100
0010
1000
,
0100
1000
0010
1000
0001
1000
0100
1000
0010
0100
0001
0010
0001
0100
0010
0100
,
0020
0000
0000
0000
0000
0000
0000
0000
1030
0100
0010
0000
0010
0100
1000
0000
,
1000
0001
1000
0000
1000
0100
0010
0001
1000
0100
0010
0000
0001
0100
0010
0000
,
0010
0100
0001
1000
0010
0100
0001
1000
0010
0100
0001
0000
1000
0100
0010
0000
,
0001
1000
0100
0000
0010
0100
0010
0001
0010
0001
0010
0000
0001
0100
0001
0000
,
0100
0010
0100
0010
1000
0010
1000
0100
1000
0100
1000
0000
0100
0010
0100
0000
,
0010
0001
0100
0000
0010
1000
0100
0010
0001
0010
0100
0000
1000
0001
0100
0000
,
0010
0100
0010
1000
0100
0010
0100
1000
0001
0100
0010
0000
0010
0100
0001
0000
,
1000
0100
0010
0000
0001
0100
0010
0100
0001
1000
0100
0000
0010
0001
1000
0000
,
0001
1000
0001
1000
0001
1000
0001
1000
0001
0000
0100
0000
0010
0000
0000
0000
1000
0000
0100
0000
0010
0000
0000
0000
0001
0000
0100
0000
0010
0000
0000
0000
,
0100
0001
1000
0100
0010
0100
1000
0000
0001
0100
0001
0000
0100
0010
1000
0100
,
1000
0100
0010
0100
0010
0001
0010
0000
0001
0100
0001
0000
0100
0010
0100
0000
,
0001
0100
0001
1000
0100
1000
0100
0000
1000
0001
1000
0000
0001
0100
0010
0100
,
0001
1000
0100
0010
0100
1000
0001
0000
0100
0010
0100
0000
0010
0001
0010
0000
,
0100
0010
0100
0010
1000
0010
1000
0000
0100
1000
0100
0000
0010
0100
0010
0100
,
0010
0001
0010
0001
0100
0001
0100
0000
0010
1000
0100
0000
0001
0100
0001
0000
,
0100
0010
0100
0010
0001
0010
0001
0000
0100
0010
0100
0000
0010
1000
0100
0010
,
0001
0010
0100
1000
0001
0100
0010
0000
0100
0001
1000
0000
0100
1000
0100
0000
,
0010
0100
0010
0100
0010
0100
0010
0000
0001
0100
0001
0000
1000
0001
1000
0001
,
1000
0100
1000
0100
1000
0010
1000
0000
0010
0100
0010
0000
1000
0010
1000
0000
,
0100
0010
0100
0010
0001
0100
0001
0000
0100
0010
0100
0000
0001
1000
0001
1000
,
0100
1000
0100
1000
0010
1000
0010
0000
0100
0001
1000
0000
0100
0010
0001
0000
,
0100
0010
1000
0100
0010
0001
0010
0000
0100
1000
0001
0000
0100
0010
0100
0010
,
1000
0010
1000
0100
1000
0100
1000
0000
0100
0000
0010
0000
0001
0000
0100
0000
,
0010
0000
0100
0000
0001
1000
0100
0010
0001
0010
0100
1000
0001
0100
0010
1000
,
0001
0000
0000
0100
0000
0000
0010
0000
0000
1000
0000
0000
0100
0000
0000
0000
0000
0000
0010
0000
0000
0000
0000
0000
0001
0000
0000
0000
0010
0000
0001
0000
0000
0000
0010
0000
0001
0000
0000
0000
0000
0000
0100
0000
0000
0000
0000
0000
,
0010
0000
0000
0100
0000
0000
0001
0000
0000
1000
0000
0000
0100
0000
0010
0100
0000
0010
0100
0000
0000
0010
0000
0000
,
0001
0000
0000
1000
0000
0000
0001
0000
0000
0100
0000
0000
0010
0000
1000
0010
0000
1000
0010
0000
0000
1000
0000
0000
,
0002
0003
0000
0000
0000
0000
0000
0000
;
