#TITLE:The Last Striker;
#SUBTITLE:;
#ARTIST:L.E.D.;
#TITLETRANSLIT:;
#SUBTITLETRANSLIT:;
#ARTISTTRANSLIT:;
#CREDIT:;
#BANNER:../Jawn - ban.png;
#BACKGROUND:../Jawn - bg.png;
#LYRICSPATH:;
#CDTITLE:;
#MUSIC:The Last Striker.ogg;
#OFFSET:0.009;
#SAMPLESTART:114.168;
#SAMPLELENGTH:12.000;
#SELECTABLE:YES;
#BPMS:0.000=185.000;
#STOPS:;
#BGCHANGES:;
// cache tags:
#FIRSTBEAT:32.000;
#LASTBEAT:517.000;
#SONGFILENAME:Songs/Jimmy Jawns/The Last Striker - [Aoreo]/The Last Striker.sm;
#HASMUSIC:1;
#HASBANNER:1;
#MUSICLENGTH:169.324;
// end cache tags

//---------------dance-single - J. Nero (15++)----------------
#NOTES:
     dance-single:
     J. Nero (15++):
     Challenge:
     15:
     1.000,1.000,0.012,0.077,1.000,1578.000,2.000,13.000,1.000,1.000:
0000
0000
0000
0000
,
0000
0000
0000
0000
,
0000
0000
0000
0000
,
0000
0000
0000
0000
,
0000
0000
0000
0000
,
0000
0000
0000
0000
,
0000
0000
0000
0000
,
0000
0000
0000
0000
,
1000
0010
1000
0100
0010
0001
0100
0010
,
0100
0001
0010
0100
1000
0010
0100
0010
,
1000
0001
0010
0001
0100
0010
0010
1000
,
0100
0100
1000
0100
0100
0010
0001
0100
,
0010
0100
0001
0010
0100
1000
1000
0001
,
0100
0100
0001
1000
1000
0010
0100
0001
,
0010
0100
1000
1000
0001
0100
0100
0001
,
1000
1000
0100
0010
0010
0001
1000
0010
,
1000
0001
0100
0001
0010
0100
1000
0001
1000
0010
1000
0100
1000
0001
0100
0001
,
0010
0100
1000
0001
0100
0010
0100
0010
1000
0001
0010
0100
0010
0001
0100
0010
,
1000
0100
1000
0100
0010
0001
1000
0010
1000
0001
1000
0010
1000
0100
0010
0001
,
1000
0001
0100
0010
0100
0010
1000
0100
1000
0010
0100
0010
1000
0001
0100
0001
,
0010
0100
1000
0001
1000
0010
0100
0001
1000
0001
0010
0001
0100
0010
0100
0001
,
0010
0100
0010
0001
1000
0100
1000
0001
0100
0010
0100
0010
1000
0100
1000
0001
,
0100
0010
0100
0001
0010
0001
1000
0100
1000
0001
1000
0010
0100
0001
0100
0010
,
1000
0001
1000
0001
1000
0001
1000
0001
0010
0100
0010
0100
1000
0010
1000
0010
,
0100
0001
1000
0001
0010
0001
1000
0100
0010
0100
0010
0001
1000
0001
0100
0010
,
0100
0001
1000
0100
0010
0001
1000
0010
1000
0010
0100
0001
1000
0001
0010
0001
,
1000
0010
1000
0001
0100
0001
1000
0100
0010
0001
0010
0001
1000
0010
0100
0010
,
1000
0001
0100
0001
1000
0100
1000
0010
1000
0001
0100
0001
1000
0100
0010
0001
,
1000
0010
1000
0100
0010
0001
1000
0010
1000
0100
0010
0001
1000
0010
1000
0100
,
0010
0001
1000
0010
1000
0100
0010
0001
1000
0010
1000
0100
0010
0100
1000
0010
,
0100
0001
1000
0010
1000
0010
0100
0001
1000
0100
0010
0100
0010
0001
0100
0010
,
0100
0001
1000
0001
0010
0100
0010
0100
1000
0001
0100
0010
0100
0010
1000
0100
,
1000
0100
0010
0001
1000
0001
0100
0001
1000
0010
1000
0001
1000
0010
0100
0010
,
0100
0001
1000
0100
0010
0100
0010
0001
1000
0001
0100
0010
0100
0001
1000
0100
,
1000
0001
0100
0001
1000
0001
0010
0100
1000
0001
1000
0100
1000
0001
0100
0001
,
0100
0010
1000
0001
0010
0100
0010
0100
1000
0001
1000
0010
1000
0001
0010
0001
,
1000
0010
0100
0001
0010
0100
1000
0010
0100
0001
0010
0100
1000
0010
0100
0001
,
0010
0100
1000
0010
0100
0001
0010
0100
1000
0010
0100
0001
0010
0100
0010
0001
,
0100
0010
1000
0001
1000
0001
0010
0100
1000
0100
1000
0010
0100
0001
1000
0001
,
1000
0010
0100
0001
0100
0001
1000
0100
0010
0001
0010
0001
0100
0010
0100
0010
,
1000
0001
0010
0100
0010
0001
1000
0010
0100
0010
0100
0001
1000
0001
0010
0100
,
0010
0001
1000
0010
0100
0001
1000
0100
1000
0100
0010
0001
1000
0001
0100
0001
,
1000
0100
1000
0001
0010
0001
1000
0010
0100
0001
0100
0001
1000
0100
0010
0100
,
1000
0001
0010
0001
1000
0010
1000
0100
1000
0001
0010
0001
1000
0010
0100
0001
,
1000
0100
1000
0010
0100
0001
1000
0100
1000
0010
0100
0001
1000
0100
1000
0010
,
0100
0001
1000
0100
1000
0010
0100
0001
1000
0100
1000
0010
0100
0010
1000
0100
,
0010
0001
1000
0100
1000
0100
0010
0001
1000
0010
0100
0010
0100
0001
0010
0100
,
0010
0001
1000
0001
0100
0010
0100
0010
1000
0001
0010
0100
0010
0100
1000
0010
,
1000
0010
0100
0001
1000
0001
0010
0001
1000
0100
1000
0001
1000
0100
0010
0100
,
0010
0001
1000
0010
0100
0010
0100
0001
1000
0001
0010
0100
0010
0001
1000
0010
,
1000
0001
0010
0001
1000
0001
0100
0010
1000
0001
1000
0010
1000
0001
0010
0001
,
0010
0100
1000
0001
0100
0010
0100
0010
1000
0001
1000
0100
1000
0001
0100
0001
,
1000
0100
0010
0001
0100
0010
1000
0100
0010
0001
0100
0010
1000
0100
0010
0001
,
0100
0010
1000
0100
0010
0001
0100
0010
1000
0100
0010
0001
0100
0010
0100
0001
,
0010
0100
1000
0001
1000
0001
0100
0010
1000
0010
1000
0100
0010
0001
1000
0001
,
1000
0100
0010
0001
0010
0001
1000
0010
0100
0001
0100
0001
0010
0100
0010
0100
,
1000
0001
0100
0001
1000
0001
0010
0100
1000
0100
0010
0001
1000
0010
0100
0010
,
1000
0001
1000
0100
1000
0010
1000
0001
0100
0001
1000
0010
0100
0001
0100
0010
,
1000
0001
1000
0100
0010
0100
1000
0001
0100
0010
0100
0001
1000
0001
0010
0100
,
1000
0001
0100
0001
1000
0010
1000
0100
0010
0100
1000
0001
0100
0010
0100
0001
,
0010
0100
0010
0100
1000
0001
0100
0010
0100
0001
1000
0010
1000
0100
1000
0001
,
0100
0010
0100
0001
1000
0001
0100
0001
0010
0100
1000
0001
1000
0010
0100
0010
,
1000
0010
0100
0001
0100
0001
1000
0100
0010
0100
1000
0001
0100
0001
1000
0010
,
0100
0010
1000
0001
0100
0001
1000
0100
0010
0001
1000
0001
0010
0100
1000
0010
,
0100
0001
0100
0010
0100
0001
1000
0001
0010
0100
1000
0001
0100
0001
1000
0010
,
1000
0001
0010
0100
0010
0001
1000
0001
0100
0010
0100
0001
0100
0010
1000
0001
,
0100
0001
1000
0001
0010
0100
1000
0001
1000
0010
0100
0010
1000
0001
1000
0100
,
0010
0001
1000
0001
0100
0010
1000
0010
0100
0001
1000
0001
0010
0100
0010
0001
,
0100
0001
0100
0010
1000
0010
0100
0001
1000
0100
0010
0100
1000
0001
0010
0100
,
1000
0001
0100
0010
0100
0001
1000
0100
0010
0100
1000
0001
0100
0010
0100
0001
,
0010
0001
0010
0100
1000
0001
0100
0010
0100
0001
1000
0100
0010
0001
1000
0100
,
1000
0001
0100
0010
1000
0001
0010
0100
1000
0001
1000
0001
1000
0001
1000
0001
,
2000
0000
0000
0000
,
0000
0000
3002
0000
,
0000
0203
0000
0000
,
0320
0000
0000
0000
,
2030
0000
0000
0000
,
0000
0000
0000
3200
,
0000
0320
0000
0000
,
0000
0000
0032
0000
0000
0000
0000
0003
,
2002
0000
0000
0000
,
3003
0000
0000
0000
,
1000
0100
0010
0100
1000
0010
0010
0100
,
0001
0001
1000
0100
0100
1000
0001
0100
,
0010
0100
0001
0010
0001
1000
1000
0010
,
0100
0100
0001
0010
0010
0100
1000
0001
,
1000
0001
1000
0001
1000
0001
1000
0001
1000
0001
1000
0001
1000
0001
1000
0001
,
0010
0100
0010
0100
1000
0010
1000
0010
0100
0001
0100
0001
0010
0100
0010
0100
,
1000
0010
1000
0001
0010
0001
1000
0100
0010
0100
0010
0001
1000
0001
0100
0010
,
0100
0001
1000
0100
0010
0001
1000
0010
1000
0100
1000
0001
0100
0001
0010
0001
,
1000
0010
1000
0001
0100
0001
1000
0100
0010
0001
0010
0001
1000
0010
0100
0010
,
1000
0001
0100
0001
1000
0100
1000
0100
1000
0001
0100
0001
0010
0001
1000
0100
,
1000
0010
0100
0001
1000
0001
0100
0001
1000
0100
0010
0100
1000
0001
0100
0010
,
0100
0001
1000
0001
0010
0100
1000
0010
1000
0001
0100
0001
0010
0100
1000
0010
,
0100
0001
1000
0010
1000
0010
0100
0001
1000
0100
0010
0100
0010
0001
0100
0010
,
0100
0001
1000
0001
0010
0100
0010
0100
1000
0001
0100
0010
0100
0010
1000
0100
,
1000
0100
0010
0001
1000
0001
0100
0001
1000
0010
1000
0001
1000
0010
0100
0010
,
0100
0001
1000
0100
0010
0100
0010
0001
1000
0001
0100
0010
0100
0001
1000
0100
,
1000
0001
0100
0001
1000
0001
0010
0100
1000
0001
1000
0100
1000
0001
0100
0001
,
0100
0010
1000
0001
0010
0100
0010
0100
1000
0001
1000
0010
1000
0001
0010
0001
,
1000
0010
1000
0100
1000
0001
0010
0001
1000
0010
0100
0010
1000
0001
0100
0001
,
0010
0001
1000
0010
0100
0001
1000
0100
1000
0001
0010
0100
1000
0010
0100
0001
,
0100
0010
1000
0001
1000
0001
0010
0100
1000
0010
0100
0010
0100
0001
0010
0100
,
1000
0001
1000
0001
1000
0001
1000
0001
1000
0001
1000
0001
1000
0001
1000
0001
,
1000
0001
0010
0100
0010
0001
1000
0010
0100
0010
0100
0001
1000
0001
0010
0100
,
0010
0001
1000
0010
0100
0001
1000
0100
1000
0010
1000
0001
0010
0001
0100
0001
,
1000
0100
1000
0001
0010
0001
1000
0010
0100
0001
0100
0001
1000
0100
0010
0100
,
1000
0001
0010
0001
1000
0010
1000
0100
1000
0001
0010
0001
1000
0010
0100
0001
,
1000
0001
0010
0100
1000
0010
1000
0001
0100
0001
0010
0001
1000
0010
1000
0100
,
1000
0001
0100
0010
0100
0001
1000
0001
0010
0100
1000
0010
0100
0010
1000
0100
,
0010
0001
1000
0100
1000
0100
0010
0001
1000
0010
0100
0010
0100
0001
0010
0100
,
0010
0001
1000
0001
0100
0010
0100
0010
1000
0001
0010
0100
0010
0100
1000
0010
,
1000
0010
0100
0001
1000
0001
0010
0001
1000
0100
1000
0001
1000
0100
0010
0100
,
0010
0001
1000
0010
0100
0010
0100
0001
1000
0001
0010
0100
0010
0001
1000
0010
,
1000
0001
0010
0001
1000
0001
0100
0010
1000
0001
1000
0010
1000
0001
0010
0001
,
0010
0100
1000
0001
0100
0010
0100
0010
1000
0001
1000
0100
1000
0001
0100
0001
,
1000
0100
1000
0010
1000
0001
0100
0001
0010
0001
1000
0010
0100
0010
1000
0001
,
0010
0100
0010
0001
1000
0010
1000
0001
0100
0001
1000
0100
0010
0001
0100
0010
,
1000
0100
1000
0001
1000
0001
0100
0010
1000
0010
1000
0100
0010
0001
0100
0010
,
1000
0001
1000
0001
1000
0001
1000
0001
0010
0100
0010
0100
1000
0010
1000
0010
,
0100
0001
1000
0001
0010
0100
1000
0010
,
0100
0001
1000
0001
0001
0100
0010
0100
,
0001
0010
0100
0100
1000
0001
0100
0010
,
0100
0001
1000
0001
0001
1000
0010
0100
,
2202
0000
0000
0000
,
3303
0000
0000
0000
,
0000
0000
0000
0000
,
0000
0000
0000
0000
,
0000
0000
0000
0000
,
0000
00M0
0000
0000
;

//---------------dance-single - J. Nero----------------
#NOTES:
     dance-single:
     J. Nero:
     Hard:
     15:
     1.000,1.000,0.012,0.071,1.000,1487.000,2.000,12.000,1.000,0.000:
0000
0000
0000
0000
,
0000
0000
0000
0000
,
0000
0000
0000
0000
,
0000
0000
0000
0000
,
0000
0000
0000
0000
,
0000
0000
0000
0000
,
0000
0000
0000
0000
,
0000
0000
0000
0000
,
1000
0010
1000
0100
0010
0001
0100
0010
,
0100
0001
0010
0100
1000
0010
0100
0010
,
1000
0001
0010
0001
0100
0010
0010
1000
,
0100
0100
1000
0100
0100
0010
0001
0100
,
0010
0100
0001
0010
0100
1000
1000
0001
,
0100
0100
0001
1000
1000
0010
0100
0001
,
0010
0100
1000
1000
0001
0100
0100
0001
,
1000
1000
0100
0010
0010
0001
1000
0010
,
1000
0000
0001
0000
0100
0000
0001
0010
0100
0000
1000
0000
0001
0000
1000
0010
,
1000
0000
0010
0000
0100
0000
0001
1000
0100
1000
0001
0000
0010
0000
0100
0000
,
0100
0000
1000
0000
0001
0000
0100
0010
1000
0000
0001
0000
0010
0000
0100
1000
,
0001
0000
1000
0000
0010
0000
0100
0001
0000
0100
0001
0000
1000
0000
0100
0000
,
0100
0000
0010
0000
0100
0000
1000
0001
1000
0000
0010
0000
0100
0000
0001
0010
,
0100
0000
1000
0000
0001
0000
1000
0100
1000
0001
0100
0000
0001
0000
0010
0000
,
0010
0000
0100
0000
1000
0000
0001
0100
0001
0000
1000
0000
0100
0000
0010
0100
,
1000
0001
1000
0001
1000
0001
1000
0001
0010
0100
0010
0100
1000
0010
1000
0010
,
0100
0001
1000
0001
0010
0001
1000
0100
0010
0100
0010
0001
1000
0001
0100
0010
,
0100
0001
1000
0100
0010
0001
1000
0010
1000
0010
0100
0001
1000
0001
0010
0001
,
1000
0010
1000
0001
0100
0001
1000
0100
0010
0001
0010
0001
1000
0010
0100
0010
,
1000
0001
0100
0001
1000
0100
1000
0010
1000
0001
0100
0001
1000
0100
0010
0001
,
1000
0010
1000
0100
0010
0001
1000
0010
1000
0100
0010
0001
1000
0010
1000
0100
,
0010
0001
1000
0010
1000
0100
0010
0001
1000
0010
1000
0100
0010
0100
1000
0010
,
0100
0001
1000
0010
1000
0010
0100
0001
1000
0100
0010
0100
0010
0001
0100
0010
,
0100
0001
1000
0001
0010
0100
0010
0100
1000
0001
0100
0010
0100
0010
1000
0100
,
1000
0100
0010
0001
1000
0001
0100
0001
1000
0010
1000
0001
1000
0010
0100
0010
,
0100
0001
1000
0100
0010
0100
0010
0001
1000
0001
0100
0010
0100
0001
1000
0100
,
1000
0001
0100
0001
1000
0001
0010
0100
1000
0001
1000
0100
1000
0001
0100
0001
,
0100
0010
1000
0001
0010
0100
0010
0100
1000
0001
1000
0010
1000
0001
0010
0001
,
1000
0010
0100
0001
0010
0100
1000
0010
0100
0001
0010
0100
1000
0010
0100
0001
,
0010
0100
1000
0010
0100
0001
0010
0100
1000
0010
0100
0001
0010
0100
0010
0001
,
0100
0010
1000
0001
1000
0001
0010
0100
1000
0100
1000
0010
0100
0001
1000
0001
,
1000
0010
0100
0001
0100
0001
1000
0100
0010
0001
0010
0001
0100
0010
0100
0010
,
1000
0001
0010
0100
0010
0001
1000
0010
0100
0010
0100
0001
1000
0001
0010
0100
,
0010
0001
1000
0010
0100
0001
1000
0100
1000
0100
0010
0001
1000
0001
0100
0001
,
1000
0100
1000
0001
0010
0001
1000
0010
0100
0001
0100
0001
1000
0100
0010
0100
,
1000
0001
0010
0001
1000
0010
1000
0100
1000
0001
0010
0001
1000
0010
0100
0001
,
1000
0100
1000
0010
0100
0001
1000
0100
1000
0010
0100
0001
1000
0100
1000
0010
,
0100
0001
1000
0100
1000
0010
0100
0001
1000
0100
1000
0010
0100
0010
1000
0100
,
0010
0001
1000
0100
1000
0100
0010
0001
1000
0010
0100
0010
0100
0001
0010
0100
,
0010
0001
1000
0001
0100
0010
0100
0010
1000
0001
0010
0100
0010
0100
1000
0010
,
1000
0010
0100
0001
1000
0001
0010
0001
1000
0100
1000
0001
1000
0100
0010
0100
,
0010
0001
1000
0010
0100
0010
0100
0001
1000
0001
0010
0100
0010
0001
1000
0010
,
1000
0001
0010
0001
1000
0001
0100
0010
1000
0001
1000
0010
1000
0001
0010
0001
,
0010
0100
1000
0001
0100
0010
0100
0010
1000
0001
1000
0100
1000
0001
0100
0001
,
1000
0100
0010
0001
0100
0010
1000
0100
0010
0001
0100
0010
1000
0100
0010
0001
,
0100
0010
1000
0100
0010
0001
0100
0010
1000
0100
0010
0001
0100
0010
0100
0001
,
0010
0100
1000
0001
1000
0001
0100
0010
1000
0010
1000
0100
0010
0001
1000
0001
,
1000
0100
0010
0001
0010
0001
1000
0010
0100
0001
0100
0001
0010
0100
0010
0100
,
1000
0000
0001
0100
0000
0001
1000
0000
0100
0010
0001
1000
0001
0100
0001
1000
,
0100
0000
0010
0100
0000
1000
0001
0000
0100
0010
0100
0001
1000
0001
0010
0100
,
1000
0000
0010
1000
0000
0010
0100
0000
0001
1000
0001
0010
0100
1000
0001
0100
,
0001
0000
1000
0100
0000
1000
0001
0000
0100
0010
0100
0001
1000
0100
0010
0001
,
1000
0000
0001
0100
0000
0001
0100
0000
0010
1000
0010
0100
0001
1000
0001
0010
,
0100
0000
1000
0001
0000
1000
0100
0000
0010
0001
1000
0001
0010
0100
1000
0001
,
0100
0000
0001
0010
0000
0001
1000
0000
0010
1000
0010
0100
0001
1000
0001
0010
,
0100
0000
1000
0010
0000
1000
0100
0000
0010
0001
1000
0001
0100
0001
0010
0100
,
1000
0000
0001
0100
0000
0010
0100
0000
0001
1000
0100
0010
0001
0100
0001
1000
,
0001
0000
1000
0100
0000
1000
0001
0000
0100
0001
1000
0001
0010
0100
1000
0001
,
1000
0000
0010
0100
0000
0001
0100
0000
0001
1000
0100
1000
0010
1000
0001
0100
,
0001
0000
0010
0100
0000
1000
0100
0000
1000
0001
1000
0100
0010
0001
1000
0001
,
0100
0000
0001
1000
0000
0001
0010
0000
0100
1000
0001
1000
0010
0100
0010
1000
,
0001
0000
1000
0100
0000
1000
0010
0000
0100
0010
1000
0001
0010
0100
1000
0010
,
1000
0000
0001
0100
0000
0001
0010
0000
0100
1000
0001
0100
0001
1000
0001
0010
,
0100
0000
1000
0010
0000
0100
0010
0000
1000
0001
1000
0001
1000
0001
1000
0001
,
2000
0000
0000
0000
,
0000
0000
3002
0000
,
0000
0203
0000
0000
,
0320
0000
0000
0000
,
2030
0000
0000
0000
,
0000
0000
0000
3200
,
0000
0320
0000
0000
,
0000
0000
0032
0000
0000
0000
0000
0003
,
2002
0000
0000
0000
,
3003
0000
0000
0000
,
1000
0100
0010
0100
1000
0010
0010
0100
,
0001
0001
1000
0100
0100
1000
0001
0100
,
0010
0100
0001
0010
0001
1000
1000
0010
,
0100
0100
0001
0010
0010
0100
1000
0001
,
1000
0001
1000
0001
1000
0001
1000
0001
1000
0001
1000
0001
1000
0001
1000
0001
,
0010
0100
0010
0100
1000
0010
1000
0010
0100
0001
0100
0001
0010
0100
0010
0100
,
1000
0010
1000
0001
0010
0001
1000
0100
0010
0100
0010
0001
1000
0001
0100
0010
,
0100
0001
1000
0100
0010
0001
1000
0010
1000
0100
1000
0001
0100
0001
0010
0001
,
1000
0010
1000
0001
0100
0001
1000
0100
0010
0001
0010
0001
1000
0010
0100
0010
,
1000
0001
0100
0001
1000
0100
1000
0100
1000
0001
0100
0001
0010
0001
1000
0100
,
1000
0010
0100
0001
1000
0001
0100
0001
1000
0100
0010
0100
1000
0001
0100
0010
,
0100
0001
1000
0001
0010
0100
1000
0010
1000
0001
0100
0001
0010
0100
1000
0010
,
0100
0001
1000
0010
1000
0010
0100
0001
1000
0100
0010
0100
0010
0001
0100
0010
,
0100
0001
1000
0001
0010
0100
0010
0100
1000
0001
0100
0010
0100
0010
1000
0100
,
1000
0100
0010
0001
1000
0001
0100
0001
1000
0010
1000
0001
1000
0010
0100
0010
,
0100
0001
1000
0100
0010
0100
0010
0001
1000
0001
0100
0010
0100
0001
1000
0100
,
1000
0001
0100
0001
1000
0001
0010
0100
1000
0001
1000
0100
1000
0001
0100
0001
,
0100
0010
1000
0001
0010
0100
0010
0100
1000
0001
1000
0010
1000
0001
0010
0001
,
1000
0010
1000
0100
1000
0001
0010
0001
1000
0010
0100
0010
1000
0001
0100
0001
,
0010
0001
1000
0010
0100
0001
1000
0100
1000
0001
0010
0100
1000
0010
0100
0001
,
0100
0010
1000
0001
1000
0001
0010
0100
1000
0010
0100
0010
0100
0001
0010
0100
,
1000
0001
1000
0001
1000
0001
1000
0001
1000
0001
1000
0001
1000
0001
1000
0001
,
1000
0001
0010
0100
0010
0001
1000
0010
0100
0010
0100
0001
1000
0001
0010
0100
,
0010
0001
1000
0010
0100
0001
1000
0100
1000
0010
1000
0001
0010
0001
0100
0001
,
1000
0100
1000
0001
0010
0001
1000
0010
0100
0001
0100
0001
1000
0100
0010
0100
,
1000
0001
0010
0001
1000
0010
1000
0100
1000
0001
0010
0001
1000
0010
0100
0001
,
1000
0001
0010
0100
1000
0010
1000
0001
0100
0001
0010
0001
1000
0010
1000
0100
,
1000
0001
0100
0010
0100
0001
1000
0001
0010
0100
1000
0010
0100
0010
1000
0100
,
0010
0001
1000
0100
1000
0100
0010
0001
1000
0010
0100
0010
0100
0001
0010
0100
,
0010
0001
1000
0001
0100
0010
0100
0010
1000
0001
0010
0100
0010
0100
1000
0010
,
1000
0010
0100
0001
1000
0001
0010
0001
1000
0100
1000
0001
1000
0100
0010
0100
,
0010
0001
1000
0010
0100
0010
0100
0001
1000
0001
0010
0100
0010
0001
1000
0010
,
1000
0001
0010
0001
1000
0001
0100
0010
1000
0001
1000
0010
1000
0001
0010
0001
,
0010
0100
1000
0001
0100
0010
0100
0010
1000
0001
1000
0100
1000
0001
0100
0001
,
1000
0100
1000
0010
1000
0001
0100
0001
0010
0001
1000
0010
0100
0010
1000
0001
,
0010
0100
0010
0001
1000
0010
1000
0001
0100
0001
1000
0100
0010
0001
0100
0010
,
1000
0100
1000
0001
1000
0001
0100
0010
1000
0010
1000
0100
0010
0001
0100
0010
,
1000
0001
1000
0001
1000
0001
1000
0001
0010
0100
0010
0100
1000
0010
1000
0010
,
0100
0001
1000
0001
0010
0100
1000
0010
,
0100
0001
1000
0001
0001
0100
0010
0100
,
0001
0010
0100
0100
1000
0001
0100
0010
,
0100
0001
1000
0001
0001
1000
0010
0100
,
2002
0000
0000
0000
,
3003
0000
0000
0000
,
0000
0000
0000
0000
,
0000
0000
0000
0000
,
0000
0000
0000
0000
,
0000
00M0
0000
0000
;
