#TITLE:Blue-White Crazybits;
#SUBTITLE:;
#ARTIST:two hundred thirty-four;
#TITLETRANSLIT:;
#SUBTITLETRANSLIT:;
#ARTISTTRANSLIT:;
#CREDIT:Mute;
#BANNER:../bn.png;
#BACKGROUND:../bg.png;
#LYRICSPATH:;
#CDTITLE:;
#MUSIC:crazybits.ogg;
#OFFSET:-0.329;
#SAMPLESTART:34.150;
#SAMPLELENGTH:16.620;
#SELECTABLE:YES;
#DISPLAYBPM:234.000;
#BPMS:0.000=234.000;
#STOPS:;
#BGCHANGES:;
// cache tags:
#FIRSTBEAT:4.000;
#LASTBEAT:422.000;
#SONGFILENAME:Songs/Cirque du Zonda/Zaia - Blue-White Crazybits/crazybits.sm;
#HASMUSIC:1;
#HASBANNER:1;
#MUSICLENGTH:109.000;
// end cache tags

//---------------dance-single - Zaia - 18.2----------------
#NOTES:
     dance-single:
     Zaia - 18.2:
     Challenge:
     18:
     1.000,1.000,0.092,0.028,1.000,1265.000,10.000,3.000,14.000,1.000:
0000
0000
0000
0000
,
1001
0001
0100
0010
1000
0100
M00M
0100
,
0001
0010
0100
1000
0000
0010
1000
0001
,
0000
0100
0010
1000
0001
0010
M00M
0010
,
1000
0001
1000
0100
0000
1000
0001
0100
,
0000
0010
0100
0001
0010
0100
M00M
0100
,
0001
1000
0100
0010
0000
0001
1000
0010
,
0000
0100
0001
0010
0100
1000
0000
0001
,
1000
0000
0000
0000
0001
0000
0000
0000
1000
0100
0010
0001
1000
0100
0010
0001
,
1000
0010
1000
0001
0010
0001
1000
0001
0100
0010
1000
0010
0100
0001
1000
0100
,
1000
0001
0010
0100
1000
0001
1000
0010
0100
0001
1000
0100
1000
0001
0100
0001
,
1000
0010
0100
0001
1000
0001
0010
0100
0010
0001
1000
0010
1000
0001
1000
0100
,
0010
0100
1000
0001
0100
0010
0100
0001
1000
0001
1000
0100
0010
0001
1000
0001
,
1000
0010
0100
0001
1000
0001
0010
0001
1000
0010
0100
0001
1000
0100
0010
0001
,
0010
0100
1000
0001
0100
0001
1000
0100
0010
0001
1000
0001
1000
0010
1000
0001
,
0010
0001
1000
0010
0100
0001
1000
0100
0010
0100
1000
0001
1000
0001
0100
0010
,
0100
0001
1000
0001
0010
0100
1000
0001
1000
0010
0100
0001
1000
0001
1000
0100
,
0010
0001
1000
0100
1000
0001
1000
0001
0100
0010
1000
0010
0100
0001
1000
0100
,
1000
0001
0010
0100
1000
0001
1000
0010
0100
0001
1000
0100
1000
0001
0100
0001
,
1000
0010
0100
0001
1000
0001
0010
0100
0010
0001
1000
0010
1000
0001
1000
0100
,
0010
0100
1000
0001
0100
0010
0100
0001
1000
0001
1000
0100
0010
0001
1000
0001
,
1000
0010
0100
0001
1000
0001
0010
0001
1000
0010
0100
0001
1000
0100
0010
0001
,
0010
0100
1000
0001
0100
0001
1000
0100
0010
0001
1000
0001
1000
0010
1000
0001
,
0010
0001
1000
0010
0100
0001
1000
0100
0010
0100
1000
0001
1000
0001
0100
0010
,
0100
0001
1000
0001
0010
0100
1000
0001
1000
0010
0100
0001
1000
0001
1000
0100
,
0010
0100
1000
0001
0010
0100
1000
0001
1000
0001
0100
0010
1000
0010
0100
0001
,
1000
0010
0100
0001
1000
0100
1000
0001
0100
0001
1000
0100
0010
0100
1000
0001
,
1000
0010
0100
0001
1000
0100
1000
0001
1000
0100
0010
0001
0010
0100
1000
0001
,
0010
0100
1000
0001
1000
0010
1000
0001
0100
0001
1000
0100
0010
0100
1000
0001
,
0100
0010
1000
0001
0010
0100
1000
0001
1000
0001
0100
0010
1000
0010
0100
0001
,
1000
0010
0100
0001
1000
0100
1000
0001
0100
0001
1000
0100
0010
0100
1000
0001
,
1000
0010
0100
0001
1000
0100
1000
0001
0100
0001
1000
0010
0100
0001
1000
0100
,
0020
0000
0000
0000
0000
0000
0130
1000
0001
0000
1000
0000
0001
0000
0000
0000
,
1000
0010
0100
0001
1000
0001
0001
0010
,
0001
1000
0001
1000
0100
1000
0010
0100
,
0001
1000
0010
0100
0001
1000
1000
0100
,
0010
0100
1000
0010
1000
0001
0010
0100
,
1000
0100
0010
0001
0100
0010
0010
0100
,
0001
0010
0100
1000
0010
1000
0001
0100
,
0101
0000
0000
0000
0000
0000
0000
0000
1001
0000
0000
0000
0000
0000
1000
0001
,
0100
0010
0100
0010
1000
0001
1000
0001
,
1000
0100
1000
0001
1000
0100
0010
0001
1000
0010
0100
0001
0100
0010
1000
0001
,
1000
0100
1000
0001
1000
0100
0010
0001
1000
0010
0100
0001
0100
0010
1000
0001
,
1000
0100
1000
0001
1000
0100
0010
0001
1000
0010
0100
0001
0100
0010
1000
0001
,
1000
0100
1000
0001
1000
0100
0010
0001
1000
0010
0100
0001
0100
0010
1000
0001
,
0010
0001
1000
0001
0100
0010
1000
0001
0010
0100
1000
0100
0010
0001
1000
0001
,
0010
0100
1000
0001
0100
0010
1000
0001
0010
0100
1000
0001
0100
0010
1000
0001
,
0010
0001
1000
0001
0100
0010
1000
0001
0010
0100
1000
0001
0100
0010
1000
0001
,
0010
0001
1000
0001
0100
0010
1000
0001
0010
0001
1000
0010
0100
0001
1000
0001
,
0100
0010
1000
0001
0010
0100
1000
0010
,
M00M
0010
0001
0100
0010
1000
0100
0010
,
0001
1000
0001
0100
0010
0100
0001
1000
,
0001
0010
0100
0010
0001
0100
0010
0000
,
1000
0100
1000
0001
0100
0010
1000
0100
,
M00M
0100
0001
0010
0100
1000
0010
0100
,
0001
1000
0001
0010
0100
0010
0001
1000
,
0001
0100
0010
0100
0001
0010
0100
0000
,
1000
0010
1000
0001
0010
0100
1000
0010
,
M00M
0010
0001
0100
0010
1000
0100
0010
,
0001
1000
0001
0100
0010
0100
0001
1000
,
0001
0010
0100
0010
0001
0100
0010
0000
,
0100
0001
0010
0100
1000
0001
0100
0010
,
M00M
0010
0100
1000
0010
1000
0100
0010
,
0001
1000
0001
0100
0010
0100
0001
1000
,
0001
0010
0100
0010
0001
0100
0001
1000
,
0020
0000
0000
0000
,
0000
0000
0000
0000
,
0131
0000
0000
0000
,
1001
0000
0100
0100
,
1001
0000
0000
0000
,
0110
0000
0000
0000
,
1010
1000
1001
0001
,
0011
0010
0100
1000
0001
1000
0001
1000
,
0001
0010
0001
1000
0010
1000
0001
1000
0100
0010
0001
0010
0100
1000
0001
0100
,
0001
1000
0010
0100
0001
1000
0001
0010
0100
1000
0001
0100
0001
1000
0100
1000
,
0001
0010
0100
1000
0001
1000
0010
0100
0010
1000
0001
0010
0001
1000
0001
0100
,
0010
0100
0001
1000
0100
0010
0100
1000
0001
1000
0001
0100
0010
1000
0001
1000
,
0001
0010
0100
1000
0001
1000
0010
1000
0001
0010
0100
1000
0001
0100
0010
1000
,
0010
0100
0001
1000
0100
1000
0001
0100
0010
1000
0001
1000
0001
0010
0001
1000
,
0010
1000
0001
0010
0100
1000
0001
0100
0010
0100
0001
1000
0001
1000
0100
0010
,
0100
1000
0001
1000
0010
0100
0001
1000
0001
0010
0100
1000
0001
1000
0001
0100
,
0010
1000
0001
0100
0001
1000
0001
1000
0100
0010
0001
0010
0100
1000
0001
0100
,
0001
1000
0010
0100
0001
1000
0001
0010
0100
1000
0001
0100
0001
1000
0100
1000
,
0001
0010
0100
1000
0001
1000
0010
0100
0010
1000
0001
0010
0001
1000
0001
0100
,
0010
0100
0001
1000
0100
0010
0100
1000
0001
1000
0001
0100
0010
1000
0001
1000
,
0001
0010
0100
1000
0001
1000
0010
1000
0001
0010
0100
1000
0001
0100
0010
1000
,
0010
0100
0001
1000
0100
1000
0001
0100
0010
1000
0001
1000
0001
0010
0001
1000
,
0010
1000
0001
0010
0100
1000
0001
0100
0010
0100
0001
1000
0001
1000
0100
0010
,
0100
1000
0001
1000
0010
0100
0001
1000
0001
0010
0100
1000
0001
1000
0001
0100
,
0010
0100
0001
1000
0010
0100
0001
1000
0001
1000
0100
0010
0001
0010
0100
1000
,
0001
0010
0100
1000
0001
0100
0001
1000
0100
1000
0001
0100
0010
0100
0001
1000
,
0001
0010
0100
1000
0001
0100
0001
1000
0001
0100
0010
1000
0010
0100
0001
1000
,
0010
0100
0001
1000
0001
0010
0001
1000
0100
1000
0001
0100
0010
0100
0001
1000
,
0100
0010
0001
1000
0010
0100
0001
1000
0001
1000
0100
0010
0001
0010
0100
1000
,
0001
0010
0100
1000
0001
0100
0001
1000
0100
1000
0001
0100
0010
0100
0001
1000
,
0001
0010
0100
1000
0001
0010
0001
1000
0001
1000
0010
0100
0001
0100
0010
1000
,
0001
0100
0010
1000
0001
0010
0001
1000
0100
0010
0100
1000
0001
0100
0010
1000
,
0001
0010
0001
1000
0010
0100
0001
1000
0001
1000
0100
0010
0001
0010
0100
1000
,
0001
0010
0100
1000
0001
0100
0001
1000
0100
1000
0001
0100
0010
0100
0001
1000
,
0001
0010
0100
1000
0001
0100
0001
1000
0001
0100
0010
1000
0010
0100
0001
1000
,
0010
0100
0001
1000
0001
0010
0001
1000
0100
1000
0001
0100
0010
0100
0001
1000
,
0100
0010
0001
1000
0010
0100
0001
1000
0001
1000
0100
0010
0001
0010
0100
1000
,
0001
0010
0100
1000
0001
0100
0001
1000
0100
1000
0001
0100
0010
0100
0001
1000
,
0001
0010
0100
1000
0001
0100
0001
1000
0100
1000
0001
0010
0100
1000
0001
0100
,
0010
1000
0001
1000
0001
1000
0001
1000
0010
0000
0100
0000
0002
0000
0000
0000
,
0000
0000
0003
0000
;

//---------------dance-single - Zaia - 15.8----------------
#NOTES:
     dance-single:
     Zaia - 15.8:
     Medium:
     15:
     1.000,1.000,0.101,0.028,1.000,979.000,11.000,3.000,14.000,1.000:
0000
0000
0000
0000
,
1001
0001
0100
0010
1000
0100
M00M
0100
,
0001
0010
0100
1000
0000
0010
1000
0001
,
0000
0100
0010
1000
0001
0010
M00M
0010
,
1000
0001
1000
0100
0000
1000
0001
0100
,
0000
0010
0100
0001
0010
0100
M00M
0100
,
0001
1000
0100
0010
0000
0001
1000
0010
,
0000
0100
0001
0010
0100
1000
0000
0001
,
1000
0000
0000
0000
0001
0000
0000
0000
1000
0100
0010
0001
1000
0100
0010
0001
,
1000
0010
1000
0001
0010
0001
1000
0001
0100
0010
1000
0010
0100
0001
1000
0100
,
1000
0001
0010
0100
1000
0001
1000
0010
0100
0001
1000
0100
1000
0001
0100
0001
,
1000
0010
0100
0001
1000
0001
0010
0100
0010
0001
1000
0010
1000
0001
1000
0100
,
0010
0100
1000
0001
0100
0010
0100
0001
1000
0001
1000
0100
0010
0001
1000
0001
,
1000
0010
0100
0001
1000
0001
0010
0001
1000
0010
0100
0001
1000
0100
0010
0001
,
0010
0100
1000
0001
0100
0001
1000
0100
0010
0001
1000
0001
1000
0010
1000
0001
,
0010
0001
1000
0010
0100
0001
1000
0100
0010
0100
1000
0001
1000
0001
0100
0010
,
0100
0001
1000
0001
0010
0100
1000
0001
1000
0010
0100
0001
1000
0001
1000
0100
,
0010
0001
1000
0001
0010
0100
1000
0001
,
1000
0100
0010
0001
1000
0001
0100
0001
,
0010
0100
1000
0100
0010
0001
1000
0001
,
1000
0010
0100
0001
1000
0001
0010
0100
,
0010
0001
1000
0001
0010
0100
1000
0001
,
1000
0100
0010
0001
1000
0001
0100
0001
,
0010
0100
1000
0100
0010
0001
1000
0001
,
1000
0010
0100
0001
1000
0001
0010
0100
,
0010
0000
0000
0000
0001
0000
0000
0000
1000
0000
0000
0000
0010
0100
0010
0000
,
0100
0001
0100
0000
0001
0000
1000
0000
0100
0000
1000
0000
0001
0000
0100
0000
,
0001
0000
0000
0000
0010
0000
0000
0000
0100
0000
0000
0000
1000
0001
1000
0000
,
0100
0100
1000
0001
0001
0010
0100
1000
,
1001
0000
0000
0000
0001
0000
0000
0000
0100
0000
0000
0000
0010
1000
0010
0000
,
1000
0001
1000
0000
0001
0000
0010
0000
0100
0000
1000
0000
0010
0000
1000
0000
,
0001
0000
1000
0000
0001
0000
1000
0000
0001
0100
0010
1000
0001
0010
0100
1000
,
0020
0000
0000
0000
0000
0000
0130
0001
1000
0000
0001
0000
1000
0000
0000
0000
,
0001
0100
0010
1000
0001
1000
1000
0100
,
1000
0001
1000
0001
0010
0001
0100
0010
,
1000
0001
0100
0010
1000
0001
0001
0010
,
0100
0010
0001
0100
0001
1000
0100
0010
,
0001
0010
0100
1000
0010
0100
0100
0010
,
1000
0100
0010
0001
0100
0001
1000
0010
,
1010
0000
0000
0000
0000
0000
0000
0000
1001
0000
0000
0000
0000
0000
0001
1000
,
0010
0100
0010
0100
0001
1000
0001
1000
,
0001
0010
0001
1000
0001
0010
0100
1000
0001
0100
0010
1000
0010
0100
0001
1000
,
0001
0010
0001
1000
0001
0010
0100
1000
0001
0100
0010
1000
0010
0100
0001
1000
,
0001
0010
0001
1000
0001
0010
0100
1000
0001
0100
0010
1000
0010
0100
0001
1000
,
0001
0010
0001
1000
0001
0010
0100
1000
0001
0100
0010
1000
0010
0100
0001
1000
,
0100
1000
0001
1000
0010
0100
0001
1000
0100
0010
0001
0010
0100
1000
0001
1000
,
0100
0010
0001
1000
0010
0100
0001
1000
0100
0010
0001
1000
0010
0100
0001
1000
,
0100
1000
0001
1000
0010
0100
0001
1000
0100
0010
0001
1000
0010
0100
0001
1000
,
0100
1000
0001
1000
0010
0100
0001
1000
0100
1000
0001
0100
0010
1000
0001
1000
,
0010
0100
0001
1000
0100
0010
0001
0100
,
M00M
0100
1000
0010
0100
0001
0010
0100
,
1000
0001
1000
0010
0100
0010
1000
0001
,
1000
0100
0010
0100
1000
0010
0100
0000
,
0001
0010
0001
1000
0010
0100
0001
0010
,
M00M
0010
1000
0100
0010
0001
0100
0010
,
1000
0001
1000
0100
0010
0100
1000
0001
,
1000
0010
0100
0010
1000
0100
0010
0000
,
0001
0100
0001
1000
0100
0010
0001
0100
,
M00M
0100
1000
0010
0100
0001
0010
0100
,
1000
0001
1000
0010
0100
0010
1000
0001
,
1000
0100
0010
0100
1000
0010
0100
0000
,
0010
1000
0100
0010
0001
1000
0010
0100
,
M00M
0100
0010
0001
0100
0001
0010
0100
,
1000
0001
1000
0010
0100
0010
1000
0001
,
1000
0100
0010
0100
1000
0010
1000
0001
,
0200
0000
0000
0000
,
0000
0000
0000
0000
,
1310
0000
0000
0000
,
1001
0000
0010
0010
,
1001
0000
0000
0000
,
0110
0000
0000
0000
,
0101
0001
1001
1000
,
1100
0100
0010
0001
1000
0001
1000
0001
,
1000
0100
1000
0001
0100
0001
1000
0001
0010
0100
1000
0100
0010
0001
1000
0010
,
1000
0001
0100
0010
1000
0001
1000
0100
0010
0001
1000
0010
1000
0001
0010
0001
,
1000
0100
0010
0001
1000
0001
0100
0010
0100
0001
1000
0100
1000
0001
1000
0010
,
0100
0010
1000
0001
0010
0100
0010
0001
1000
0001
1000
0010
0100
0001
1000
0001
,
1000
0100
0010
0001
1000
0001
0100
0001
1000
0100
0010
0001
1000
0010
0100
0001
,
0100
0010
1000
0001
0010
0001
1000
0010
0100
0001
1000
0001
1000
0100
1000
0001
,
0100
0001
1000
0100
0010
0001
1000
0010
0100
0010
1000
0001
1000
0001
0010
0100
,
0010
0001
1000
0001
0100
0010
1000
0001
1000
0100
0010
0001
1000
0001
1000
0010
,
0100
0001
1000
0001
0010
0100
1000
0001
,
1000
0100
0010
0001
1000
0001
0100
0001
,
0010
0100
1000
0100
0010
0001
1000
0001
,
1000
0010
0100
0001
1000
0001
0010
0100
,
0010
0001
1000
0001
0100
0010
1000
0001
,
1000
0010
0100
0001
1000
0001
0010
0001
,
0100
0010
1000
0010
0100
0001
1000
0001
,
1000
0100
0010
0001
1000
0001
0100
0010
,
0100
0000
0001
0000
0010
0000
0100
0000
1000
0000
0001
0000
1000
0100
0010
0000
,
0001
0100
0010
0000
1000
0000
0100
0000
0010
0000
0100
0000
1000
0000
0001
0000
,
0001
0000
0010
0000
0100
0000
0010
0000
0001
0000
1000
0000
0001
0010
0100
0000
,
1000
0010
0100
0000
0001
0000
1000
0000
1000
0000
0100
0000
0010
0000
0001
0000
,
1000
0000
0010
0000
1000
0000
0001
0000
0010
0000
0100
0000
1000
0100
0010
0000
,
0001
0100
0010
0000
1000
0000
0001
0000
0010
0000
0001
0000
1000
0000
1000
0000
,
0100
0000
1000
0000
0010
0000
0100
0000
0001
0000
1000
0000
0001
0100
0010
0000
,
1000
0100
0010
0000
0001
0000
1000
0000
1000
0000
0010
0000
0100
0000
0001
0000
,
1000
0000
0100
0000
1000
0000
0100
0000
1000
0000
0001
0000
1000
0010
1000
0000
,
0001
0010
0001
0000
1000
0000
0001
0000
0100
0000
0001
0000
1000
0000
0010
0000
,
0100
0000
0001
0000
0100
0000
0001
0000
1000
0000
0001
0000
1000
0100
1000
0000
,
0001
0100
0001
0000
1000
0000
0100
0000
0100
0000
1000
0000
0010
0000
0100
0000
,
0001
0000
0010
0000
0001
0000
0010
0000
0001
0000
1000
0000
0001
0010
0001
0000
,
1000
0010
1000
0000
0001
0000
1000
0000
0100
0000
1000
0000
0001
0000
0010
0000
,
0100
0000
1000
0000
0100
0000
1000
0000
0001
0100
0010
1000
0001
1000
0001
0010
,
0100
1000
0001
0100
0001
1000
0001
0100
0010
0000
1000
0000
0002
0000
0000
0000
,
0000
0000
0003
0000
;

//---------------dance-single - Zaia - 17.4----------------
#NOTES:
     dance-single:
     Zaia - 17.4:
     Hard:
     17:
     1.000,1.000,0.101,0.028,1.000,1107.000,11.000,3.000,14.000,1.000:
0000
0000
0000
0000
,
1001
0001
0100
0010
1000
0100
M00M
0100
,
0001
0010
0100
1000
0000
0010
1000
0001
,
0000
0100
0010
1000
0001
0010
M00M
0010
,
1000
0001
1000
0100
0000
1000
0001
0100
,
0000
0010
0100
0001
0010
0100
M00M
0100
,
0001
1000
0100
0010
0000
0001
1000
0010
,
0000
0100
0001
0010
0100
1000
0000
0001
,
1000
0000
0000
0000
0001
0000
0000
0000
1000
0100
0010
0001
1000
0100
0010
0001
,
1000
0010
1000
0001
0010
0001
1000
0001
0100
0010
1000
0010
0100
0001
1000
0100
,
1000
0001
0010
0100
1000
0001
1000
0010
0100
0001
1000
0100
1000
0001
0100
0001
,
1000
0010
0100
0001
1000
0001
0010
0100
0010
0001
1000
0010
1000
0001
1000
0100
,
0010
0100
1000
0001
0100
0010
0100
0001
1000
0001
1000
0100
0010
0001
1000
0001
,
1000
0010
0100
0001
1000
0001
0010
0001
1000
0010
0100
0001
1000
0100
0010
0001
,
0010
0100
1000
0001
0100
0001
1000
0100
0010
0001
1000
0001
1000
0010
1000
0001
,
0010
0001
1000
0010
0100
0001
1000
0100
0010
0100
1000
0001
1000
0001
0100
0010
,
0100
0001
1000
0001
0010
0100
1000
0001
1000
0010
0100
0001
1000
0001
1000
0100
,
0010
0001
1000
0100
1000
0001
1000
0001
0100
0010
1000
0010
0100
0001
1000
0100
,
1000
0001
0010
0100
1000
0001
1000
0010
0100
0001
1000
0100
1000
0001
0100
0001
,
1000
0010
0100
0001
1000
0001
0010
0100
0010
0001
1000
0010
1000
0001
1000
0100
,
0010
0100
1000
0001
0100
0010
0100
0001
1000
0001
1000
0100
0010
0001
1000
0001
,
1000
0010
0100
0001
1000
0001
0010
0001
1000
0010
0100
0001
1000
0100
0010
0001
,
0010
0100
1000
0001
0100
0001
1000
0100
0010
0001
1000
0001
1000
0010
1000
0001
,
0010
0001
1000
0010
0100
0001
1000
0100
0010
0100
1000
0001
1000
0001
0100
0010
,
0100
0001
1000
0001
0010
0100
1000
0001
1000
0010
0100
0001
1000
0001
1000
0100
,
0010
0000
0000
0000
0001
0000
0000
0000
1000
0000
0000
0000
0010
0100
0010
0000
,
0100
0001
0100
0000
0001
0000
1000
0000
0100
0000
1000
0000
0001
0000
0100
0000
,
0001
0000
0000
0000
0010
0000
0000
0000
0100
0000
0000
0000
1000
0001
1000
0000
,
0100
0100
1000
0001
0001
0010
0100
1000
,
1001
0000
0000
0000
0001
0000
0000
0000
0100
0000
0000
0000
0010
1000
0010
0000
,
1000
0001
1000
0000
0001
0000
0010
0000
0100
0000
1000
0000
0010
0000
1000
0000
,
0001
0000
1000
0000
0001
0000
1000
0000
0001
0100
0010
1000
0001
0010
0100
1000
,
0020
0000
0000
0000
0000
0000
0130
0001
1000
0000
0001
0000
1000
0000
0000
0000
,
0001
0100
0010
1000
0001
1000
1000
0100
,
1000
0001
1000
0001
0010
0001
0100
0010
,
1000
0001
0100
0010
1000
0001
0001
0010
,
0100
0010
0001
0100
0001
1000
0100
0010
,
0001
0010
0100
1000
0010
0100
0100
0010
,
1000
0100
0010
0001
0100
0001
1000
0010
,
1010
0000
0000
0000
0000
0000
0000
0000
1001
0000
0000
0000
0000
0000
0001
1000
,
0010
0100
0010
0100
0001
1000
0001
1000
,
0001
0010
0001
1000
0001
0010
0100
1000
0001
0100
0010
1000
0010
0100
0001
1000
,
0001
0010
0001
1000
0001
0010
0100
1000
0001
0100
0010
1000
0010
0100
0001
1000
,
0001
0010
0001
1000
0001
0010
0100
1000
0001
0100
0010
1000
0010
0100
0001
1000
,
0001
0010
0001
1000
0001
0010
0100
1000
0001
0100
0010
1000
0010
0100
0001
1000
,
0100
1000
0001
1000
0010
0100
0001
1000
0100
0010
0001
0010
0100
1000
0001
1000
,
0100
0010
0001
1000
0010
0100
0001
1000
0100
0010
0001
1000
0010
0100
0001
1000
,
0100
1000
0001
1000
0010
0100
0001
1000
0100
0010
0001
1000
0010
0100
0001
1000
,
0100
1000
0001
1000
0010
0100
0001
1000
0100
1000
0001
0100
0010
1000
0001
1000
,
0010
0100
0001
1000
0100
0010
0001
0100
,
M00M
0100
1000
0010
0100
0001
0010
0100
,
1000
0001
1000
0010
0100
0010
1000
0001
,
1000
0100
0010
0100
1000
0010
0100
0000
,
0001
0010
0001
1000
0010
0100
0001
0010
,
M00M
0010
1000
0100
0010
0001
0100
0010
,
1000
0001
1000
0100
0010
0100
1000
0001
,
1000
0010
0100
0010
1000
0100
0010
0000
,
0001
0100
0001
1000
0100
0010
0001
0100
,
M00M
0100
1000
0010
0100
0001
0010
0100
,
1000
0001
1000
0010
0100
0010
1000
0001
,
1000
0100
0010
0100
1000
0010
0100
0000
,
0010
1000
0100
0010
0001
1000
0010
0100
,
M00M
0100
0010
0001
0100
0001
0010
0100
,
1000
0001
1000
0010
0100
0010
1000
0001
,
1000
0100
0010
0100
1000
0010
1000
0001
,
0200
0000
0000
0000
,
0000
0000
0000
0000
,
1310
0000
0000
0000
,
1001
0000
0010
0010
,
1001
0000
0000
0000
,
0110
0000
0000
0000
,
0101
0001
1001
1000
,
1100
0100
0010
0001
1000
0001
1000
0001
,
1000
0100
1000
0001
0100
0001
1000
0001
0010
0100
1000
0100
0010
0001
1000
0010
,
1000
0001
0100
0010
1000
0001
1000
0100
0010
0001
1000
0010
1000
0001
0010
0001
,
1000
0100
0010
0001
1000
0001
0100
0010
0100
0001
1000
0100
1000
0001
1000
0010
,
0100
0010
1000
0001
0010
0100
0010
0001
1000
0001
1000
0010
0100
0001
1000
0001
,
1000
0100
0010
0001
1000
0001
0100
0001
1000
0100
0010
0001
1000
0010
0100
0001
,
0100
0010
1000
0001
0010
0001
1000
0010
0100
0001
1000
0001
1000
0100
1000
0001
,
0100
0001
1000
0100
0010
0001
1000
0010
0100
0010
1000
0001
1000
0001
0010
0100
,
0010
0001
1000
0001
0100
0010
1000
0001
1000
0100
0010
0001
1000
0001
1000
0010
,
0100
0001
1000
0100
1000
0001
1000
0001
0100
0010
1000
0010
0100
0001
1000
0100
,
1000
0001
0010
0100
1000
0001
1000
0010
0100
0001
1000
0100
1000
0001
0100
0001
,
1000
0010
0100
0001
1000
0001
0010
0100
0010
0001
1000
0010
1000
0001
1000
0100
,
0010
0100
1000
0001
0100
0010
0100
0001
1000
0001
1000
0100
0010
0001
1000
0001
,
1000
0010
0100
0001
1000
0001
0010
0001
1000
0010
0100
0001
1000
0100
0010
0001
,
0010
0100
1000
0001
0100
0001
1000
0100
0010
0001
1000
0001
1000
0010
1000
0001
,
0010
0001
1000
0010
0100
0001
1000
0100
0010
0100
1000
0001
1000
0001
0100
0010
,
0100
0001
1000
0001
0010
0100
1000
0001
1000
0010
0100
0001
1000
0001
1000
0100
,
0010
0000
0001
0000
0010
0000
0100
0000
1000
0000
0001
0000
1000
0100
0010
0000
,
0001
0100
0010
0000
1000
0000
0100
0000
0010
0000
0100
0000
1000
0000
0001
0000
,
0001
0000
0010
0000
0100
0000
0010
0000
0001
0000
1000
0000
0001
0010
0100
0000
,
1000
0010
0100
0000
0001
0000
1000
0000
1000
0000
0100
0000
0010
0000
0001
0000
,
1000
0000
0010
0000
1000
0000
0001
0000
0010
0000
0100
0000
1000
0100
0010
0000
,
0001
0100
0010
0000
1000
0000
0001
0000
0010
0000
0001
0000
1000
0000
1000
0000
,
0100
0000
1000
0000
0010
0000
0100
0000
0001
0000
1000
0000
0001
0100
0010
0000
,
1000
0100
0010
0000
0001
0000
1000
0000
1000
0000
0010
0000
0100
0000
0001
0000
,
1000
0000
0100
0000
1000
0000
0100
0000
1000
0000
0001
0000
1000
0010
1000
0000
,
0001
0010
0001
0000
1000
0000
0001
0000
0100
0000
0001
0000
1000
0000
0010
0000
,
0100
0000
0001
0000
0100
0000
0001
0000
1000
0000
0001
0000
1000
0100
1000
0000
,
0001
0100
0001
0000
1000
0000
0100
0000
0100
0000
1000
0000
0010
0000
0100
0000
,
0001
0000
0010
0000
0001
0000
0010
0000
0001
0000
1000
0000
0001
0010
0001
0000
,
1000
0010
1000
0000
0001
0000
1000
0000
0100
0000
1000
0000
0001
0000
0010
0000
,
0100
0000
1000
0000
0100
0000
1000
0000
0001
0100
0010
1000
0001
1000
0001
0010
,
0100
1000
0001
0100
0001
1000
0001
0100
0010
0000
1000
0000
0002
0000
0000
0000
,
0000
0000
0003
0000
;
