#TITLE:Bodom After Midnight;
#SUBTITLE:Follow the Reaper (2000);
#ARTIST:Children of Bodom;
#TITLETRANSLIT:;
#SUBTITLETRANSLIT:;
#ARTISTTRANSLIT:;
#CREDIT:;
#BANNER:bodom midnight-banner.png;
#BACKGROUND:bodom midnight-bg.png;
#LYRICSPATH:;
#CDTITLE:melonman67.png;
#MUSIC:02 - Bodom After Midnight.mp3;
#OFFSET:-0.259;
#SAMPLESTART:44.816;
#SAMPLELENGTH:11.920;
#SELECTABLE:YES;
#BPMS:0.000=134.000,20.000=135.000,26.000=134.000,135.000=133.000,136.000=131.000,141.000=135.000,144.000=134.000,148.000=138.000,150.000=133.500,152.000=134.000,341.000=130.000,344.000=136.000,346.000=134.000;
#STOPS:19.667=0.020
;
#BGCHANGES:;
// cache tags:
#FIRSTBEAT:4.000;
#LASTBEAT:495.667;
#SONGFILENAME:Songs/Astronomic Metal Collection/Bodom Midnight (melonman67)/bodom midnight.sm;
#HASMUSIC:1;
#HASBANNER:1;
#MUSICLENGTH:224.214;
// end cache tags

//---------------dance-single - ----------------
#NOTES:
     dance-single:
     :
     Challenge:
     13:
     1.000,1.000,1.000,1.000,1.000,1626.000,363.000,307.000,0.000,0.000:
0000
0000
0000
0000
,
0001
0010
0100
1000
0010
1000
0010
1000
0001
0010
0100
1000
0100
1000
0010
1000
,
0001
0010
0100
1000
0010
1000
0010
1000
0100
0010
2002
0000
3003
2200
0000
3300
,
0001
0010
0100
1000
0010
1000
0010
1000
0001
0010
0100
1000
0100
1000
0010
1000
,
0001
0010
0100
1000
0010
1000
0010
1000
0100
0010
2002
0000
3003
0022
0000
0033
,
0101
0010
0100
1000
0101
0010
0100
1000
0011
0100
0010
1000
0011
0100
0010
1000
,
0101
0010
0100
1000
0101
0010
0100
1000
0011
0100
0010
1000
0011
0100
0010
1000
,
0011
1000
0100
0010
0101
1000
0010
0100
0011
1000
0100
0010
0101
1000
0010
0100
,
0011
1000
0100
0010
0101
1000
0010
0100
0011
1000
0100
0010
0001
1000
0010
0100
,
1001
0000
1000
0010
1000
0010
1000
0010
1000
0010
1000
0010
0202
0303
0202
0303
,
0010
0000
1000
0010
1000
0010
1000
0010
1000
0010
1000
0010
0202
0303
2020
3030
,
0010
0000
1000
0010
1000
0010
1000
0010
1000
0010
1000
0010
0202
0303
0202
0303
,
0001
0010
0100
1000
0100
0010
0001
0010
0100
1000
0100
0010
0001
0010
0100
1000
0100
0010
0001
0010
0100
0010
0100
1000
,
0001
0000
0011
1000
0010
0100
1001
0010
0100
1000
0011
1000
0202
0303
0202
0303
,
0001
0000
1001
0010
0100
1000
0011
0100
0010
0001
1100
0010
0202
0303
2020
3030
,
1000
0000
1001
0010
0100
1000
0011
1000
0001
0010
1100
0010
0202
0303
0202
0303
,
0001
0000
0010
0000
0100
0000
1000
0000
0100
0000
0010
0000
0001
0000
0010
0000
0100
0000
1000
0000
0100
0000
0010
0000
0001
0000
0000
0010
0000
0000
0100
0000
0000
1000
0000
0000
0001
0000
0000
0100
0000
0000
0010
0000
0000
1000
0000
0000
,
0100
0000
1001
0100
0010
0001
1100
0010
0001
0100
1001
0010
0202
0303
0202
0303
,
0100
0000
0011
1000
0100
1000
0011
1000
0001
0010
1001
0010
0202
0303
2020
3030
,
0001
0000
1001
0100
0010
0001
0110
1000
0100
0010
1001
0010
0202
0303
0202
0303
,
0001
0010
0100
0010
0100
1000
0001
0100
0010
0100
0010
1000
0001
0010
0100
0010
0100
1000
0001
0100
0010
0100
0010
1000
,
0120
0000
1000
0000
0000
0100
1030
0000
0012
0000
0100
0000
0000
0010
0103
0000
,
0001
0010
0101
1000
0010
1000
0011
1000
0100
0010
0101
1000
0010
0100
0011
1000
,
0120
0000
1000
0000
0000
0100
1030
0000
0012
0000
0100
0000
0000
0010
0103
0000
,
1001
0000
0010
0001
0010
0100
0010
0100
1001
0000
0010
0001
0010
0100
0010
0100
,
0022
0000
0000
0033
0220
0000
0000
0330
2002
0000
0000
3003
2200
0000
0000
3300
,
1000
0010
1000
0010
0202
0303
2020
3030
0000
1000
0100
1000
0022
0033
2200
3300
,
1000
0010
1000
0010
0202
0303
2020
3030
0000
1000
0100
0010
2002
0000
0000
3003
,
1000
0010
1000
0010
0202
0303
2020
3030
0000
1000
0100
1000
0022
0033
2200
3300
,
1000
0010
1000
0010
0202
0303
2020
3030
1000
0100
0010
0100
0022
0000
0000
0033
,
1000
0010
1000
0010
0202
0303
2020
3030
0000
1000
0100
1000
0022
0033
2200
3300
,
1000
0010
1000
0010
0202
0303
2020
3030
0000
1000
0100
0010
2002
0000
0000
3003
,
1000
0010
1000
0010
0202
0303
2020
3030
0000
1000
0100
1000
0022
0033
2200
3300
,
1000
0010
1000
0010
0202
0303
2020
3030
0100
0010
1001
0100
0010
0100
1001
0100
,
1001
0000
0000
0000
0000
0000
1000
0000
0000
0010
0000
0000
1000
0000
0000
0010
0000
0000
1000
0000
0000
0010
0000
0000
1001
0000
0010
0000
0100
0000
1000
0000
0001
0000
0100
0000
1010
0000
0000
0000
0000
0000
1010
0000
0000
0000
0000
0000
,
1001
0000
0000
0000
0000
0000
1000
0000
0000
0010
0000
0000
1000
0000
0000
0010
0000
0000
1000
0000
0000
0010
0000
0000
1001
0000
0010
0000
0100
0000
1000
0000
0001
0000
0100
0000
1010
0000
0000
0100
0000
0000
1010
0000
0000
0001
0000
0000
,
1100
0000
0000
0000
0000
0000
1000
0000
0000
0010
0000
0000
1000
0000
0000
0010
0000
0000
1000
0000
0000
0010
0000
0000
1001
0000
0010
0000
0100
0000
1000
0000
0001
0000
0100
0000
1010
0000
0000
0000
0000
0000
1010
0000
0000
0000
0000
0000
,
1001
0010
0100
0010
0001
1000
0001
0010
0100
1000
0100
0010
1100
0000
0000
0000
0110
0000
0000
0000
0011
0000
0000
0000
,
1001
0000
0011
1000
0010
0100
1001
0010
0100
1000
0011
1000
0202
0303
0202
0303
,
0001
0000
1001
0010
0100
1000
0011
0100
0010
0001
1100
0010
0202
0303
2020
3030
,
1000
0000
1001
0010
0100
1000
0011
1000
0001
0010
1100
0010
0202
0303
0202
0303
,
0001
0000
0010
0000
0100
0000
1000
0000
0100
0000
0010
0000
0001
0000
0010
0000
0100
0000
1000
0000
0100
0000
0010
0000
0001
0000
0000
0010
0000
0000
0100
0000
0000
1000
0000
0000
0001
0000
0000
0100
0000
0000
0010
0000
0000
1000
0000
0000
,
0001
0000
1001
0100
0010
0001
1100
0010
0001
0100
1001
0010
0202
0303
0202
0303
,
0100
0000
0011
1000
0100
1000
0011
1000
0001
0010
1001
0010
0202
0303
2020
3030
,
0001
0000
1001
0100
0010
0001
0110
1000
0100
0010
1001
0010
0202
0303
0202
0303
,
0010
0000
0001
0000
0010
0000
0100
0000
1000
0000
0100
0000
0010
0000
0000
0001
0000
0000
0010
0000
0000
0100
0000
0000
1000
0000
0000
0001
0000
0000
0100
0000
0000
0010
0000
0000
1000
0000
0000
0001
0000
0000
0010
0000
0000
1000
0000
0000
,
0120
0000
1000
0000
0000
0100
1030
0000
0012
0000
0100
0000
0000
0010
0103
0000
,
0010
0000
0000
0001
0000
0000
0110
0000
0000
1000
0000
0000
0010
0000
0000
1000
0000
0000
0110
0000
0000
1000
0000
0000
0010
0000
0000
0001
0000
0000
0110
0000
0000
1000
0000
0000
0010
0000
0000
0001
0000
0000
0010
0000
0100
0000
1000
0000
,
0120
0000
1000
0000
0000
0100
1030
0000
0012
0000
0100
0000
0000
0010
0103
0000
,
1001
0000
0010
0001
0010
0100
0010
0100
1001
0000
0010
0001
0010
0100
0010
0100
,
0022
0000
0000
0033
0220
0000
0000
0330
2002
0000
0000
3003
2200
0000
0000
3300
,
1000
0010
1000
0010
0202
0303
2020
3030
0000
1000
0100
1000
0022
0033
2200
3300
,
1000
0010
1000
0010
0202
0303
2020
3030
0000
1000
0100
0010
2002
0000
0000
3003
,
1000
0010
1000
0010
0202
0303
2020
3030
0000
1000
0100
1000
0022
0033
2200
3300
,
1000
0010
1000
0010
0202
0303
2020
3030
1000
0100
0010
0100
2002
3003
2020
3030
,
1000
0010
1000
0010
2002
3003
2020
3030
0000
1000
0100
1000
0022
0033
0202
0303
,
1000
0010
1000
0010
2002
3003
2020
3030
0000
1000
0100
0010
2002
0000
0000
3003
,
1000
0010
1000
0010
2002
3003
2020
3030
0000
1000
0100
1000
0022
0033
0202
0303
,
0110
0101
0011
1001
0110
0101
1010
1001
0110
1100
1010
1001
,
1010
0100
0010
1001
0010
0100
1001
0100
0010
1002
0000
0003
,
1001
0100
0010
1001
0010
0100
0011
1000
0100
0021
0000
0030
,
1001
0100
0010
1001
0010
0100
1001
0100
0010
1002
0000
0003
,
1001
0100
0010
1001
0010
0100
0022
0000
0033
2200
0000
3300
,
1001
0100
0010
1001
0010
0100
1001
0100
0010
1002
0000
0003
,
1001
0100
0010
1001
0010
0100
0011
1000
0100
0021
0000
0030
,
1001
0100
0010
1001
0010
0100
1001
0100
0010
1002
0000
0003
,
1001
0100
0010
1001
0010
0100
0022
0000
0033
2200
0000
3300
,
2002
0000
0000
0000
3003
0000
2020
0000
0000
0000
3030
0000
1100
0000
0000
0100
0000
0000
0010
0000
0000
0001
0000
0000
,
0010
0000
0000
0100
0000
0000
0010
0000
0000
0000
0100
0000
1000
0000
0010
0000
,
0022
0000
0033
2200
0000
3300
2002
0000
0000
3003
0100
0000
0010
0000
0001
0000
,
0010
0000
0000
0100
0000
0000
0010
0000
0000
0000
0100
0000
1000
0000
0010
0000
,
0022
0000
0033
2200
0000
3300
0011
1000
0010
0100
0001
0010
1001
0000
1000
0001
,
0100
0000
0010
1000
0011
0000
1000
0001
0100
0000
0010
1000
0101
0000
0010
1000
,
0101
0000
1000
0110
1001
0000
1100
0010
0001
0000
1000
0001
1010
0000
0100
0001
,
0010
0000
0100
1000
0011
0000
1000
0001
1000
0000
0100
0001
1010
0000
1000
0001
,
0110
0000
0100
1010
0101
0000
1001
0100
1000
1000
0100
1000
0010
1000
0001
1000
,
0010
1000
1000
0100
1000
1000
0010
1000
1000
1000
0100
1000
0100
1000
0010
1000
,
0001
1000
1000
0100
1000
1000
0010
1000
1000
1000
0100
1000
0010
1000
0001
1000
,
0010
1000
1000
0100
1000
1000
0010
1000
1000
1000
0100
1000
0100
1000
0010
1000
,
0001
1000
1000
0100
1000
1000
0010
1000
1000
1000
0110
1000
0101
1000
0011
1000
,
0101
1000
1000
0110
1000
1000
0101
1000
1000
1000
0110
1000
0110
1000
0101
1000
,
0011
1000
1000
0110
1000
1000
0101
1000
1000
1000
0110
1000
0101
1000
0011
1000
,
0101
1000
1000
0110
1000
1000
0101
1000
1000
1000
0110
1000
0110
1000
0101
1000
,
0011
1000
1000
0110
1000
1000
0101
0000
0000
0000
0000
0000
0001
0000
0000
0000
,
1000
0001
1000
0001
,
1000
0000
0022
0000
0033
2200
0000
3300
1001
0010
0100
1000
0010
1000
0010
1000
,
0001
0010
0100
1000
0100
1000
0010
1000
0001
0010
0100
1000
0010
1000
0010
1000
,
0100
0010
2002
0000
3003
2200
0000
3300
0010
0001
0010
0200
0000
0000
0000
0000
,
0000
0000
0000
0000
0000
0000
0000
0000
0000
0300
1000
0100
0010
0100
1000
0100
0010
0100
1000
0010
0100
0001
0100
0010
,
1000
0100
0010
0100
0010
0001
0010
0001
0010
0100
1000
0100
2000
0000
0000
0000
0000
0000
0000
0000
0000
3000
0000
0000
,
1000
0000
0000
1000
0000
0000
0100
0000
0000
1000
0000
0000
0010
0000
0000
1000
0000
0000
0001
0000
0000
1000
0000
0000
0001
0000
0100
0000
0010
0000
1000
0000
0010
0000
0100
0000
0001
0000
0100
0000
0010
0000
1000
0000
0010
0000
0100
0000
,
0001
0010
0100
1000
0010
0100
0001
0010
0100
1000
0010
0100
0001
0010
0100
1000
0100
0010
0001
0010
0100
1000
0100
0010
,
0001
0010
0100
1000
0100
0010
0001
0010
0100
1000
0100
0010
0001
0010
0100
1000
0100
0010
0001
0010
0100
1000
0100
0010
,
0001
0000
0010
0000
0100
0000
1000
0000
0100
0000
0010
0000
0001
0000
0010
0000
0100
0000
1000
0000
0100
0000
0010
0000
0001
0000
0000
0001
0000
0000
1000
0000
0000
0001
0000
0000
0100
0000
0000
0001
0000
0000
0010
0000
0000
0001
0000
0000
,
0100
0000
0000
0001
0000
0000
0001
0000
0000
0001
0000
0000
0010
0000
0000
0001
0000
0000
1000
0000
0000
0001
0000
0000
0001
0000
0010
0000
0100
0000
0010
0000
0001
0000
0010
0000
0100
0000
0010
0000
0100
0000
1000
0000
0001
0000
0010
0000
,
0100
0010
0001
0010
0100
0010
0100
1000
0010
1000
0100
1000
0001
0010
0100
1000
0100
0010
0001
0100
0010
1000
0100
0010
,
0001
0010
0100
0010
0001
0100
0010
0100
0010
1000
0100
1000
0001
0010
0100
0010
0100
1000
0010
1000
0100
0010
0100
1000
,
0100
0000
0010
0000
0100
0000
0010
0000
0001
0000
1000
0000
0100
0000
0010
0000
0100
0000
1000
0000
0010
0000
0100
0000
0001
0000
0000
0001
0000
0000
1000
0000
0000
0001
0000
0000
0001
0000
0000
1000
0000
0000
0001
0000
0000
1000
0000
0000
,
0100
0000
0010
0000
0100
0000
1000
0000
0000
0100
0000
0000
0010
0000
0000
0100
0000
0000
0010
0000
0000
0001
0000
0000
0010
0000
0100
0000
1000
0000
0001
0000
0010
0000
0100
0000
0010
0000
0100
0000
1000
0000
0001
0000
0010
0000
0100
0000
,
0010
0100
1000
0001
0010
0100
0010
0001
0010
0100
1000
0010
1000
0100
0010
0100
1000
0100
0010
0001
0010
0100
0010
0001
,
0100
0010
0100
0001
0010
0100
0010
0100
1000
0100
0010
0001
0010
0100
0010
0100
1000
0001
1000
0100
0010
0001
0010
0100
,
1000
0000
0001
0000
0010
0000
0100
0000
0010
0000
0001
0000
1000
0000
0001
0000
0010
0000
0100
0000
1000
0000
0001
0000
1000
0000
0000
0100
0000
0000
0010
0000
0000
0001
0000
0000
1000
0000
0000
0100
0000
0000
0020
0000
0000
0000
0000
0000
,
0000
0030
0010
0001
0010
0100
0010
0100
1100
0001
0010
0100
0110
0010
0100
1000
,
0011
0010
0100
1000
1001
0001
0100
0010
1001
0010
1000
0010
0202
0303
2020
3030
,
0000
1000
0100
1000
0022
0033
2200
3300
1000
0010
1000
0010
0202
0303
2020
3030
,
0000
1000
0100
0010
2002
0000
0000
3003
1000
0010
1000
0010
0202
0303
2020
3030
,
0000
1000
0100
1000
0022
0033
2200
3300
1000
0010
1000
0010
0202
0303
2020
3030
,
1000
0100
0010
0100
0022
0000
0000
0033
1000
0010
1000
0010
0202
0303
2020
3030
,
0000
1000
0100
1000
0022
0033
2200
3300
1000
0010
1000
0010
0202
0303
2020
3030
,
0000
1000
0100
0010
2002
0000
0000
3003
1000
0010
1000
0010
0202
0303
2020
3030
,
0000
0000
0000
1000
0000
0000
0100
0000
0000
1000
0000
0000
0022
0000
0000
0033
0000
0000
2200
0000
0000
3300
0000
0000
0110
0000
0000
0000
0101
0000
0000
0000
0011
0000
0000
0000
1001
0000
0000
0000
0110
0000
0000
0000
0101
0000
0000
0000
,
1010
1001
0110
1100
1010
1001
1010
0100
0010
1001
0010
0100
,
1001
0100
0010
1002
0000
0003
1001
0100
0010
1001
0010
0100
,
0011
1000
0100
0021
0000
0030
1001
0100
0010
1001
0010
0100
,
1001
0100
0010
1002
0000
0003
1001
0100
0010
1001
0010
0100
,
0022
0000
0033
2200
0000
3300
1001
0100
0010
1001
0010
0100
,
1001
0100
0010
1002
0000
0003
1001
0100
0010
1001
0010
0100
,
0011
1000
0100
0021
0000
0030
1001
0100
0010
1001
0010
0100
,
1001
0100
0010
1002
0000
0003
1001
0100
0010
1001
0010
0100
,
0022
0000
0033
0202
0000
0303
2002
0000
3003
2020
0000
3030
,
1100
1000
0100
1000
0010
1000
0001
1000
0010
1000
1000
0100
1000
1000
0010
1000
,
1000
1000
0100
1000
0100
1000
0010
1000
0011
1000
1000
0110
1000
1000
0101
1000
,
1000
1000
0100
1000
0010
1000
0001
1000
0010
1000
1000
0100
1000
1000
0010
1000
,
1001
0010
0100
1000
0010
0100
0001
0010
0100
0010
0001
1000
0100
0010
0100
1000
0001
0010
2200
0000
0000
0000
3300
0000
;

//---------------dance-double - ----------------
#NOTES:
     dance-double:
     :
     Challenge:
     1:
     0.000,0.000,0.000,0.000,0.000,0.000,0.000,0.000,0.000,0.000:
00000000
00000000
00000000
00000000
;
