#TITLE:My Spirit Will Go On;
#SUBTITLE:;
#ARTIST:Dragonforce;
#TITLETRANSLIT:;
#SUBTITLETRANSLIT:;
#ARTISTTRANSLIT:;
#CREDIT:;
#BANNER:Bn-Spirit.png;
#BACKGROUND:Bg-Spirit.png;
#LYRICSPATH:;
#CDTITLE:;
#MUSIC:My Spirit Will Go On.ogg;
#OFFSET:-3.168;
#SAMPLESTART:43.950;
#SAMPLELENGTH:20.000;
#SELECTABLE:YES;
#BPMS:0.000=200.000,483.000=100.000,487.000=200.000,772.000=100.000,772.500=200.000,773.500=100.000,774.000=200.000,775.000=100.000,775.500=200.000,776.500=100.000,777.000=200.000,841.000=170.000,937.000=200.000;
#STOPS:200.000=0.900
,353.000=2.100
,414.000=0.900
,639.000=1.500
,702.000=0.900
;
#BGCHANGES:;
// cache tags:
#FIRSTBEAT:0.000;
#LASTBEAT:1523.667;
#SONGFILENAME:Songs/Dragonforce/My Spirit Will Go On/My Spirit Will Go On.sm;
#HASMUSIC:1;
#HASBANNER:1;
#MUSICLENGTH:474.592;
// end cache tags

//---------------dance-single - B. Abear----------------
#NOTES:
     dance-single:
     B. Abear:
     Challenge:
     15:
     1.000,1.000,0.611,0.855,1.000,3892.000,290.000,406.000,19.000,2.000:



0001
0000
0400
0000
0000
0000
0010
0300
4000
0000
0000
0000
0100
3000
0010
0000
,
0001
0000
0040
0000
0000
0000
0100
0030
4000
0000
0000
0000
0001
3000
0010
0000
,
0100
0000
4000
0000
0000
0000
0001
3000
0400
0000
0000
0000
0010
0300
1000
0000
,
0100
0000
0040
0000
0000
0000
0001
0030
4000
0000
0000
0000
0010
3000
0100
0000
,
0100
0000
0004
0000
0000
0000
1000
0003
0400
0000
0000
0000
0010
0300
0001
0000
,
1000
0000
0040
0000
0000
0000
0100
0030
0004
0000
0000
0000
1000
0003
0100
0000
,
0010
0000
0004
0000
0000
0000
1000
0003
0400
0000
0000
0000
0010
0300
0001
0000
,
1000
0000
0040
0000
0000
0000
1000
0030
0004
0000
0000
0000
1000
0003
0100
0000
,
0100
0000
0040
0000
0000
0000
0001
0030
4000
0000
0000
0000
0004
3000
0000
0000
,
1000
0003
0400
0000
0000
0000
0010
0300
0004
0000
0000
0000
4000
0003
0000
0000
,
0001
3000
0400
0000
0000
0000
0010
0300
4000
0000
0000
0000
0004
3000
0000
0000
,
0100
0003
0040
0000
0000
0000
1000
0030
0400
0000
0000
0000
0040
0300
0000
0000
,
0001
0030
4000
0000
0000
0000
0100
3000
0040
0000
0000
0000
0004
0030
0000
0000
,
1000
0003
0040
0000
0000
0000
1000
0030
0004
0000
0000
0000
0040
0003
0000
0000
,
0100
0030
4000
0000
0000
0000
0001
3000
0040
0000
0000
0000
0400
0030
0000
0000
,
1000
0300
0040
0000
0000
0000
0100
0030
0004
0000
0000
0000
1000
0003
1000
0000
,
0001
1000
0100
0000
0010
0000
0010
0000
0001
1000
0100
0000
1100
0000
1000
0000
,
0001
0100
0010
0000
0100
0000
0100
0000
0001
1000
0001
0000
1001
0000
1000
0000
,
0001
0100
0010
0000
0100
0000
0100
0000
0001
1000
0100
0000
1100
0000
1000
0000
,
0001
0010
0100
0000
1000
0000
1000
0000
0010
0100
0001
0000
1001
0000
1000
0000
,
0001
0100
0010
0000
0100
0000
0100
0000
0010
1000
0001
0000
1001
0000
1000
0000
,
0100
0010
0001
0000
1000
0000
1000
0000
0010
0100
0001
0000
0101
0000
0100
0000
,
0001
1000
0100
0000
0010
0000
0010
0000
0001
1000
0010
0000
1010
0000
1000
0000
,
0001
1000
0100
0000
0010
0000
0010
0000
0001
0010
0100
0000
1100
0000
1000
0000
,
0101
0010
1000
0011
1000
0001
1010
0100
,
1001
0010
1000
0011
1000
0100
1001
0100
,
0011
1000
0001
1100
0010
0100
0101
0010
,
1010
0000
0000
0001
0000
0000
1000
0000
0000
0101
0000
0000
0010
0000
0000
1000
0000
0000
0110
0000
0000
0010
0100
0010
,
0100
0001
0010
1001
0100
0010
1001
0100
,
0011
1000
0100
1001
0100
0010
1010
0100
,
0011
1000
0100
0101
1000
0010
1001
0100
,
0011
1000
0100
1001
0100
0010
1010
0100
,
0010
1000
0010
1000
0001
0100
0001
0100
0001
0010
0001
0010
0100
1000
0100
1000
,
0001
0000
2002
3003
2200
3300
0220
0330
,
0020
0000
0000
0032
0000
0000
2003
0000
,
3020
0000
0000
0230
0000
0000
0302
0000
,
2003
0000
0000
3200
0000
0000
2300
0000
,
3002
0000
0000
0000
0000
0000
0003
0000
0001
1000
0001
1000
0010
0100
0010
0100
,
0001
0000
1000
0000
0100
0010
0001
0000
1000
0000
0010
0000
0100
0001
1000
0000
,
0100
0000
0010
0000
0001
0010
0100
0000
1000
0000
0001
0000
1000
0010
0100
0000
,
0001
0000
0010
0000
0100
1000
0001
0000
1000
0000
0001
0000
0100
0001
1000
0000
,
0001
0100
0010
1000
0001
0010
0001
0010
0100
1000
0001
0100
0010
1000
0010
1000
,
0002
0000
0000
0023
0000
0000
0230
0000
,
2300
0000
0000
3004
0000
0000
0203
0000
,
0320
0000
0000
2030
0000
0000
3002
0000
,
4003
0000
0000
0000
0000
0000
0000
0000
3010
0100
0010
0100
0001
1000
0001
1000
,
0100
0000
0010
0000
0001
1000
0100
0000
0010
0000
0001
0000
1000
0010
0100
0000
,
0010
0000
1000
0000
0001
0010
0100
0000
1000
0000
0100
0000
0010
0001
1000
0000
,
0001
0010
0100
1000
0001
0010
0100
1000
0001
0010
0100
1000
0001
0000
1000
0001
,
1000
0010
0100
0001
1000
0010
0100
0001
1000
0100
1000
0100
1000
0001
1000
0001
,
0100
0000
0000
0000
0001
0000
1000
0001
0010
0100
1000
0001
0200
0000
0310
1000
,
0001
0010
0001
1000
0200
0000
1300
0001
0100
0001
0200
0000
0310
1000
0001
1000
,
0002
0000
0023
0000
0031
0000
1000
0010
0100
0010
1000
0001
2000
0000
3001
0010
,
0100
1000
0001
0100
0001
1000
0001
0010
0100
1000
0002
0000
1003
0100
0010
0001
,
2000
0000
3002
0000
0203
0000
0301
1000
0001
1000
0200
0000
1300
0001
1000
0001
,
0200
0000
0310
0000
2000
0000
3001
0010
0100
1000
0002
0000
0103
0010
1000
0010
,
2000
0000
3001
0000
1000
0010
1000
0001
1000
0100
1000
0001
1000
0010
1000
0001
,
1000
0100
1000
0001
0100
0001
0100
0001
1000
0010
0100
0001
0100
0001
1000
0010
,
0100
0001
1000
0000
0001
0000
1000
0001
0010
0100
1000
0001
0200
0000
0310
1000
,
0001
0010
0001
1000
0200
0000
1300
0001
0100
0001
0200
0000
0310
1000
0001
1000
,
0002
0000
0023
0000
0031
0000
1000
0010
0100
0010
1000
0001
2000
0000
3001
0010
,
0100
1000
0001
0100
0001
1000
0001
0010
0100
1000
0002
0000
1003
0100
0010
0001
,
2000
0000
3002
0000
0203
0000
0301
1000
0001
1000
0200
0000
1300
0001
1000
0001
,
0200
0000
0310
0000
2000
0000
3001
0010
0100
1000
0002
0000
0103
0010
1000
0010
,
2000
0000
3000
0000
0001
0100
0001
1000
0001
0010
0001
1000
0001
0100
0001
1000
,
0001
0010
0001
1000
0010
1000
0010
1000
0001
0100
0010
1000
0010
1000
0001
0100
,
0001
1000
0100
0000
1000
0100
0010
0001
1000
0001
0100
0001
1000
0010
0100
0001
,
1000
0100
1000
0001
0010
0100
1000
0001
1000
0001
0100
0010
1000
0001
0010
0100
,
1000
0001
0010
0001
1000
0000
0001
0000
1000
0001
0100
0000
0010
0000
1000
0000
,
0001
0010
0100
0000
1000
0000
0001
0000
0010
0001
1000
0000
0010
0000
0100
0000
,
0010
1000
0001
0000
1000
0100
1000
0001
0100
0010
1000
0001
0100
0010
0100
0001
,
1000
0100
0010
0001
0010
0100
1000
0001
0010
0001
0010
0100
1000
0001
0100
0010
,
1000
0001
0100
0001
1000
0000
0001
0000
1000
0100
0010
0000
0001
0000
1000
0000
,
0001
0100
0010
0000
0100
0001
1000
0100
1000
0010
0100
0001
1000
0100
1000
0100
,
0010
0001
0010
0001
1000
0000
0001
0000
1000
0010
1000
0000
0010
0000
1000
0000
,
0001
0010
0001
0000
0010
0000
0100
0000
1000
0100
1000
0000
0001
0000
1000
0000
,
0001
1000
0001
0000
0100
0000
0010
1000
0001
0010
0100
1000
0001
0100
0001
1000
,
0001
1000
0100
0010
0002
0000
1003
0010
0100
0010
0200
0000
0301
1000
0010
1000
,
0001
0010
0100
1000
0001
0000
0010
0000
0100
0010
0100
0000
1000
0000
0001
0000
,
0100
0001
0100
0000
0010
0000
1000
0000
0010
1000
0010
0000
0100
0000
0001
0000
,
1000
0100
1000
0000
0001
0000
0010
0100
1000
0001
0100
0010
1000
0001
0100
0001
,
1000
0001
0010
0100
2000
0000
3002
0000
0203
0000
0320
0000
1030
0001
1000
0001
,
0100
0010
1000
0010
0100
0001
0100
0001
0100
0001
0100
0001
0100
0001
0100
0001
,
0100
0001
0100
0001
1000
0100
1000
0100
1000
0100
1000
0001
1000
0001
0100
0001
,
0100
0001
0100
0001
1000
0010
1000
0010
1000
0001
1000
0001
1000
0001
0010
0001
,
0010
0001
0010
0001
1000
0001
1000
0001
1000
0001
1000
0001
0010
0100
0010
0100
,
0010
0100
0010
0000
0200
0000
1300
0001
1000
0010
0200
0000
0310
1000
0001
1000
,
0020
0000
0130
0001
2000
0000
3001
0010
0100
1000
0002
0000
0103
0010
1000
0001
,
0020
0000
0130
1000
0001
0000
0000
0000
1010
0000
1000
0000
0001
0010
0100
0000
,
0110
0000
0010
0000
0001
1000
0010
0000
1010
0000
1000
0000
0001
0100
0010
0000
,
0110
0000
0100
0000
0001
0010
0100
0000
0110
0000
0010
0000
0100
1000
0010
0000
,
1010
0000
1000
0000
0001
0100
0010
0000
0100
0010
0100
0010
1000
0001
0100
0010
,
0100
0010
1000
0001
0100
0010
1000
0000
1010
0000
0010
0000
0100
0001
1000
0000
,
1001
0000
0001
0000
1000
0100
0010
0000
0110
0000
0100
0000
1000
0001
0100
0000
,
0101
0000
0001
0000
1000
0010
0100
0000
0110
0000
0010
0000
0100
0001
1000
0000
,
1001
0000
0001
0000
0010
0100
1000
0000
1100
0000
0100
0000
0010
0001
0100
0000
,
0010
1000
0010
1000
0001
0010
0001
0000
0012
0000
0013
0000
0100
1000
0001
0000
,
1001
0000
1000
0000
0001
0100
0010
0000
1020
0000
1030
0000
0001
1000
0100
0000
,
1100
0000
1000
0000
0001
1000
0010
0000
1020
0000
1030
0000
0001
1000
0001
0000
,
1001
0000
1000
0000
0100
0010
0001
0000
0012
0000
0013
0000
0100
1000
0001
0000
,
1001
0000
1000
0000
0010
0100
0001
0000
0200
0000
0310
1000
0001
0010
0200
0000
,
1300
0001
0010
0001
2000
0000
3010
0100
0002
0000
1003
0100
0010
0001
2000
0000
,
3001
0100
0010
1000
0020
0000
0130
0001
1000
0001
1000
0001
1000
0001
1000
0001
,
1000
0001
1000
0001
1000
0001
1000
0001
1000
0000
0000
0000
0102
0000
0000
0000
,
1103
1000
1001
0001
0101
0100
0110
0010
,
1010
0000
0000
1000
0000
0000
1001
0000
0000
0001
0000
0000
1000
0001
1000
0002
0000
0000
0000
0000
0000
1003
0000
0000
,
1100
0100
0110
0010
0011
0001
1001
1000
,
1001
0000
0000
0001
0000
0000
0101
0000
0000
0100
0000
0000
0010
1000
0010
4000
0000
0000
0000
0000
0000
3001
0000
0000
,
1001
1000
1100
0100
0110
0010
0011
0001
,
0101
0000
0000
0100
0000
0000
0110
0000
0000
0010
0000
0000
0100
0001
0100
0002
0000
0000
0000
0000
0000
1003
0000
0000
,
0100
0000
0000
0100
0000
0000
0010
0000
0000
0010
0000
0000
0001
1000
0001
2000
0000
0000
0000
0000
0000
3010
0000
0000
,
0200
0302
2003
3200
0320
0032
0000
0103
,
0110
0010
1010
1000
1100
0100
0110
0010
,
0011
0000
0000
0001
0000
0000
0400
0000
0000
0000
0000
0000
0301
0010
0001
0020
0000
0000
0000
0000
0000
0130
0000
0000
,
1100
0000
1000
0000
1001
0000
0001
0010
0001
0000
1000
0000
1001
0000
0001
0000
,
0101
0000
0000
0000
0000
0000
0100
0000
0000
0000
0000
0000
0010
0000
0000
1000
0000
0000
0100
0000
0000
0010
0000
0000
0001
0000
1000
0000
0001
0000
2000
0000
0000
0000
0000
0000
0000
0000
0000
0000
0000
0000
3010
0000
0000
0000
0000
0000
,
0110
0100
0101
0001
1001
1000
1100
0100
,
0110
0000
0010
0000
0011
0000
0001
1000
0001
0000
2000
0000
0000
0000
3010
0000
,
0110
0000
0100
0000
0101
0000
0001
1000
0100
0000
0020
0000
0000
0000
0031
0000
,
1000
1000
0100
0100
0010
0012
0000
0000
,
0000
0000
0000
0000
0000
0003
4004
0000
,
0000
0000
0000
3003
0440
0000
0000
0000
0000
0000
0000
0330
0001
0000
1000
0001
,
0010
0100
1000
0001
0200
0000
0310
1000
0001
0010
0001
1000
0200
0000
1300
0001
,
0100
0001
0200
0000
0310
1000
0001
1000
0002
0000
0023
0000
0031
0000
1000
0010
,
0100
0010
1000
0001
2000
0000
3001
0010
0100
1000
0001
0100
0001
1000
0001
0010
,
0100
1000
0002
0000
1003
0100
0010
0001
2000
0000
3002
0000
0203
0000
0301
1000
,
0001
1000
0200
0000
1300
0001
1000
0001
0200
0000
0310
0000
2000
0000
3001
0010
,
0100
1000
0002
0000
0103
0010
1000
0010
2000
0000
3001
0000
1000
0010
1000
0001
,
1000
0100
1000
0001
1000
0010
1000
0001
1000
0100
1000
0001
0100
0010
0100
0010
,
1000
0001
1000
0001
0100
0010
0100
0010
1000
0001
1000
0001
1000
0000
0001
1000
,
0100
0010
0001
1000
0020
0000
0130
0001
1000
0100
1000
0001
0020
0000
0031
1000
,
0010
1000
0020
0000
0130
0001
1000
0001
2000
0000
3200
0000
1300
0000
0001
0100
,
0010
0100
0001
1000
0002
0000
1003
0100
0010
0001
1000
0010
1000
0001
1000
0100
,
0010
0001
2000
0000
3001
0010
0100
1000
0002
0000
2003
0000
3020
0000
1030
0001
,
1000
0001
0020
0000
0031
1000
0001
1000
0020
0000
0130
0000
0002
0000
1003
0100
,
0010
0001
2000
0000
3010
0100
0001
0100
0001
0000
1000
0000
1001
0000
0110
0000
,
0000
0110
1001
0000
1001
0110
0000
0110
,
1001
0000
0000
0000
0001
1000
0001
1000
0100
1000
0100
1000
0001
0010
0100
1000
,
0001
1000
0010
1000
0001
0100
0010
1000
0001
0010
0001
1000
0100
0010
0001
1000
,
0001
1000
0010
0100
0001
1000
0100
0010
0001
1000
0100
1000
0001
0000
1000
0000
,
0001
1000
0010
0000
0100
0000
0001
0000
1000
0100
0010
0000
0001
0000
1000
0000
,
0100
1000
0001
0000
0100
0000
0010
0000
0100
0001
1000
0000
0001
0010
0001
1000
,
0010
0100
0001
1000
0010
0100
0010
1000
0001
0010
0100
1000
0100
0010
0001
1000
,
0100
1000
0100
0010
0001
1000
0010
0100
0001
1000
0010
1000
0001
0000
1000
0000
,
0001
0010
0100
0000
1000
0000
0001
0000
1000
0010
0100
0000
0010
1000
0001
0010
,
0001
0100
0010
1000
0001
0010
0001
0010
0100
1000
0100
1000
0001
0000
1000
0000
,
0001
0100
0001
0000
0100
0000
0001
0000
1000
0100
1000
0000
0100
0000
0010
0000
,
0001
0010
0001
0000
1000
0000
0001
0000
1000
0001
1000
0000
0010
0000
0100
0001
,
1000
0100
0010
0001
1000
0010
1000
0001
1000
0001
0010
0100
2000
0000
3001
0100
,
0010
0100
0020
0000
1030
0001
0100
0001
1000
0100
0010
0001
1000
0000
0100
0000
,
0010
0100
0010
0000
0001
0000
1000
0000
0010
1000
0010
0000
0100
0000
0001
0000
,
0100
0001
0100
0000
0010
0000
1000
0000
0001
0010
0001
0000
1000
0000
0100
0010
,
0001
1000
0010
0100
0001
1000
0010
1000
0001
1000
0100
0010
0002
0000
2003
0000
,
3020
0000
0230
0000
0301
1000
0001
1000
0010
0100
0001
0100
0010
1000
0010
1000
,
0010
1000
0010
1000
0010
1000
0010
1000
0010
1000
0010
1000
0001
0010
0001
0010
,
0001
0010
0001
0010
0001
0010
0001
0010
0001
1000
0001
1000
0010
0100
0010
0100
,
0010
0100
0010
0100
0010
0100
0010
0100
0010
0100
0010
0100
0001
1000
0001
1000
,
0001
1000
0001
1000
0001
1000
0001
1000
0001
1000
0001
0000
0020
0000
0031
1000
,
0001
0100
0020
0000
0130
0001
1000
0001
0200
0000
0310
1000
0002
0000
1003
0100
,
0010
0001
2000
0000
3010
0100
0001
1000
0200
0000
0310
0001
1000
0000
0000
0000
,
0001
1000
0001
1000
0010
0100
0010
0100
0001
0000
1000
0000
0001
0010
0100
0000
,
0110
0000
0010
0000
0001
1000
0010
0000
1010
0000
1000
0000
0001
0100
0010
0000
,
0110
0000
0100
0000
0001
0010
0100
0000
0110
0000
0010
0000
0100
1000
0010
0000
,
1010
0000
1000
0000
0001
0100
0010
0000
0110
0000
0010
0000
1000
0100
0010
0000
,
0011
0000
0001
0000
1000
0001
0010
0001
1000
0000
0010
0000
0100
0001
1000
0000
,
1001
0000
0001
0000
1000
0100
0010
0000
0110
0000
0100
0000
1000
0001
0100
0000
,
0101
0000
0001
0000
1000
0010
0100
0000
0110
0000
0010
0000
0100
0001
1000
0000
,
1001
0000
0001
0000
0010
0100
1000
0000
1100
0000
0100
0000
0010
0001
0100
0000
,
0010
1000
0010
1000
0001
0010
0001
0000
0012
0000
0013
0000
0100
1000
0001
0000
,
1001
0000
1000
0000
0001
0100
0010
0000
1020
0000
1030
0000
0001
1000
0100
0000
,
1100
0000
1000
0000
0001
1000
0010
0000
1020
0000
1030
0000
0001
1000
0001
0000
,
1001
0000
1000
0000
0100
0010
0001
0000
0012
0000
0013
0000
0100
1000
0001
0000
,
1001
0000
1000
0000
0010
0100
0001
0000
0200
0000
0310
1000
0001
0010
0200
0000
,
1300
0001
0010
0001
2000
0000
3010
0100
0002
0000
1003
0100
0010
0001
2000
0000
,
3001
0100
0010
1000
0020
0000
0130
0001
1000
0000
0001
1000
0001
0000
1000
0001
,
1000
0000
0001
1000
0001
0000
1000
0001
1000
0000
0000
0000
2001
0000
0000
0000
,
3101
0001
1001
1000
1100
0100
0110
0010
,
0011
0000
0000
0001
0000
0000
1001
0000
0000
1000
0000
0000
0001
0100
0001
0200
0000
0000
0000
0000
0000
0310
0000
0000
,
1010
1000
1001
0001
0011
0010
0110
0100
,
1100
0000
0000
1000
0000
0000
1001
0000
0000
0001
0000
0000
1000
0100
1000
0400
0000
0000
0000
0000
0000
0310
0000
0000
,
0011
0001
0101
0100
1010
1000
1100
0100
,
0110
0000
0000
0010
0000
0000
0011
0000
0000
0001
0010
0001
0010
0000
0000
0200
0000
0000
0000
0000
0000
1300
0001
1000
,
0002
0103
0100
0010
0010
0200
0000
0310
,
0200
0302
2003
3200
0320
0032
0000
0103
,
0110
0010
1010
1000
1100
0100
0110
0010
,
0011
0000
0000
0001
0000
0000
0200
0000
0000
0000
0000
0000
0301
0010
0001
0040
0000
0000
0000
0000
0000
0130
0000
0000
,
1100
0000
1000
0000
1001
0000
0001
0010
0001
0000
1000
0000
1001
0000
0001
0000
,
0101
0000
0000
0000
0000
0000
0100
0000
0000
0000
0000
0000
0010
0000
0000
1000
0000
0000
0100
0000
0000
0010
0000
0000
0001
0000
1000
0000
0001
0000
4000
0000
0000
0000
0000
0000
0000
0000
0000
0000
0000
0000
3010
0000
0000
0000
0000
0000
,
0110
0100
0101
0001
1001
1000
1100
0100
,
0110
0000
0010
0000
0011
0000
0001
1000
0001
0000
2000
0000
0000
0000
3010
0000
,
0110
0000
0100
0000
0101
0000
0001
1000
0100
0000
0020
0000
0000
0000
0031
0000
,
1000
1000
0100
0100
0010
0012
0000
0000
,
0000
0000
0000
0000
0000
0003
2002
0000
,
0000
0000
0000
0000
0000
0000
0000
3003
0220
0000
0000
0000
0000
0000
0000
0000
,
0000
0000
0000
0330
0010
1000
0010
0000
0100
0000
0100
0000
0001
0100
0001
0000
,
0101
0000
0100
0000
0010
1000
0010
0000
1000
0000
1000
0000
0001
0010
0001
0000
,
0011
0000
0010
0000
0100
1000
0100
0000
0010
0000
0010
0000
0001
1000
0001
0000
,
1100
0000
1000
0000
0001
0100
0001
0000
0100
0000
0101
0000
0001
1000
0001
0000
,
1001
0000
1000
0000
0100
0010
0100
0000
0010
0000
0010
0000
0001
0010
0001
0000
,
0011
0000
0010
0000
0100
1000
0100
0000
1000
0000
1000
0000
0001
0100
0001
0000
,
0101
0000
0100
0000
0010
0100
0010
0000
1000
0000
1000
0000
0001
0010
0001
0000
,
0011
0000
0010
0000
0001
1000
0001
0000
0100
0000
0100
0000
0010
1000
0010
0000
,
1010
1000
0101
0010
1000
0011
1000
0001
,
1010
0100
1001
0010
1000
0011
1000
0100
,
0011
0000
0000
0001
1000
0001
1000
0000
0000
0010
0000
0000
1000
0000
0000
1100
0000
0000
0010
0000
0000
0100
0000
0000
,
0101
0010
1010
0001
1000
0101
0010
1000
,
0110
0000
0000
0010
0100
0010
0100
0000
0000
0001
0000
0000
0010
0000
0000
1001
0000
0000
0100
0000
0000
0010
0000
0000
,
1001
0100
0011
1000
0100
1001
0100
0010
,
1010
0000
0000
1000
0001
1000
0001
0000
0000
1000
0000
0000
0100
0000
0000
0101
0000
0000
1000
0000
0000
0010
0000
0000
,
1001
0100
0011
1000
0101
0001
1001
1000
,
0001
0100
0001
0100
0020
0000
0230
0000
0000
0000
0302
0000
1003
0100
0010
0001
,
2000
0000
0000
3100
0020
0000
0032
0000
0000
0000
2003
0000
3010
0100
0001
0100
,
0020
0000
0230
0302
0000
2003
3020
0230
,
0302
0000
2003
0000
3200
0000
0302
0000
0203
0000
2300
3000
0202
0000
0303
0000
,
0220
0000
0330
0000
0010
1000
0010
1000
0001
0010
0100
1000
0001
0100
0001
0100
,
0010
1000
0100
0010
0001
1000
0001
1000
0100
0010
0100
1000
0001
0100
0010
1000
,
0001
0010
0100
1000
0002
0000
2003
0000
0000
0000
3002
0000
0023
0000
0230
0000
,
2300
0000
3002
0000
0203
0000
0320
0000
0000
0000
2030
0000
3001
0010
0100
0010
,
0001
1000
0001
0100
0010
1000
0010
0100
0001
1000
0100
0010
0002
0003
0002
0003
,
1000
0100
0010
0100
1000
0010
1000
0010
0100
0001
0100
0010
1000
0100
0010
0001
,
2000
0000
0000
0000
3010
0100
0010
1000
0001
1000
0100
0010
0200
0000
2300
0000
,
3001
0100
0010
1000
0020
0000
0130
0001
0100
0010
1000
0100
0010
0001
0100
0010
,
1000
0001
0100
0010
0200
0000
0302
2003
3200
0320
0032
2003
3002
0203
0320
2030
,
3020
0230
0302
0023
0230
2300
3002
0023
0032
0203
0320
0230
0302
2003
3200
0320
,
0032
2003
3020
0230
0302
0000
2003
3200
0320
0032
2003
3020
0230
0302
0203
0320
,
2030
3002
2003
3200
0310
0001
1000
0100
0010
0001
1000
0100
1000
0001
1000
0001
,
0100
0010
0100
0010
1000
0001
1000
0100
0010
0001
0010
0001
0100
0010
0100
0010
,
1000
0001
0100
0001
1000
0100
0010
0001
0100
0010
0100
0001
2000
0000
0000
0000
,
3004
0000
0443
0000
0330
1001
0440
0000
,
0330
1001
0440
0000
0330
1001
0440
0000
,
0330
0000
1001
0000
1000
0010
0100
0001
0100
0010
1000
0001
0010
0001
1000
0100
,
1000
0001
0010
0100
1000
0001
0010
0001
0100
0010
1000
0001
0200
0000
0000
0000
,
0000
0000
0310
1000
0001
0100
0001
1000
0100
0010
0001
0010
0001
0100
0010
1000
,
0010
0100
0001
0100
0001
1000
0100
1000
0001
0010
0001
1000
0010
1000
0010
0100
,
0001
0000
0000
1000
0000
0000
0100
0000
0000
0010
0000
0000
M001
0000
0000
0000
0000
0000
0000
0000
00M0
0000
0M00
0000
0000
0000
0000
0000
0000
0000
0000
0000
000M
0000
0000
0000
1000
0000
00M0
0000
0000
0000
0000
0000
0000
0000
M000
0000
,
0000
0000
0000
0M00
0000
00M0
0001
0000
0000
M000
0000
000M
0000
0M00
0000
0000
00M0
0000
1000
0000
000M
0000
0000
M000
,
0000
00M0
0000
0000
0M00
0000
2002
0000
0000
00M0
0000
0000
0000
0000
0000
0M00
0000
0000
0000
0000
0000
00M0
0000
0000
,
0000
0000
3003
0000
0001
0100
0010
0100
0001
1000
0010
1000
0100
0010
0001
0010
,
0100
1000
0100
0010
0001
1000
0100
1000
0001
1000
0010
1000
0001
0010
0001
0100
,
0001
0100
0001
0010
0200
0000
1300
0001
0200
0000
0310
1000
0001
0100
0001
0100
,
0010
1000
0010
1000
0001
0010
0100
1000
0002
0000
0000
0103
0010
1000
0001
1000
,
0200
0000
0000
0000
0310
0001
1000
0010
1000
0001
0100
0001
0010
0100
1000
0010
,
0100
0010
0100
0001
1000
0100
0010
0001
1000
0001
1000
0010
0100
0001
0100
0010
,
0100
0001
1000
0100
0020
0000
0001
0000
0001
0000
0032
0000
0000
0000
2003
0000
,
3020
0000
0230
0000
0301
1000
0001
1000
0010
0100
0001
1000
0001
0010
0001
0010
,
0100
1000
0001
0100
0020
0000
0000
0000
2030
0000
0000
0000
3002
0000
0000
0000
,
0023
0230
2300
3002
0023
0230
0000
2300
,
3001
0100
0001
0100
0010
1000
0001
0100
0010
1000
0001
0010
0100
0010
0001
1000
,
0001
0100
0010
1000
0010
0100
0010
0100
0001
1000
0010
1000
0100
0010
0100
0010
,
0002
0000
2003
0000
3001
0100
0001
1000
0100
1000
0001
0100
0001
1000
0010
1000
,
0001
0010
0001
1000
0100
1000
0001
0010
0001
1000
0010
1000
0001
0100
0001
1000
,
0100
1000
0001
0100
0002
0000
0203
0000
0320
0000
1030
0100
0010
0001
1000
0001
,
0200
0000
0310
0100
0002
0000
0023
0000
0230
0000
2300
0000
0004
0000
0000
0000
,
0000
0000
3003
0000
2000
0000
3010
0100
0001
0100
0001
1000
0200
0000
0310
0001
,
2000
3020
0230
0302
2003
3200
0000
0000
,
0320
0000
0032
0000
1003
0010
0100
0010
2000
0000
3002
0000
2003
3000
0002
0003
,
0020
0030
0200
0300
2000
3000
0020
0030
0200
0300
0002
0003
0400
0000
0000
0000
,
0000
0000
0300
0000
0010
1000
0001
0100
0010
1000
0001
0100
0001
0010
0100
1000
,
0001
0010
0100
1000
0001
0100
0001
1000
0001
0100
0001
1000
0010
0100
0010
1000
,
0010
0100
0010
1000
0001
0010
0100
1000
0200
0000
0320
0000
0032
0000
1003
0100
,
1000
0010
0100
0001
1000
0100
1000
0100
0010
0001
0010
0001
1000
0010
1000
0010
,
0100
0001
0100
0001
1000
0100
1000
0100
1000
0100
1000
0100
0010
0001
0010
0001
,
0010
0001
0010
0001
1000
0001
1000
0001
1000
0001
1000
0001
0100
0010
0100
0010
,
0200
0000
0000
0000
0301
0010
0001
0010
0001
0010
0001
0010
0100
1000
0100
1000
,
0100
1000
0100
1000
0010
0100
0010
0100
0010
0100
0010
0100
0001
1000
0100
0010
,
0004
0000
0000
0000
1003
0010
1000
0010
1000
0010
1000
0010
0100
0010
0100
0010
,
0100
0010
0100
0010
1000
0100
1000
0100
1000
0100
1000
0100
0010
0001
0010
0001
,
2000
0000
3002
0000
0103
0010
0100
0010
0100
0010
0100
0010
1000
0001
1000
0001
,
1000
0001
1000
0001
0010
0001
0010
0001
0010
0001
0010
0001
1000
0100
0010
0001
,
0200
0000
0000
0000
0320
0000
0030
2000
0000
3000
0002
0000
0000
0000
1003
0000
,
0200
0000
0320
0000
0034
0000
0000
2003
0000
3000
0040
0000
0000
0000
0130
0000
,
0002
0000
2003
3000
0022
0000
0033
2002
0000
3003
2020
0000
0030
0000
3001
0000
,
0200
0000
0320
0000
2030
0000
0100
0000
3100
0000
0010
0001
1000
0010
0100
0001
,
0100
0010
0100
0010
2000
0000
0000
3002
0000
0003
0200
0000
0000
0000
0310
0000
,
2000
0000
3200
0000
0340
0000
0000
0034
0000
0003
4000
0000
0000
0000
3010
0000
,
0200
0000
0302
0000
1003
0100
1000
0100
0010
0001
1000
0100
1000
0100
0010
0001
,
1000
0001
1000
0010
0100
0001
0100
0001
1000
0100
1000
0100
0010
0001
0010
0001
,
1000
0010
1000
0010
0100
0001
1000
0001
0010
0100
1000
0100
0010
0001
0100
0001
,
1000
0010
0100
0001
1000
0001
0010
0100
1000
0001
0100
0010
1000
0001
0100
0001
,
4000
0000
0000
0000
3001
0100
0001
1000
0100
1000
0010
0100
0010
0100
0001
1000
,
0100
0010
0001
1000
0001
0100
0001
0100
0010
1000
0001
0010
0100
1000
0100
0010
,
0004
0000
0003
0000
1000
0010
0100
0001
1000
0001
0100
0001
0010
0100
1000
0010
,
0100
0010
1000
0001
0100
0001
0010
0100
1000
0100
1000
0001
0100
0001
1000
0010
,
4000
0000
0000
0000
3001
0100
0010
1000
0001
0100
0001
1000
0100
0010
0001
0010
,
0001
1000
0010
0100
0001
0010
0100
1000
0001
0010
0100
1000
0001
0010
0100
1000
,
0002
0003
2000
3002
,
0203
0000
0000
0000
0000
0000
0320
0000
0000
0000
0000
0000
0000
0000
0000
0230
0000
0000
0000
0000
0000
0300
0000
0001
,
2000
0000
0000
0000
3001
0010
0001
0100
0020
0000
0230
0000
0310
1000
0200
0000
,
0320
0000
0032
0000
1003
0010
1000
0100
0020
0000
0230
0000
1300
0001
0100
0001
,
1000
0010
0100
0001
1000
0000
1000
0000
1000
0000
0100
0000
0100
0000
0100
0000
,
0010
0001
1000
1000
1000
0010
0010
0010
,
0100
0000
0001
0000
1000
0010
0100
0001
1000
0001
0010
0100
1000
0001
0100
0010
,
0100
0001
1000
0100
1000
0001
0010
0001
1000
0010
0100
0001
0010
0100
1000
0001
,
0100
0001
1000
0100
0010
0001
0010
0001
0010
0001
0010
0001
1000
0100
1000
0001
,
0100
0010
1000
0001
0100
0010
0100
0010
0100
0010
0100
0010
1000
0001
0010
0001
,
1000
0100
0010
0001
1000
0000
1000
0000
4004
0000
3003
0000
0001
0000
0001
0000
,
4004
0000
3003
0000
1000
0100
0010
0001
1000
0100
0010
0100
1000
0010
0100
0001
,
1000
0001
1000
0100
0010
0001
0010
0001
0010
0001
0010
0001
1000
0010
0100
0001
,
1000
0010
1000
0001
0020
0000
0230
0000
2300
0000
3002
0000
0203
0000
0320
0000
,
0230
0000
0302
0000
2003
0000
3001
0100
0020
0000
0130
0001
2000
0000
3200
0000
,
0320
0000
0032
0000
1003
0100
0010
0001
1000
0100
0010
0001
1000
0001
1000
0001
,
0400
0000
0000
0300
1010
0000
0000
0000
1001
0000
0000
0000
0011
0000
0000
0000
,
0110
1001
0101
0110
,
1010
0011
1100
1001
,
0110
1001
0011
0101
,
1010
1001
0110
1010
,
0011
1100
1001
0101
,
0110
0011
1010
1001
,
1001
0000
1000
0000
0001
0100
0010
1000
0001
1000
0100
0010
0001
0010
0001
0100
,
0010
0100
0010
1000
0001
0000
0100
0000
0010
1000
0001
0000
0100
0000
0001
0000
,
1000
0100
0010
0000
0001
0000
1000
0000
0001
0100
0010
0000
1000
0000
0001
0000
,
0100
0001
0010
0000
0100
0000
1000
0000
0001
0010
0100
0000
1000
0000
0001
0000
,
0100
0010
1000
0000
0001
0000
0100
0000
0010
1000
0001
0000
1000
0000
0100
0000
,
0010
0001
0010
0001
1000
0000
0010
0000
0100
0001
1000
0000
0001
0000
0010
0000
,
0100
1000
0100
0000
1000
0000
0001
0000
0100
0010
1000
0000
0001
0000
1000
0000
,
0100
0010
0001
0000
0010
0000
0001
0000
1000
0010
0100
0000
0001
0000
1000
0000
,
0001
1000
0001
0000
1001
0000
1000
0100
1000
0000
1100
0000
0100
0010
0100
0000
,
0010
0001
0010
0001
1000
0010
1000
0000
0001
0100
0001
0000
1000
0100
1000
0000
,
0010
0100
0010
0000
0100
0001
0100
0000
0001
1000
0001
0000
1000
0100
1000
0000
,
0001
0010
0001
0000
1001
0000
1000
0000
0010
0100
0001
0000
0101
0000
0100
0000
,
0001
0010
0100
0000
1100
0000
1000
0000
0001
1000
0010
0000
1000
0010
1000
0010
,
0100
0001
0100
0001
1000
0000
0100
0000
0010
0001
1000
0000
0001
0000
0100
0000
,
0010
1000
0001
0000
0100
0000
0001
0000
1000
0100
0010
0000
0001
0000
0010
0000
,
0100
1000
0010
0000
0100
0001
0100
0000
0010
1000
0010
0000
1000
0001
1000
0000
,
0001
0010
0001
0000
1000
0100
1000
0000
0010
0100
0010
0000
0100
0001
0100
0000
,
0001
1000
0001
0000
1001
0000
1000
0000
0100
0010
0001
0000
0011
0000
0010
0000
,
0100
1000
0010
0000
1010
0000
1000
0000
0001
0100
0010
0000
0110
0000
0100
0000
,
0001
1000
0100
0000
1100
0000
1000
0000
0001
0100
0010
0000
0110
0000
0100
0000
,
0001
1000
0001
0000
1001
0000
1000
0000
0001
0010
0100
0000
0110
0000
0010
0000
,
0001
0100
0001
0000
0020
0000
0031
1000
0001
0100
0020
0000
0130
0001
1000
0001
,
0200
0000
0310
1000
0002
0000
1003
0100
0010
0001
2000
0000
3010
0100
0001
1000
,
0200
0000
0310
0001
1000
0000
0001
0100
0001
0000
1000
0100
1000
0000
0010
0000
,
0010
0000
0100
0000
0001
0100
0001
0100
0010
1000
0010
1000
0001
0010
0001
0010
,
0100
1000
0001
0000
1001
0000
1000
0000
0001
0010
0100
0000
0110
0000
0010
0000
,
0001
1000
0010
0000
1010
0000
1000
0000
0001
0100
0010
0000
0110
0000
0100
0000
,
0001
0010
0100
0000
0110
0000
0010
0000
0100
1000
0010
0000
1010
0000
1000
0000
,
0001
0100
0010
0000
0100
0001
0100
0000
0001
1000
0001
0000
1000
0100
1000
0000
,
0001
1000
0001
0000
0101
0000
0100
0000
0010
1000
0001
0000
1001
0000
1000
0000
,
0001
0010
0100
0000
0110
0000
0010
0000
0001
1000
0010
0000
1010
0000
1000
0000
,
0001
0100
0010
0000
0110
0000
0100
0000
0010
1000
0001
0000
1001
0000
1000
0000
,
0100
0010
0001
0000
0010
0001
0010
0001
1000
0010
1000
0010
0100
0001
0100
0001
,
1000
0100
1000
0000
2100
0000
3100
0000
0010
0001
1000
0000
1001
0000
0001
0000
,
1000
0010
0100
0000
0201
0000
0301
0000
1000
0001
0010
0000
0011
0000
0001
0000
,
1000
0001
0100
0000
0201
0000
0301
0000
1000
0001
1000
0000
1001
0000
0001
0000
,
0010
0100
1000
0000
2100
0000
3100
0000
0010
0001
1000
0000
1001
0000
0001
0000
,
0100
0010
1000
0000
0020
0000
0130
0001
1000
0100
0020
0000
0031
1000
0100
1000
,
0002
0000
0103
0010
2000
0000
3001
0010
0100
1000
0002
0000
1003
0010
0100
0001
,
0200
0310
2020
0000
0000
0000
0000
0000
,
0000
0000
3030
0000
1000
0100
0010
0001
1000
0100
0010
0001
1000
0100
0010
0001
,
1000
0100
0010
0001
0100
0001
0100
0000
0001
0100
0001
0000
1000
0100
1000
0000
,
0100
1000
0100
0000
0010
0100
0010
0000
0100
0010
0100
0000
0010
0001
0010
0000
,
0001
0010
0001
0000
1000
0001
1000
0000
0001
1000
0001
0000
1000
0001
1000
0000
,
0001
1000
0001
0000
1001
0000
0000
0000
0000
0000
0000
0000
0000
0000
0000
0000
,
0000
0000
0002
0000
0000
0203
0000
0000
,
0320
0000
2030
0000
0000
3002
0000
0000
,
0023
0000
0230
0000
0000
2300
0000
0000
,
3002
0203
0000
0320
,
2030
0000
3002
0000
0000
0023
0000
0000
,
0230
2300
0000
3002
,
2003
0000
3002
0000
0000
0023
0000
0000
,
0230
0000
0000
0000
2300
0000
0000
0000
0000
0000
3002
0000
1003
0100
1000
0100
,
0010
0001
0010
0001
1000
0010
1000
0000
0001
0100
0001
0000
0100
0010
0100
0000
,
0010
1000
0010
0000
1000
0001
1000
0000
0001
0010
0001
0000
1000
0100
1000
0000
,
0100
0010
0100
0000
0010
0001
0010
0000
0001
1000
0001
0000
0100
0010
0100
0000
,
0001
1000
0001
0000
1000
0100
1000
0000
0001
0010
0001
0000
1000
0010
1000
0000
,
0010
0100
0010
0000
1000
0010
1000
0000
0001
0010
0001
0000
1000
0100
1000
0000
,
0001
0100
0001
0000
0100
0010
0100
0000
0001
1000
0001
0000
1000
0010
1000
0000
,
0001
1000
0001
0000
0010
0001
1000
0010
1000
0010
0100
0001
1000
0001
0010
0100
,
1000
0001
1000
0100
0040
0000
0000
0000
0000
0000
0230
0000
1000
0000
0000
0000
,
1000
0000
0000
0000
0310
0001
0010
0001
1000
0010
1000
0010
0100
0001
0100
0001
,
1000
0100
1000
0100
0010
0001
0010
0001
1000
0010
1000
0010
0100
0001
0100
0001
,
1000
0000
0000
0100
0000
0000
1000
0000
0000
0100
0000
0000
0010
0000
0000
0000
0001
0000
0000
0000
1000
0000
0000
0000
1010
0000
0000
0000
0000
0000
0000
0000
0000
0000
0000
0000
0010
0000
0000
0000
1000
0000
0000
0000
0001
0000
0000
0000
,
0011
0000
0000
0000
0010
0100
1000
0001
1000
0010
0100
0001
1000
0010
1000
0100
,
0010
0001
0010
0001
0100
0010
1000
0001
0010
0100
1000
0001
1000
0010
0100
0001
,
1000
0001
0010
0001
2002
0000
0000
0000
0000
0000
0000
0000
0000
0000
0000
0000
,
0000
0000
0000
0000
,
0000
0000
0000
0000
,
0000
0000
0000
0000
,
0000
0000
0000
0000
,
0000
0000
0000
0000
0000
0000
0000
0000
0000
0000
0000
0000
0000
0000
0000
3003
0000
0000
0000
0000
0000
2002
0000
3003
,
0000
2002
0000
0000
0000
0000
0000
0000
0000
0000
0000
3003
;
