#TITLE:bag;
#SUBTITLE:(japan mix);
#ARTIST:RevenG vs. Arch0wl;
#TITLETRANSLIT:;
#SUBTITLETRANSLIT:;
#ARTISTTRANSLIT:;
#CREDIT:;
#BANNER:bagJapanMix.png;
#BACKGROUND:bagJapanMix-bg.png;
#LYRICSPATH:;
#CDTITLE:!a0Title.png;
#MUSIC:bagJapanMix.mp3;
#OFFSET:-0.050;
#SAMPLESTART:31.100;
#SAMPLELENGTH:15.500;
#SELECTABLE:YES;
#BPMS:0.000=64.000;
#STOPS:;
#BGCHANGES:;
// cache tags:
#FIRSTBEAT:7.750;
#LASTBEAT:97.563;
#SONGFILENAME:Songs/Keyboard Collaboration II/Arch0wl - Bag (Japan Mix)/bagJapanMix.sm;
#HASMUSIC:1;
#HASBANNER:1;
#MUSICLENGTH:91.824;
// end cache tags

//---------------dance-single - ----------------
#NOTES:
     dance-single:
     :
     Hard:
     10:
     1.000,1.000,1.000,0.022,1.000,467.000,249.000,2.000,0.000,0.000:  // measure 1
0000
0000
0000
0000
,  // measure 2
0000
0000
0000
0000
0000
0000
0000
0000
0000
0000
0000
0000
0000
0000
0000
0000
0000
0000
0000
0000
0000
0000
0000
0000
0000
0000
0000
0000
0000
0000
0100
0010
,  // measure 3
1001
0000
1000
0101
0010
0101
1000
0010
1100
0000
1000
0010
1001
0000
0001
1000
0110
0000
1000
0001
0110
0000
0001
1000
0110
0000
1000
0010
0101
0000
0100
1000
,  // measure 4
0101
0000
0000
0000
0000
0000
0001
0100
1010
0000
0001
0010
1100
0000
0001
0100
1010
0000
0001
0010
1100
0000
1000
0010
0101
0000
0001
0010
1100
0000
0000
0000
,  // measure 5
1001
0000
0001
1000
0011
0000
1000
0001
1010
0000
1000
0010
1100
0000
0001
0010
0101
0000
0100
0010
1001
0000
0010
0100
1001
0000
1000
0001
0110
0000
0001
1000
,  // measure 6
0110
0000
0100
0001
1100
0000
0100
1000
0101
0000
0001
0010
1100
0000
1000
0010
0101
0000
0001
0010
1100
0000
1000
0010
0101
0000
0001
0010
1100
0000
0000
0000
,  // measure 7
1001
0000
1001
0100
0010
0000
1001
0010
0100
0000
1001
0100
0010
0000
1001
0010
1001
0100
1001
0010
1001
0000
0000
1100
0101
0000
0000
0101
0110
0000
0000
1010
,  // measure 8
0101
0000
1000
0100
1001
0000
0001
0100
1001
0000
1000
0010
1001
0000
0001
0010
1001
0000
0001
1000
0101
0000
1000
0001
1100
0000
0001
1000
0101
0000
0000
0000
,  // measure 9
1001
0000
0011
1001
0101
0000
0000
0000
1001
0000
1010
1001
1100
0000
0011
1001
0101
0000
1010
1001
1100
0000
0011
1001
0101
0000
1010
1001
1100
0000
0000
0000
,  // measure 10
1001
0000
0001
1010
0100
1010
0100
1010
0100
0000
1000
0100
1010
0000
0100
1000
0110
0000
0100
1000
0011
0000
0001
1000
1001
0000
1000
0001
1001
0000
1000
0001
,  // measure 11
1001
0000
0000
0000
0000
0000
0010
0100
0110
0000
1000
0100
1100
0000
0001
0100
0101
0000
1000
0010
1010
0000
0001
0010
0011
0000
1000
0001
1001
0000
0000
0000
,  // measure 12
1001
0000
0001
0010
1100
0000
0000
1100
1100
0000
0000
0011
0011
0000
0000
1010
1100
0000
0001
0010
1001
0000
1000
0010
1001
0000
0001
1000
0110
0000
1000
0001
,  // measure 13
0110
0000
0001
0100
1010
0101
0000
1010
1100
0000
0000
0011
0101
0000
0000
1001
0110
0000
0001
0010
1100
0000
1000
0010
0101
0000
0001
0010
1100
0000
0000
0000
,  // measure 14
1001
0000
1100
1001
1100
0000
0000
1100
0101
0000
0000
0101
1100
0000
0000
1100
0101
0000
1000
0001
1100
0000
0001
1000
0101
0000
1000
0001
1100
0000
1001
1001
,  // measure 15
0110
0000
0011
1100
1010
0101
0000
1100
1001
0000
0000
0011
1001
0000
0000
1100
1001
0000
0001
1000
1100
0000
1000
0001
0101
0000
0001
1000
1100
0000
0000
0000
,  // measure 16
1001
0000
0101
1001
1010
0000
0000
0000
0101
1001
1010
1100
1010
0000
0000
0000
1001
1010
1001
0110
1001
0000
0000
0110
1001
0000
0000
1001
0110
0000
0100
0010
,  // measure 17
0011
0000
0010
0100
1100
0000
0000
0000
1100
1010
1001
1010
1100
0000
0000
0000
0011
0101
1001
0101
0011
0000
0110
0010
0011
0000
1100
0100
0110
0000
0110
0100
,  // measure 18
1100
0000
0000
0000
0000
0000
0000
1001
0011
1001
0000
0000
0000
0000
0010
1000
1100
0000
0010
0001
0011
0000
0001
0100
0101
0000
1000
0100
1100
0000
0001
0100
,  // measure 19
0110
0000
0000
0000
0000
0000
0000
0101
0110
1010
0000
0000
0000
0000
0000
0000
0000
0000
0000
0010
1001
0000
0100
0010
1001
0000
0010
0100
1001
0000
0110
0000
,  // measure 20
0010
0010
1000
1000
0000
0001
0101
0000
0010
0000
1001
0000
0110
0000
0000
0000
0001
0001
1000
1000
0000
0000
0000
0100
1100
0000
0011
0000
1100
0000
0001
0001
,  // measure 21
0010
0010
0100
0100
0000
0010
0100
0000
1001
0000
0110
0000
1001
0000
0000
0001
0001
0001
1000
1000
0000
0000
0000
0001
0011
0000
1100
0000
0011
0000
1100
1100
,  // measure 22
1000
1100
0100
0110
0010
0000
1000
1000
1100
0000
0001
0001
0101
0000
0010
0010
0110
0000
1000
1000
1010
0000
0001
0001
0011
0000
1000
1000
1001
0000
0000
0000
,  // measure 23
0001
0101
0100
0110
0010
0000
0100
0100
1100
0000
0010
0010
1010
0000
0100
0100
0101
0000
0010
0010
0011
0000
0100
0100
0110
0000
0010
0010
0110
0000
0000
0000
,  // measure 24
1001
0000
1001
1001
1001
0000
0110
0110
0110
0000
1001
1001
1001
0000
0000
0000
0000
0000
1100
0110
0000
0000
0101
0110
0000
0000
1100
0110
0000
0000
0101
0110
,  // measure 25
0000
0000
0000
0000
1100
0000
0110
0000
0101
0000
0000
0000
0101
0000
0110
0000
1100
0000
0000
0000
0101
0000
1100
0000
2002
3003
0000
0000
0000
0000
0000
0000
0000
0000
0000
0000
0000
0000
0000
0000
0000
0000
0000
0000
0000
0000
0000
0000
0000
0000
0000
0000
0000
0000
0000
0000
0000
0000
0000
0000
0000
0000
0000
0000
;
