#TITLE:Shanghai Kouchakan;
#SUBTITLE:(Chinese Tea Orchid Remix);
#ARTIST:Yooh;
#TITLETRANSLIT:;
#SUBTITLETRANSLIT:;
#ARTISTTRANSLIT:;
#CREDIT:;
#BANNER:../Banner.png;
#BACKGROUND:../BG.png;
#LYRICSPATH:;
#CDTITLE:../CDTitleKIRBY.png;
#MUSIC:Yooh - Shanghai kouchakan ~ Chinese Tea Orchid Remix.ogg;
#OFFSET:-0.208;
#SAMPLESTART:46.485;
#SAMPLELENGTH:23.000;
#SELECTABLE:YES;
#BPMS:0.000=188.000;
#STOPS:;
#BGCHANGES:;
// cache tags:
#FIRSTBEAT:9.000;
#LASTBEAT:368.000;
#SONGFILENAME:Songs/Index Tesseract/Shanghai Kouchakan - [Kirby5464]/Shanghai Kouchakan.sm;
#HASMUSIC:1;
#HASBANNER:1;
#MUSICLENGTH:120.241;
// end cache tags

//---------------dance-single - ----------------
#NOTES:
     dance-single:
     :
     Challenge:
     15:
     1.000,1.000,0.366,0.183,1.000,1023.000,44.000,22.000,1.000,0.000:
0000
0000
0000
0000
,
0000
0000
0000
0000
,
0000
1001
0000
0110
,
0000
0000
0000
0000
1010
0000
0000
0000
0110
0000
0000
0101
0000
0000
1000
0000
,
1002
0000
0000
0000
0103
0010
1000
0001
0010
0100
1000
0001
0010
0100
0010
0001
,
1000
0010
1000
0100
0010
0001
1000
0100
1000
0001
0010
0001
1000
0010
0100
0010
,
1000
0001
0100
0010
1000
0100
0010
0001
1000
0100
0010
0100
1000
0001
0100
0001
,
0010
0100
1000
0001
0010
0001
1000
0100
1000
0001
0100
0010
0100
0001
1000
0010
,
0100
0001
0010
0100
1000
0001
0010
0100
0010
0001
1000
0010
1000
0100
0010
0001
,
1000
0100
1000
0001
0010
0001
1000
0010
0100
0010
1000
0001
0100
0010
1000
0100
,
0010
0001
1000
0100
0010
0100
1000
0001
0100
0001
0010
0100
1000
0001
0010
0001
,
1000
0100
1000
0001
0100
0010
0100
0001
1000
0010
0100
0001
0010
0100
1000
0001
,
0010
0100
0010
0001
1000
0010
1000
0100
0010
0001
1000
0100
1000
0001
0010
0001
,
1000
0010
0100
0010
1000
0001
0100
0010
1000
0100
0010
0001
1000
0100
0010
0100
,
1000
0001
0100
0001
0010
0100
1000
0001
0010
0001
1000
0100
1000
0001
0100
0010
,
0100
0001
1000
0010
0100
0001
0010
0100
1000
0001
0010
0100
0010
0001
1000
0010
,
1000
0100
0010
0001
1000
0100
1000
0001
0010
0001
1000
0010
0100
0010
1000
0001
,
0100
0010
1000
0100
0010
0001
1000
0100
0010
0100
1000
0001
0100
0001
0010
0100
,
1000
0001
0010
0001
1000
0100
1000
0001
0100
0010
0100
0001
1000
0010
0100
0001
,
0010
0100
1000
0001
0100
0001
1000
0100
0010
0100
1000
0001
0200
0000
0320
0000
,
4030
3002
0000
0000
,
0203
0320
0000
2030
,
0000
3002
0000
0000
,
0000
0000
0000
2003
,
3200
0000
0320
0000
0000
0000
0032
2003
,
3020
0230
0000
0000
0000
0302
0000
0000
,
0023
0230
0000
0000
,
0000
0000
0000
2300
,
3020
0000
0130
0001
1000
0000
0001
0010
,
0001
0000
1000
0010
1000
0000
0001
0100
,
0001
0000
1000
0100
1000
0000
0010
0100
,
0001
0000
1000
0010
0100
0000
0001
1000
,
0001
0000
1000
0100
0010
0001
1000
0100
,
0010
0100
1000
0001
0100
0001
0010
0100
,
1000
0001
0100
0001
1000
0000
0000
0000
0000
0000
0000
0000
0110
0000
0000
0000
,
0000
1001
1100
0011
,
2010
0000
0000
0000
3001
0010
0100
1000
0001
0010
0100
0010
0001
1000
0010
1000
,
0100
0010
0001
1000
0100
1000
0001
0010
0001
1000
0010
0100
0010
1000
0001
0100
,
0010
1000
0100
0010
0001
1000
0100
0010
0100
1000
0001
0100
0001
0010
0100
1000
,
0001
0010
0001
1000
0100
1000
0001
0100
0010
0100
0001
1000
0010
0100
0001
0010
,
0100
1000
0001
0010
0100
0010
0001
1000
0010
1000
0100
0010
0001
1000
0100
1000
,
0001
0010
0001
1000
0010
0100
0010
1000
0001
0100
0010
1000
0100
0010
0001
1000
,
0100
0010
0100
1000
0001
0100
0001
0010
0100
1000
0001
0010
0001
1000
0100
1000
,
0001
0100
0010
0100
0001
1000
0010
0100
0001
0010
0100
1000
0001
0010
0100
0010
,
0001
1000
0010
1000
0100
0010
0001
1000
0100
1000
0001
0010
0001
1000
0010
0100
,
0010
1000
0001
0100
0010
1000
0100
0010
0001
1000
0100
0010
0100
1000
0001
0100
,
0001
0010
0100
1000
0001
0010
0001
1000
0100
1000
0001
0100
0010
0100
0001
1000
,
0010
0100
0001
0010
0100
1000
0001
0010
0100
0010
0001
1000
0010
1000
0100
0010
,
0001
1000
0100
1000
0001
0010
0001
1000
0010
0100
0010
1000
0001
0100
0010
1000
,
0100
0010
0001
1000
0100
0010
0100
1000
0001
0100
0001
0010
0100
1000
0001
0010
,
0001
1000
0100
1000
0001
0100
0010
0100
0001
1000
0010
0100
0001
0010
0100
1000
,
0001
0100
0001
1000
0010
0000
0110
0000
0000
0000
1100
0000
0000
0000
0004
0000
,
0043
0000
0430
0000
1300
0001
0010
0001
1000
0100
0010
0100
1000
0001
0100
0001
,
0010
0100
1000
0001
0010
0001
1000
0100
1000
0001
0100
0010
0100
0001
1000
0010
,
0100
0001
0010
0100
1000
0001
0010
0100
0010
0001
1000
0010
1000
0100
0010
0001
,
1000
0100
1000
0001
0010
0001
1000
0010
0100
0010
1000
0001
0100
0010
1000
0100
,
0010
0001
1000
0100
0010
0100
1000
0001
0100
0001
0010
0100
1000
0001
0010
0001
,
1000
0100
1000
0001
0100
0010
0100
0001
1000
0010
0100
0001
0010
0100
1000
0001
,
0010
0100
0010
0001
1000
0010
1000
0100
0010
0001
1000
0100
1000
0001
0010
0001
,
1000
0010
0100
0010
1000
0000
0000
0001
0000
0000
0100
0000
0010
0000
0000
1000
,
0000
0000
0001
0000
0100
0000
0001
0000
1000
0001
0010
0100
1000
0001
0100
0010
,
0100
0001
1000
0010
0100
0001
0010
0100
1000
0001
0010
0100
0010
0001
1000
0010
,
1000
0100
0010
0001
1000
0100
1000
0001
0010
0001
1000
0010
0100
0010
1000
0001
,
0100
0010
1000
0100
0010
0001
1000
0100
0010
0100
1000
0001
0100
0000
0000
0110
,
0000
0000
0011
0000
1000
0100
1000
0001
0100
0010
0100
0001
1000
0010
0100
0001
,
0010
0100
1000
0001
0010
0100
0010
0001
1000
0010
1000
0100
0010
0001
1000
0100
,
1000
0001
0010
0001
1000
0010
0100
0010
1000
0001
0100
0010
1000
0000
0000
1001
,
0000
0000
1010
0000
0000
0000
0011
0000
0000
0110
0000
0000
1100
0000
0000
1001
,
0000
0000
1010
0000
0000
0000
0101
0000
0000
1001
0000
0000
0110
0000
0000
1100
,
0000
0000
0041
0000
0031
1000
0100
0010
0001
1000
0100
0010
0100
1000
0001
0100
,
0001
0010
0100
1000
0001
0010
0001
1000
0100
1000
0001
0100
0010
0100
0001
1000
,
0010
0100
0001
0010
0100
1000
0001
0010
0100
0010
0001
1000
0010
1000
0100
0010
,
0001
1000
0100
1000
0001
0010
0001
1000
0010
0100
0010
1000
0001
0100
0010
1000
,
0100
0010
0001
1000
0100
0010
0100
1000
0001
0100
0001
0010
0100
1000
0001
0010
,
0001
1000
0100
1000
0001
0100
0010
0100
0001
1000
0010
0100
0001
0010
0100
1000
,
0001
0010
0100
0010
0001
1000
0010
1000
0100
0010
0001
1000
0100
1000
0001
0010
,
0001
1000
0010
0100
0010
0000
1000
0000
0001
0100
0000
0001
0000
0000
1000
0100
,
0010
0001
1000
0010
1000
0100
0010
0001
1000
0100
1000
0001
0010
0001
1000
0010
,
0100
0010
1000
0001
0100
0010
1000
0100
0010
0001
1000
0100
0010
0100
1000
0001
,
0100
0001
0010
0100
1000
0001
0010
0001
1000
0100
1000
0001
0100
0010
0100
0001
,
1000
0010
0100
0001
1000
0000
1001
0000
1100
0000
0011
0000
0001
0010
0001
1000
,
0100
1000
0001
0100
0001
1000
0010
1000
0001
0100
0010
0100
0001
1000
0010
0100
,
0001
0010
0100
1000
0001
0000
0000
0000
0011
0000
0000
0000
0110
0000
0000
0000
,
1100
0000
0000
0000
0001
1000
0010
0100
0010
1000
0001
0100
0010
1000
0100
0010
,
0001
1000
0010
0100
0001
0000
1001
0000
0000
0000
0110
0000
0000
0000
1010
0000
,
4000
0000
0000
0000
0000
0000
0000
3000
1001
0000
0000
0000
0000
0000
0000
0000
0000
0000
0000
0000
0000
0000
0000
0000
0110
0000
0000
0000
0000
0000
0000
0000
,
0000
0000
0000
0000
1100
0000
0000
0000
0011
0000
0000
0110
0000
0000
1000
0000
,
1002
0000
0000
0000
,
0000
0000
0000
0000
,
0000
0000
0000
0000
,
0003
0000
0000
0000
,
0000
0000
0000
0000
,
0M00
0000
0000
0000
,
0000
0000
0000
0000
,
0000
0000
0000
0000
;
