#TITLE:Fumando Pasto;
#SUBTITLE:;
#ARTIST:Plan B f/ DJ Warner;
#TITLETRANSLIT:;
#SUBTITLETRANSLIT:;
#ARTISTTRANSLIT:;
#CREDIT:;
#BANNER:banner.JPG;
#BACKGROUND:;
#LYRICSPATH:;
#CDTITLE:!tizaTitle.png;
#MUSIC:Plan B - Fumando Paso [Prod[1]. By DJ Warner & Dj Tony] By. ZDP & AK-47.ogg;
#OFFSET:-0.040;
#SAMPLESTART:24.001;
#SAMPLELENGTH:14.000;
#SELECTABLE:YES;
#BPMS:0.000=180.000,8.000=90.000,36.000=180.000,96.000=90.000,160.000=80.000,224.000=180.000,232.000=90.000,248.000=180.000,312.000=45.000,320.000=90.000,336.000=180.000,356.000=150.000,357.000=120.000,358.000=90.000,376.000=180.000,504.000=90.000,620.000=45.000;
#STOPS:36.000=2.657
,56.000=1.326
,96.000=5.320
,160.000=3.000
,359.000=1.800
,504.000=2.660
,522.000=2.655
,572.000=2.660
;
#BGCHANGES:;
// cache tags:
#FIRSTBEAT:8.000;
#LASTBEAT:627.833;
#SONGFILENAME:Songs/Reggaeton and more/Fumando Pasto/Pollinosis.sm;
#HASMUSIC:1;
#HASBANNER:1;
#MUSICLENGTH:366.714;
// end cache tags

//---------------dance-single - ----------------
#NOTES:
     dance-single:
     :
     Challenge:
     12:
     0.683,1.000,0.384,0.049,0.744,1582.000,141.000,18.000,52.000,24.000:

0000
0000
0000
0000
,
0000
0000
0000
0000
,
0200
0000
0020
0000
0001
0030
2000
0010
,
0001
3300
1100
0000
0002
0020
0200
1333
,
1111
0000
0011
0000
1100
0000
1010
0100
,
0011
0000
1001
0000
0001
0010
0100
0010
,
0001
0000
1000
0100
0010
0100
1000
0000
1001
0000
0001
0100
0010
0000
0110
0000
,
1001
0000
1000
0100
0001
1000
0010
0001
0100
1000
0001
0010
1000
0000
1001
0000
,
0110
0000
1000
0010
0001
0010
1000
0100
0001
0100
1000
0010
0100
0000
0202
0000
,
0000
0303
0000
1000
0000
0000
0010
0000
0000
0100
0000
0000
0001
0000
0000
0000
0000
0000
0001
0000
0000
0100
0000
0000
,
0000
0010
1000
0100
0010
0000
1001
0000
,
0000
0001
0010
1000
0001
0000
0100
1000
,
0000
0010
0001
0010
1000
0000
0000
0000
,
1000
0000
0100
0000
1000
0000
0100
0000
0000
0000
0001
0100
0001
0000
0000
0000
,
1000
0001
0000
0000
0000
0000
0000
0000
0000
0000
0000
0000
0000
0000
0000
0000
0000
0000
0000
0000
0000
0000
0000
0000
0000
0000
0000
0000
0000
0000
0000
0000
0000
0000
0000
0000
0000
0000
0000
0000
0000
0000
0000
0000
0000
0000
0000
0000
1000
0000
0000
0000
0000
0000
0000
0000
0000
0000
0000
0000
0000
0000
0000
0000
0000
0000
0000
0000
0000
0000
0000
0000
1000
0000
0000
0000
0000
0000
0000
0000
0000
0000
0000
0000
0000
0000
0000
0000
0000
0000
0000
0000
0000
0000
0000
0000
1000
0000
0000
0000
0000
0000
0000
0000
0000
0000
0000
0000
0000
0000
0000
0000
0000
0000
0000
0000
0000
0000
0000
0000
0000
0000
0000
0000
0000
0000
0000
0000
0000
0000
0000
0000
0000
0000
0000
0000
0000
0000
0000
0000
0000
0000
0000
0000
0001
0000
0000
0000
0000
0000
0000
0000
0000
0000
0000
0000
0000
0000
0000
0000
0000
0000
0000
0000
0000
0000
0000
0000
0001
0000
0000
0000
0000
0000
0000
0000
0000
0000
0000
0000
0000
0000
0000
0000
0000
0000
0000
0000
0000
0000
0000
0000
,
0010
0100
1000
1000
1001
0000
0110
0000
,
0000
1000
0010
0100
0010
0000
1000
0001
,
0000
0010
1000
0001
0100
0000
1000
0000
,
0000
0100
0010
0100
0010
0000
0010
0100
,
0000
0100
0010
0100
0010
0000
0000
0000
,
1100
0001
0101
0000
M001
0M00
00M0
0M00
,
M100
00M0
0M00
000M
00M1
0M00
M010
00M0
,
M100
000M
0M00
00M0
M010
0M00
100M
M000
,
00M1
000M
1M00
M000
001M
00M0
M001
0M00
,
10M1
0010
0000
0000
0000
0000
0000
0000
0000
0000
0000
0000
0000
0000
0000
0000
0000
0000
0000
0000
0000
0000
0000
0000
0100
0000
0000
0000
0000
0000
0000
0000
0000
0000
0000
0000
0000
0000
0000
0000
0000
0000
0000
0000
0000
0000
0000
0000
0000
0000
0000
0000
0000
0000
0000
0000
0000
0000
0000
0000
0000
0000
0000
0000
0000
0000
0000
0000
0000
0000
0000
0000
1000
0000
0000
0000
0000
0000
0000
0000
0000
0000
0000
0000
0000
0000
0000
0000
0000
0000
0000
0000
0000
0000
0000
0000
0100
0000
0000
0000
0000
0000
0000
0000
0000
0000
0000
0000
0000
0000
0000
0000
0000
0000
0000
0000
0000
0000
0000
0000
0010
0000
0000
0000
0000
0000
0000
0000
0000
0000
0000
0000
0000
0000
0000
0000
0000
0000
0000
0000
0000
0000
0000
0000
0001
0000
0000
0000
0000
0000
0000
0000
0000
0000
0000
0000
0000
0000
0000
0000
0000
0000
0000
0000
0000
0000
0000
0000
0000
0000
0000
0000
0000
0000
0000
0000
0000
0000
0000
0000
0000
0000
0000
0000
0000
0000
0000
0000
0000
0000
0000
0000
,
0100
0010
0000
0001
0100
0010
1000
0000
,
1001
0000
0000
0000
1000
0100
1000
0010
0100
0000
0100
0001
0000
0001
0010
0000
,
0010
0000
0000
0000
0100
0000
0000
0000
0010
0000
0000
0000
0100
0000
0000
0000
1000
0000
0000
0000
0010
0000
0000
0000
0100
0000
0000
0000
0001
0000
0000
0000
0010
0000
0000
0000
0000
0000
0000
0000
0010
0001
0000
0000
0000
0000
0000
0000
0001
1000
0000
0000
0000
0000
0000
0000
1000
0010
0000
0000
0000
0000
0000
0000
,
1001
1000
0010
0100
0001
0010
0100
0000
0011
0001
0010
0100
0010
0001
1000
0000
,
1000
0010
0100
0001
0010
1000
0010
0000
0001
0100
1000
0100
0001
0010
0100
0000
,
1000
0010
0100
1000
0100
0001
0010
0000
0100
1000
0010
0001
0010
1000
0100
0000
,
2002
0000
0000
0010
0000
0003
0200
0000
0001
0000
0000
0010
0000
0000
3311
0000
,
1000
0100
1000
0100
1000
0100
1000
0000
0100
0010
0100
0010
0100
0010
0100
0000
,
0010
0001
0010
0001
0010
0001
0010
0000
0001
1000
0001
1000
0001
1000
0001
0000
,
1000
0010
1000
0010
1000
0010
1000
0000
0010
0100
0010
0100
0010
0100
0010
0000
,
1100
0110
0000
0011
0110
1100
1001
0000
,
0100
0001
0010
0100
0010
0000
0001
0010
0100
0010
0001
1000
0001
0000
0000
1000
,
1100
0100
0010
0001
0011
0001
0100
0010
1010
0000
1000
0001
1001
0000
0000
0000
,
1100
0010
0100
0001
0011
0000
0000
0000
0000
0000
1001
0000
0000
1000
1000
1000
,
0100
0010
0100
1000
0011
0000
0000
0000
0222
0000
0000
0000
1000
0000
0333
0000
,
0000
1001
0000
0000
0000
0000
0000
0000
0000
0000
0000
0000
0000
0000
0000
0000
0000
0000
0000
0000
0000
0000
0000
0000
1000
0000
0000
0000
0000
0000
0000
0000
0000
0000
0000
0000
0100
0000
0000
0000
0000
0000
0000
0000
0000
0000
0000
0000
0010
0000
0000
0000
0000
0000
0000
0000
0000
0000
0000
0000
0000
0000
0000
0000
0000
0000
0000
0000
0000
0000
0000
0000
1000
0000
0000
0000
0000
0000
0000
0000
0000
0000
0000
0000
0100
0000
0000
0000
0000
0000
0000
0000
0000
0000
0000
0000
0010
0000
0000
0000
0000
0000
0000
0000
0000
0000
0000
0000
0000
0000
0000
0000
0000
0000
0000
0000
0000
0000
0000
0000
1000
0000
0000
0000
0000
0000
0000
0000
0000
0000
0000
0000
0100
0000
0000
0000
0000
0000
0000
0000
0000
0000
0000
0000
0010
0000
0000
0000
0000
0000
0000
0000
0000
0000
0000
0000
0000
0000
0000
0000
0000
0000
0000
0000
0000
0000
0000
0000
0001
0000
0000
0000
0000
0000
0000
0000
0000
0000
0000
0000
0010
0000
0000
0000
0000
0000
0000
0000
0000
0000
0000
0000
,
0100
0000
0001
0010
0100
0001
0010
0000
0100
0000
0001
0010
0100
0000
0000
0000
,
1001
0000
1000
1000
1000
0000
0100
0100
0100
0000
0010
0010
0010
0001
0001
0000
,
0110
0000
1000
0001
0110
0000
0010
1000
1010
0010
0110
0100
0101
0000
1001
0000
,
1100
0000
1000
0001
1000
0001
0000
0000
0101
0000
0010
1000
0010
1000
0000
0000
,
1100
0000
0100
0010
0100
0010
0000
0000
1010
0000
0100
0001
0010
0001
0000
0000
,
0101
0000
0010
1000
0100
0010
0000
0000
1001
0000
1000
0010
0100
0001
0000
0000
,
1001
0000
0010
0000
1001
0000
0100
0000
1001
0000
0010
1001
0100
1001
0000
0000
,
1000
0000
0010
0000
0001
0000
1000
0000
0100
0000
0001
0000
0010
0000
0100
0010
,
0001
0000
0100
0000
0010
0000
0001
0000
1000
0000
0100
0000
0001
0000
0010
0100
,
1000
0000
1000
0100
0010
0000
0010
0100
1000
0000
1000
0001
1000
0000
0001
1000
0001
0000
1000
0010
0100
0000
0001
0010
0100
0000
1000
0100
0010
0000
0001
0100
,
0010
0000
0000
0000
0000
0000
0000
0000
0000
0000
0000
0000
1000
0000
0000
0000
0000
0000
0000
0000
0000
0000
0000
0000
0001
0000
0000
0000
0000
0000
0000
0000
0000
0000
0000
0000
0100
0000
0000
0000
0000
0000
0000
0000
0000
0000
0000
0000
0010
0000
0000
0000
1000
0000
0000
0000
0010
0000
0000
0000
1000
0000
0000
0000
0000
0000
0000
0000
0000
0000
0000
0000
0010
0000
0000
0000
1000
0000
0000
0000
0010
0000
0000
0000
1000
0000
0000
0000
0000
0000
0000
0000
0000
0000
0000
0000
1001
0000
0000
0000
0000
0000
0000
0000
0000
0000
0000
0000
0000
0000
0000
0000
0000
0000
0000
0000
0000
0000
0000
0000
0000
0000
0000
0000
0000
0000
0000
0000
0000
0000
0000
0000
0000
0000
0000
0000
0000
0000
0000
0000
0000
0000
0000
0000
1000
0000
0000
0000
0000
0000
0100
0000
0000
0000
0000
0000
1000
0000
0000
0000
0000
0000
0100
0000
0000
0000
0000
0000
1000
0000
0000
0000
0000
0000
0100
0000
0000
0000
0000
0000
1000
0000
0000
0000
0000
0000
0100
0000
0000
0000
0000
0000
,
1000
0000
0001
0100
1000
0010
0001
0000
1001
0000
1000
0100
0001
0000
0000
0000
,
1001
0000
1000
0100
0001
0010
1000
0100
0010
0001
0010
0100
1000
0000
0110
0000
,
0001
0000
1000
0100
0010
1000
0001
0000
0100
0000
1000
0010
0100
0000
0000
0000
,
1001
0000
1000
0100
0010
0100
1000
0010
0100
0010
1000
0100
0010
0100
1000
0010
,
0100
0100
0010
0010
1000
1000
0001
0001
,
0100
0100
0010
1000
0001
0000
1001
0000
,
1000
0100
0010
0001
1000
0100
0010
0001
0000
0000
0010
0100
1000
0000
0000
0000
,
0001
0100
1000
0010
0001
0100
1000
0010
0000
0000
0001
0100
1000
0000
0000
0000
,
1000
0000
0100
0000
1000
0000
0100
0000
1000
0001
1000
0001
1000
0001
1000
0001
1000
0000
0001
0000
0100
0000
0010
0000
1000
0100
1000
0100
1000
0100
1000
0100
,
1000
0100
0010
0100
1000
0010
0100
0001
0100
0001
0100
0001
0100
0001
0100
0001
1000
0010
0100
0001
0010
0100
1000
0100
0010
0100
1000
0010
0100
0000
0000
0000
,
1001
1000
0010
0100
0001
0010
0100
0010
,
0001
0100
0010
1000
0100
0010
1001
0000
,
0101
0001
0100
0010
1000
0100
0001
1000
,
0010
0001
0100
1000
0001
0010
1000
0000
,
1010
1000
0010
0100
0010
1000
0100
0010
,
1000
0001
0100
1000
0010
0100
0001
0000
,
0110
0010
1000
0001
0100
0001
0010
1000
,
0001
0100
1000
0100
0001
1000
0010
0000
,
0001
0100
1000
0100
0001
0010
0100
0010
,
0001
1000
0010
1000
0001
0100
0001
0000
,
1000
0100
0010
0001
1000
0010
0100
0001
,
1000
0100
0010
0001
0010
0100
1000
0000
,
0001
0010
0100
1000
0001
0100
0010
1000
,
0001
0010
0100
1000
0100
0010
0001
0000
,
1000
0010
0100
0010
1000
0100
0010
0100
,
1000
0001
0100
0010
0100
0001
1000
0100
,
0010
0000
0001
0010
0100
1000
1001
0000
0000
0000
MMMM
0000
0000
MMMM
0000
0000
1100
0100
0010
0001
1000
0000
0001
0000
0101
0001
0100
0010
1000
0000
0010
0000
,
1001
1000
0001
0100
0110
0000
0010
0000
1010
0010
1000
0001
0101
0000
0010
0000
1100
0000
0000
0000
1001
0000
0001
0000
0101
0001
0100
0010
0101
0000
1001
0000
,
1100
0000
1000
0010
0001
1000
0100
0000
0001
0000
0011
0000
0100
0000
1010
0000
,
1001
0000
1000
0100
0010
0100
1000
0001
0100
0010
0100
0001
1000
0000
1001
0000
,
0001
0000
0010
0100
1000
0100
0010
0000
0011
0000
0100
0000
1010
0000
0001
0000
,
1001
0000
0000
0000
0000
0000
1000
0000
0000
0100
0000
0000
0010
0000
0000
0001
0000
0000
1000
0000
0000
0010
0000
0000
0100
0000
0000
0000
0001
0000
0000
0000
1000
0000
0000
0000
0001
0000
0000
0000
0000
0000
1000
0000
0000
0000
0000
0000
,
2002
0000
0000
0000
0000
0000
0000
0000
0000
0010
0000
0000
0000
0000
0000
0000
0000
0000
0010
0000
3003
0000
0000
0000
,
0000
0000
0000
1110
0000
0000
1110
0000
,
0000
0000
0000
0111
0000
0000
0111
0000
,
0000
0000
0000
1011
0000
0000
1101
0000
,
0000
0000
0000
1111
0000
0000
1011
0000
,
2002
0000
0000
0000
,
0100
0000
0010
0000
3003
1000
0001
1000
0001
1000
0001
0000
0010
0000
0100
0000
,
0000
1000
0100
0010
0001
0001
1000
1000
0110
0000
0000
1000
1100
0100
0010
0001
,
1001
0000
0000
0000
0000
0000
0110
0000
0000
0000
0000
0000
0000
0000
0000
0001
0000
0000
0010
0000
0000
1000
0000
0000
0001
0000
0000
0100
0000
0000
1000
0000
0000
0000
0000
0000
0110
0000
0000
0000
0000
0000
1001
0000
0000
0000
1000
0000
,
0100
0010
0100
1000
1001
0000
0101
0001
0100
0010
0001
1000
0100
0000
0001
0000
,
1000
0000
0001
0100
0001
0000
0100
0001
0100
0000
0001
0100
0001
0000
0100
0001
,
0100
0000
0001
0100
0001
0000
0100
0001
0100
0000
0001
0100
0001
0000
0100
0001
,
1000
0000
0001
1000
0001
0000
1000
0001
1000
0000
0001
1000
0001
0000
1000
0001
,
1000
0000
0001
1000
0001
0000
1000
0001
1000
0000
0001
1000
0001
0000
1000
0001
,
0010
0100
1000
0010
0001
1000
0100
0001
,
0010
1000
0001
0100
1000
0010
0100
0001
,
1000
0100
0010
0000
0010
0100
1000
0000
1000
0001
0100
0000
0100
0001
1000
0000
,
1000
0000
0000
0000
0000
0000
0000
0000
0000
0100
0000
0000
0000
0000
0000
0000
0000
0000
0010
0000
0000
0000
0000
0000
0001
0000
0100
0000
0001
0000
0100
0000
0001
0000
0100
0000
0001
0000
0000
0000
0000
0000
0000
0000
0000
0000
0000
0000
,
1001
0000
1000
0001
0100
0000
0001
1000
0100
0000
1000
0001
0100
0000
0001
1000
,
0100
0000
1000
0001
0100
0000
0001
1000
0100
0000
1000
0001
0100
0000
0001
1000
,
0100
0000
1000
0001
0010
0000
0001
1000
0010
0000
1000
0001
0010
0000
0001
1000
,
0010
0000
1000
0001
0010
0000
0001
1000
0010
0000
1000
0001
0010
0000
0001
1000
,
0010
0000
0100
0001
1000
0000
0010
1000
0001
0000
0100
0001
1000
0000
0010
1000
,
0001
0000
0100
0001
1000
0000
0010
1000
0001
0000
0100
0001
1000
0000
0010
1000
,
0001
0000
0100
0001
1000
0000
0010
1000
0001
0000
0100
0001
1000
0000
0010
1000
,
0001
0000
0010
0001
0100
0000
0001
0100
0010
0000
0100
0010
1000
0000
0010
1000
,
0100
0000
1000
0100
0010
0000
0100
0010
0001
0000
0010
0001
1000
0000
0001
1000
,
0010
0000
1000
0010
0100
0000
0010
0100
0001
0000
0100
0001
0010
0000
0001
0010
,
0100
0000
0010
0100
1000
0000
0100
1000
0001
0000
1000
0001
0100
0000
0001
0100
,
0010
0000
1000
0100
0010
0000
0001
0100
0010
0000
1000
0100
0010
0000
0001
0100
,
0010
0100
0001
1000
0010
0100
0001
0010
,
0100
1000
0100
0010
0001
1000
0001
1000
,
0001
1000
0001
0000
1000
0001
1000
0000
0001
1000
0001
0000
1000
0001
1000
0000
,
0001
0000
0000
0000
0000
0000
0000
0000
0000
1000
0000
0000
0000
0000
0000
0000
0000
0000
0001
0000
0000
0000
0000
0000
1000
0000
0100
0000
1000
0000
0100
0000
1000
0000
0100
0000
1000
0000
0000
0000
0000
0000
0000
0000
0000
0000
0000
0000
,
1000
0000
0100
0010
0100
0000
0010
0001
0010
0000
0001
1000
0001
0000
1000
0010
,
1000
0000
0010
0100
0010
0000
0100
0001
0100
0000
0001
1000
0001
0000
1000
0010
,
1000
0000
0010
0100
0010
0000
0100
0001
0100
0000
0001
0010
0001
0000
0010
0100
,
0010
0000
0100
1000
0100
0000
1000
0001
1000
0000
0001
0100
0001
0000
1000
0100
,
0010
0000
0010
0100
1000
0000
1000
0010
0100
0000
0100
0010
1000
0000
1000
0001
,
1000
0000
0001
1000
0001
0000
0001
0100
0010
0000
0010
0100
0001
0000
0001
0010
,
0100
0000
0100
0010
0001
0000
0001
0100
0010
0000
0010
1000
0100
0000
0100
1000
,
0001
0000
0001
0100
0010
0000
0010
0100
0001
0000
0001
0010
0100
0000
1000
0000
,
0000
1000
0000
0000
0000
0000
0000
0000
0000
0000
0000
0000
0100
0000
0000
0000
0000
0000
0000
0000
0000
0000
0000
0000
1000
0000
0000
0000
0000
0000
0000
0000
0000
0000
0000
0000
0010
0000
0000
0000
0000
0000
0000
0000
0000
0000
0000
0000
0100
0000
0000
0000
0000
0000
0000
0000
0000
0000
0000
0000
0001
0000
0000
0000
0000
0000
0000
0000
0000
0000
0000
0000
0010
0000
0000
0000
0000
0000
0000
0000
0000
0000
0000
0000
0100
0000
0000
0000
0000
0000
0000
0000
0000
0000
0000
0000
0010
0000
0000
0000
0000
0000
0000
0000
0000
0000
0000
0000
0000
0000
0000
0000
0000
0000
0000
0000
0000
0000
0000
0000
0001
0000
0000
0000
0000
0000
0000
0000
0000
0000
0000
0000
0100
0000
0000
0000
0000
0000
0000
0000
0000
0000
0000
0000
0000
0000
0000
0000
0000
0000
0000
0000
0000
0000
0000
0000
0010
0000
0000
0000
0000
0000
0000
0000
0000
0000
0000
0000
1000
0000
0000
0000
0000
0000
0000
0000
0000
0000
0000
0000
0000
0000
0000
0000
0000
0000
0000
0000
0000
0000
0000
0000
,
0001
0100
0001
0100
0001
1000
0010
0100
1000
0000
1001
0MM1
M01M
0000
1MM0
0000
,
0001
0100
0010
1000
0100
1000
0010
0001
0010
0000
1100
1010
0101
0000
1001
0000
,
0010
0100
0001
0010
1000
0010
0001
0100
0010
0000
1010
10MM
M10M
MM00
0M10
0000
,
1001
0000
1000
0100
0010
0100
1000
0010
0110
0000
0000
0000
0000
0000
0000
0000
,
0000
0000
0000
0000
0000
0000
1000
0000
0100
0000
0010
0000
0001
0000
0000
1000
0000
0000
1001
0000
0000
0000
0000
0000
0000
0000
0000
0000
0000
0000
1000
0000
0010
0000
0100
0000
0001
0000
0000
1000
0000
0000
1001
0000
0000
0000
0000
0000
,
0000
0000
0000
0000
0000
0000
0001
0000
0010
0000
0001
0000
0100
0000
0000
0010
0000
0000
1000
0000
0000
0000
0000
0000
0000
0000
0000
0000
0000
0000
1000
0000
0100
0000
0001
0000
1000
0000
0000
0010
0000
0000
0001
0000
0000
1000
0000
0000
,
1001
0000
0010
0001
1000
0100
0010
0000
0000
0000
1100
0001
0101
0100
0110
0000
,
0000
0000
1000
0010
0100
0000
0001
0010
0100
1000
0100
0010
0001
0000
0011
0000
,
1100
1001
0000
0001
0100
1000
0010
0000
,
1010
0000
0101
0000
0000
0000
0001
0000
0100
0000
00M0
0000
M001
0010
0100
1000
,
1001
0001
0000
1000
0010
0001
0100
0000
,
1010
0000
0000
0110
0000
0000
0000
0000
0000
0101
0000
0000
0110
0000
0000
1010
0000
0000
1000
0000
0100
0010
0000
0100
,
1000
0000
0000
0000
0000
0000
0001
0000
0010
0000
0100
0000
1000
0000
0000
0001
0000
0000
1001
0000
0000
0000
0000
0000
0000
0000
0000
0000
0000
0000
0001
0000
0100
0000
0010
0000
1000
0000
0000
0001
0000
0000
1001
0000
0000
0000
0000
0000
,
0000
0000
0000
0000
0000
0000
1000
0000
0100
0000
1000
0000
0010
0000
0000
0100
0000
0000
0001
0000
0000
0000
0000
0000
0000
0000
0000
0000
0000
0000
0001
0000
0010
0000
1000
0000
0001
0000
0000
0100
0000
0000
1000
0000
0000
0001
0000
0000
,
1000
0000
0001
0010
0100
0000
1000
0010
0100
0001
0100
0010
1000
0000
0000
0000
,
1000
0100
0010
0001
1000
0010
0100
0001
0100
0010
1000
0001
0010
0100
1000
0001
,
1000
0001
0000
0000
0000
0000
0000
0000
0000
0000
0000
0000
0100
0000
0000
0000
0000
0000
0000
0000
0000
0000
0000
0000
0010
0000
0000
0000
0000
0000
0000
0000
0000
0000
0000
0000
1000
0000
0000
0000
0000
0000
0000
0000
0000
0000
0000
0000
0100
0000
0000
0000
0000
0000
0000
0000
0000
0000
0000
0000
0010
0000
0000
0000
0000
0000
0000
0000
0000
0000
0000
0000
0100
0000
0000
0000
0000
0000
0000
0000
0000
0000
0000
0000
1000
0000
0000
0000
0000
0000
0000
0000
0000
0000
0000
0000
0000
0000
0000
0000
0000
0000
0000
0000
0000
0000
0000
0000
0000
0000
0000
0000
0000
0000
0000
0000
0000
0000
0000
0000
1000
0000
0000
0000
0000
0000
0000
0000
0000
0000
0000
0000
0001
0000
0000
0000
0000
0000
0000
0000
0000
0000
0000
0000
1000
0000
0000
0000
0000
0000
0000
0000
0000
0000
0000
0000
0000
0000
0000
0000
0000
0000
0000
0000
0000
0000
0000
0000
0000
0000
0000
0000
0000
0000
0000
0000
0000
0000
0000
0000
0000
0000
0000
0000
0000
0000
0000
0000
0000
0000
0000
0000
,
1000
0010
0100
0010
1000
0100
0010
0001
0000
0000
0010
0100
1000
0000
0000
0000
,
0100
0010
0001
0100
0010
1000
0010
0100
0000
0000
0100
0001
1000
0000
0000
0000
,
1000
0100
0010
0001
1000
0100
0010
0001
0000
0000
0010
0100
1000
0000
0000
0000
,
1000
0001
0100
0010
0100
0001
1000
0001
0000
0000
0001
1000
0001
0000
0000
0000
,
1000
0010
0001
1000
0100
0001
0010
0100
0000
0000
1000
0010
0100
0000
0000
0000
,
1000
0100
0001
0100
1000
0010
0001
0010
0000
0000
1000
0010
0100
0000
0000
0000
,
0001
0000
0010
0010
0010
0000
0100
0100
1000
0010
0100
0001
1001
0000
0110
0000
,
1000
0010
0100
0010
1000
0100
0010
0001
0000
0000
0010
0100
1000
0000
0000
0000
,
0100
0010
0001
0100
0010
1000
0010
0100
0000
0000
0100
0001
1000
0000
0000
0000
,
1000
0100
0010
0001
1000
0100
0010
0001
0000
0000
0010
0100
1000
0000
0000
0000
,
1000
0001
0100
0010
0100
0001
1000
0001
0100
0010
1000
0001
1000
0000
0001
0000
,
0000
0000
0000
0000
0000
0000
0000
0000
0000
1000
0100
0010
0000
0000
0000
0000
0000
0001
1000
0001
1000
0000
0001
0000
0000
0000
1001
0000
0000
1000
0100
0010
,
0100
0000
0000
0000
0000
0000
1000
0000
0000
0000
0000
0000
0010
0000
0000
0000
0000
0000
0100
0000
0000
0000
0000
0000
0001
0000
0000
0000
0000
0000
0000
0000
0000
0000
0000
0000
0010
0000
0000
0000
0000
0000
0000
0000
0000
0000
0000
0000
0000
0000
0000
0000
0000
0000
0000
0000
0000
0000
0000
0000
1001
0000
0000
0000
0000
0000
0000
0000
0000
0000
0000
0000
0000
0000
0000
0000
0000
0000
1000
0000
0000
0000
0000
0000
0100
0000
0000
0000
0000
0000
1000
0000
0000
0000
0000
0000
0010
0000
0000
0000
0000
0000
0001
0000
0000
0000
0000
0000
1000
0000
0000
0000
0000
0000
0100
0000
0000
0000
0000
0000
0001
0000
0000
0000
0000
0000
0000
0000
0000
0000
0000
0000
1001
0000
0000
0000
0000
0000
0000
0000
0000
0000
0000
0000
1000
0000
0000
0000
0000
0000
0000
0000
0100
0000
0000
0000
0000
0000
0000
0000
0010
0000
0000
0000
0000
0000
0000
0000
0001
0000
0000
0000
0000
0000
0000
0000
0010
0000
0000
0000
0000
0000
0000
0000
1100
0000
0000
0000
0000
0000
0000
0000
;
