#TITLE:Fleeting Ecstasy;
#SUBTITLE:Super Mario 64;
#ARTIST:chthonic;
#TITLETRANSLIT:;
#SUBTITLETRANSLIT:;
#ARTISTTRANSLIT:;
#CREDIT:;
#BANNER:Fleeting Ecstasy.jpg;
#BACKGROUND:Fleeting Ecstasy-bg.jpg;
#LYRICSPATH:;
#CDTITLE:!gloveTitle.png;
#MUSIC:Fleeting Ecstasy.mp3;
#OFFSET:-1.620;
#SAMPLESTART:57.379;
#SAMPLELENGTH:12.000;
#SELECTABLE:YES;
#BPMS:0.000=126.000;
#STOPS:;
#BGCHANGES:;
// cache tags:
#FIRSTBEAT:4.500;
#LASTBEAT:196.500;
#SONGFILENAME:Songs/VGMP 2/Fleeting Ecstasy (GLoVE)/Fleeting Ecstasy.sm;
#HASMUSIC:1;
#HASBANNER:1;
#MUSICLENGTH:100.022;
// end cache tags

//---------------dance-single - ----------------
#NOTES:
     dance-single:
     :
     Hard:
     10:
     0.913,1.000,0.730,1.000,0.735,395.000,73.000,171.000,0.000,20.000:

0000
0000
0000
0000
,
0000
0000
0000
0000
0000
0000
0000
0000
0002
0003
0020
0000
0000
0000
0000
0000
0230
0300
2000
0000
0000
0000
0000
0000
3002
0003
0020
0000
0000
0000
0000
0000
0230
0300
2000
0000
0000
0000
0000
0000
3020
0030
0200
0000
0000
0000
0000
0000
0302
0003
2000
0000
0000
0000
0000
0000
3000
0000
0000
0000
0000
0000
0000
0000
,
0000
0000
0000
0000
0000
0000
0000
0000
0110
0000
0010
0000
1000
0000
0100
0001
,
0000
0100
0001
0000
0000
1000
0011
0100
1010
0000
0010
0000
1000
0000
0100
0001
,
0000
0100
0001
0000
1000
0000
0110
0000
0011
0000
0010
0000
1000
0000
0100
0001
,
0000
0100
0001
0000
0000
0100
0011
0100
1010
0000
0010
0000
1000
0000
0100
0001
,
0000
0100
0001
0000
1000
0000
0110
0000
0011
0000
0010
0001
1000
0000
1100
0001
,
0000
0100
1001
0000
0010
0100
0001
0100
1010
0000
0010
0001
1000
0000
1100
0001
,
0000
0100
1001
0000
1000
0100
1010
0001
1010
0000
0010
0001
1000
0000
1100
0001
,
0000
0000
0000
0000
0000
0000
0000
0000
0000
0000
0000
0000
0100
0000
0000
0000
0000
0000
0000
0000
0000
0000
0000
0000
1001
0000
0000
0000
0000
0000
0000
0000
0000
0000
0000
0000
0000
0000
0000
0000
0000
0000
0000
0000
0000
0000
0000
0000
0010
0000
0000
0000
0000
0000
0000
0000
0000
0000
0000
0000
0100
0000
0000
0000
0000
0000
0000
0000
0000
0000
0000
0000
0001
0000
0000
0000
0000
0000
0000
0000
0000
0000
0000
0000
0100
0000
0000
0000
0000
0000
0000
0000
0000
0000
0000
0000
1010
0000
0000
0000
0000
0000
0000
0000
0000
0000
0000
0000
0000
0000
0000
0000
0000
0000
0000
0000
0000
0000
0000
0000
0010
0000
0000
0000
0000
0000
0000
0000
0000
0000
0000
0000
0000
0000
0000
0000
0000
0000
0000
0000
0000
0000
0000
0000
2100
0000
0000
0000
0000
0000
0000
0000
0000
0000
0000
0000
3020
0000
0000
0000
0000
0000
0000
0000
0000
0000
0000
0000
2031
0000
0000
0000
0000
0000
3200
0000
0000
0000
0000
0000
1320
0000
0000
0000
0000
0000
0000
0000
0030
0000
0000
0000
,
0002
0000
0000
0100
0000
0000
0010
0000
0000
0000
0000
0000
0200
0300
0000
0003
0000
0000
0001
0000
0000
0000
0000
0000
0210
0300
0000
0000
0000
0000
0011
0000
0000
0100
0000
0000
1001
0000
0000
0000
0000
0000
1100
0000
0000
0011
0000
0000
,
1000
0100
1001
0010
0000
0100
0011
1000
0110
0000
0011
0100
1001
0000
1100
0011
,
1000
0100
1001
0010
0000
0100
0011
1000
0110
0000
0011
0100
1001
0000
1100
0011
,
1000
0100
1001
0010
0000
0100
0011
1000
0110
0000
0011
0100
1001
0000
1010
0101
,
0010
0110
1001
0100
2000
0001
3210
0001
1320
0000
0000
0000
0000
0000
0000
0000
,
0000
0032
0023
0000
,
0000
0000
2030
3200
0320
0000
0000
0000
,
0000
0032
0023
0000
,
0000
0000
0000
0000
2030
0000
3200
0000
0321
0000
0001
0000
0001
0000
1230
0001
,
0000
1000
0001
0300
2000
0000
3012
0000
0123
0000
0100
0000
0100
0000
1000
0001
,
0000
0000
0000
1000
0000
0000
0001
0000
0000
0000
0000
0000
0230
0000
2300
0000
3000
0000
0210
0000
2300
0000
3000
0000
0021
0000
0000
0000
0000
0000
0001
0000
0000
0000
0000
0000
0001
0000
0000
0000
0000
0000
1032
0000
0000
0010
0000
0000
,
0000
1000
0010
0000
0023
0000
2031
0000
3210
0000
0010
0000
0010
0000
1000
0001
,
0000
1000
0001
0000
0000
0000
2310
3200
0321
0000
0001
0000
0001
0000
1000
0001
,
0000
1000
0132
0000
0000
0000
0010
0000
0123
0000
0100
0000
0100
0000
1000
0001
,
0000
0000
0000
1000
0000
0000
0001
0000
0000
0000
0000
0000
0230
0000
2300
0000
3000
0000
0210
0000
2300
0000
3000
0000
0021
0000
0000
0000
0000
0000
0001
0000
0000
0000
0000
0000
0001
0000
0000
0000
0000
0000
1230
0000
0000
0001
0000
0000
,
0000
0010
2301
0000
3002
0000
1203
0000
0321
0000
0000
0000
0000
0000
0000
0000
,
0000
0000
0000
0000
2030
0000
3200
0000
0321
0000
0031
0000
0001
0000
0100
0001
,
0000
0001
0000
0100
0001
0100
0001
0000
0010
0000
0010
0000
0010
0000
0100
0001
,
0000
0001
0000
1000
0010
1000
0010
0000
0001
0000
0001
0000
0001
0000
0100
0001
,
0000
0001
0000
0100
0001
0100
0001
0000
0010
0000
0010
0000
0010
0000
0100
0001
,
0000
0000
2000
3000
0200
0300
0020
0030
0002
0003
0020
0030
0200
0300
2000
3000
0200
0300
0000
0000
2000
3000
0200
0300
0000
0000
2000
3000
0200
0300
0000
0000
,
0020
0000
0030
0000
0000
0000
0000
0000
0002
0000
0000
0000
0003
0000
0000
0000
0020
0000
0000
0000
0030
0000
0000
0000
0200
0000
0000
0000
0300
0000
0000
0000
2000
0000
0000
0000
3000
0000
0000
0000
0002
0003
0020
0030
0200
0300
2000
3000
0000
0000
0000
0000
0000
0000
0000
0000
0000
0000
0000
0000
0000
0000
0000
0000
,
0000
0000
0000
0000
0200
0300
2000
3000
0020
0030
0002
0000
0000
0000
0000
0003
0000
0000
0200
0300
0020
0030
0002
0003
0200
0300
2000
3000
0020
0030
0200
0300
,
0002
0003
0020
0030
0200
0300
2000
3000
0020
0030
2000
3000
0200
0300
0020
0030
0002
0000
0000
0000
0000
0000
0000
0000
0000
0000
0000
0000
0000
0000
0000
0000
,
0000
0000
0000
0000
0003
0000
0200
0320
0030
0000
0000
0200
0320
0030
0000
0000
0200
0000
0000
0000
0000
0000
0000
0000
0000
0000
0000
0300
0020
0030
0000
0000
,
0000
0000
0000
0000
0200
0300
0000
0000
0000
0000
2000
3200
0320
0030
0200
0320
0032
0000
0000
0000
0000
0000
0000
0000
0000
0000
0000
0003
0200
0300
0000
0000
,
0000
0000
0000
0000
0200
0000
0300
0000
2000
3200
0320
0032
0203
0320
2030
3200
0302
0000
0000
0000
0000
0000
0000
0000
0000
0000
0000
0003
2000
3000
0000
0000
,
0000
0000
0000
0000
2000
3000
0000
0000
0000
0000
0000
0000
2000
3000
0200
0320
0032
0000
0000
0000
0000
0000
0000
0000
0000
0000
0000
0000
0000
0000
0000
0000
,
0000
0000
0000
0000
0000
0000
0000
0000
0000
0003
0000
0000
2000
3000
0200
0300
0020
0000
0000
0000
0000
0000
0000
0000
0000
0030
0000
0000
0000
0000
0000
0000
,
0000
0000
0000
0000
,
0000
0000
0200
0300
0020
0030
2000
3000
0020
0030
0200
0300
2000
3000
0200
0300
0020
0000
0000
0000
0000
0000
0000
0000
0000
0030
0000
0000
0000
0000
0000
0000
,
0000
0000
0000
0000
0000
0000
0000
0000
0000
0000
0000
0000
0000
0000
0000
0000
0000
0000
0002
0003
0000
0000
0020
0030
0000
0000
0200
0300
0000
0000
2000
3000
,
0000
0000
0200
0300
0000
0000
2000
3000
0200
0300
0020
0030
0002
0203
2300
3000
0020
0000
0000
0000
0000
0030
0000
0000
0000
0000
0000
0000
0000
0000
0000
0000
,
0000
0000
0000
0000
0000
0000
0000
0000
2000
0000
3000
0000
0200
0000
0300
0000
0020
0000
0000
0000
0000
0000
0000
0000
0000
0000
0000
0000
0000
0030
0000
0000
,
0000
0000
0000
0000
0000
0000
0000
0000
2000
0000
0000
3000
0200
0000
0000
0300
0020
0000
0000
0000
0000
0000
0000
0030
0200
0000
0300
0000
0020
0000
0030
0000
,
0002
0000
0000
0000
0003
0000
0000
0000
2000
0000
3000
0000
0200
0000
0300
0000
0020
0000
0000
0000
0000
0000
0000
0000
0000
0000
0000
0000
0000
0000
0000
0030
,
0000
0000
0000
0000
0000
0000
0000
0000
0000
0000
0000
0000
0012
0003
0000
0000
0100
0000
0000
0000
0100
0000
0000
0000
0100
0000
0000
0000
1000
0000
0001
0000
,
0000
1000
0001
0000
0000
0000
0001
0000
0010
0000
0010
0000
0010
0000
1000
0001
,
0000
1000
0001
0000
0000
0000
0100
0000
0010
0000
0010
0000
0010
0000
1000
0001
,
0000
1000
0001
0000
0000
0000
0000
0000
0000
0000
0000
0000
0000
0000
0000
0000
;

//---------------dance-single - Copied from----------------
#NOTES:
     dance-single:
     Copied from:
     Challenge:
     11:
     1.000,1.000,1.000,1.000,0.800,458.000,114.000,181.000,0.000,29.000:




0000
0000
0000
0000
,
0000
0000
0000
0000
0000
0000
0000
0000
0002
0003
0020
0000
0000
0000
0000
0000
0230
0300
2000
0000
0000
0000
0000
0000
3002
0003
0020
0000
0000
0000
0000
0000
0230
0300
2000
0000
0000
0000
0000
0000
3020
0030
0200
0000
0000
0000
0000
0000
0302
0003
2000
0000
0000
0000
0000
0000
3000
0000
0000
0000
0000
0000
0000
0000
,
0000
0000
0000
0000
0000
0000
0000
0000
1210
0300
0010
0000
1000
0000
0100
0001
,
0000
0100
0001
0000
0000
1000
0011
0100
1012
0003
0010
0000
1000
0000
0100
0001
,
0000
0100
0001
0000
1000
0000
0110
0000
0211
0300
0010
0000
1000
0000
0100
0001
,
0000
0100
0001
0000
0000
0100
0011
0100
1012
0003
0010
0000
1000
0000
0100
0001
,
0000
0100
0001
0000
1000
0000
0110
0000
2011
3000
0010
0001
1000
0000
1100
0001
,
0000
0100
1001
0000
0010
0100
0001
0100
1010
0000
0010
0001
1000
0000
1100
0001
,
0000
0100
1001
0000
1000
0100
1010
0001
1010
0000
0010
0001
1000
0000
1100
0001
,
0000
0000
0000
0000
0000
0000
0000
0000
0000
0000
0000
0000
0100
0000
0000
0000
0000
0000
0000
0000
0000
0000
0000
0000
1001
0000
0000
0000
0000
0000
0000
0000
0000
0000
0000
0000
0000
0000
0000
0000
0000
0000
0000
0000
0000
0000
0000
0000
0010
0000
0000
0000
0000
0000
0000
0000
0000
0000
0000
0000
0100
0000
0000
0000
0000
0000
0000
0000
0000
0000
0000
0000
0001
0000
0000
0000
0000
0000
0000
0000
0000
0000
0000
0000
0100
0000
0000
0000
0000
0000
0000
0000
0000
0000
0000
0000
1010
0000
0000
0000
0000
0000
0000
0000
0000
0000
0000
0000
0000
0000
0000
0000
0000
0000
0000
0000
0000
0000
0000
0000
0010
0000
0000
0000
0000
0000
0000
0000
0000
0000
0000
0000
0000
0000
0000
0000
0000
0000
0000
0000
0000
0000
0000
0000
2100
0000
0000
0000
0000
0000
0000
0000
0000
0000
0000
0000
3020
0000
0000
0000
0000
0000
0000
0000
0000
0000
0000
0000
2031
0000
0000
0000
0000
0000
3200
0000
0000
0000
0000
0000
1320
0000
0000
0000
0000
0000
0000
0000
0030
0000
0000
0000
,
0002
0100
0010
0000
0200
0303
0001
0000
1210
0300
0011
0100
1001
0000
1100
0011
,
1000
0100
1001
0010
0000
0100
0011
1000
0110
0000
0011
0100
1001
0000
1100
0011
,
1000
0100
1001
0010
0000
0100
0011
1000
0110
0000
0011
0100
1001
0000
1100
0011
,
1000
0100
1001
0010
0000
0100
0011
1000
0110
0000
0011
0100
1001
0000
1010
0101
,
0010
0000
0110
0000
1001
0000
0100
0000
2000
0000
0001
3000
1210
0000
0001
0000
2320
0000
3000
0000
0000
0000
0000
0000
0000
0000
0000
0000
0000
0000
0000
0000
,
0000
0032
0023
0000
,
0000
0000
2030
3200
0320
0000
0000
0000
,
0000
0032
0023
0000
,
0000
0000
0000
0000
2030
0000
3200
0000
2321
3000
0001
0000
0001
0000
1230
0001
,
0000
1000
0001
0300
2000
0000
3012
0000
0123
0000
0100
0000
0100
0000
1000
0001
,
0000
0000
0000
1000
0000
0000
0001
0000
0000
0000
0000
0000
0230
0000
2300
0000
3000
0000
0210
0000
2300
0000
3000
0000
0021
0000
0000
0000
0000
0000
0001
0000
0000
0000
0000
0000
0001
0000
0000
0000
0000
0000
1032
0000
0000
0010
0000
0000
,
0000
1000
0010
0000
0023
0000
2031
0000
3210
0000
0010
0000
0010
0000
1000
0001
,
0000
1000
0001
0000
0000
0000
2310
3200
2321
3000
0001
0000
0001
0000
1000
0001
,
0000
1000
0132
0000
0000
0000
0010
0000
0123
0000
0100
0000
0100
0000
1000
0001
,
0000
0000
0000
1000
0000
0000
0001
0000
0000
0000
0000
0000
0230
0000
2300
0000
3000
0000
0210
0000
2300
0000
3000
0000
0021
0000
0000
0000
0000
0000
0001
0000
0000
0000
0000
0000
0001
0000
0000
0000
0000
0000
1230
0000
0000
0001
0000
0000
,
0000
0010
2301
0000
3002
0000
1203
0000
2321
3000
0000
0000
0000
0000
0000
0000
,
0000
0000
0000
0000
2030
0000
3200
0000
2321
3000
0031
0000
0011
0000
0100
0001
,
1000
0001
0000
0100
0011
0100
0001
0000
1010
0000
0010
0000
0011
0000
0100
0001
,
0000
0001
0000
1000
0110
1000
0010
0000
0101
0000
0001
0000
1001
0000
0100
0001
,
0010
0001
0000
0100
1001
0100
0001
0000
0110
0000
0010
0000
1010
0000
0100
0001
,
0000
0000
2000
3000
0200
0300
0020
0030
0002
0003
0020
0030
0200
0300
2000
3000
0210
0300
0000
0000
2000
3000
0200
0300
0001
0000
2000
3000
0200
0300
0000
0000
,
1020
0030
0000
0000
0002
0000
0003
0000
0120
0000
0030
0000
0200
0000
0300
0000
2010
0000
3000
0000
0002
0023
0230
2300
3001
0000
0000
0000
0000
0000
0000
0000
,
0100
0000
0000
0000
0200
0300
2000
3000
0120
0030
0002
0000
0000
0000
0000
0003
1000
0000
0200
0300
0020
0030
0002
0003
0210
0300
2000
3000
0020
0030
0200
0300
,
1002
0003
0020
0030
0200
0300
2000
3000
0021
0030
2000
3000
0200
0300
0020
0030
1002
0000
0000
0000
0000
0000
0000
0000
0010
0000
0000
0000
0000
0000
0000
0000
,
1000
0000
0000
0000
0003
0000
0200
0320
0031
0000
0000
0200
0320
0030
0000
0000
1200
0000
0000
0000
0000
0000
0000
0000
0001
0000
0000
0300
0020
0030
0000
0000
,
1000
0000
0000
0000
0200
0300
0000
0000
0010
0000
2000
3200
0320
0030
0200
0320
1032
0000
0000
0000
0000
0000
0000
0000
0010
0000
0000
0003
0200
0300
0000
0000
,
1000
0000
0000
0000
0200
0000
0300
0000
2010
3200
0320
0032
0203
0320
2030
3200
0312
0000
0000
0000
0000
0000
0000
0000
0100
0000
0000
0003
2000
3000
0000
0000
,
0010
0000
0000
0000
2000
3000
0000
0000
0001
0000
0000
0000
2000
3000
0200
0320
1032
0000
0000
0000
0000
0000
0000
0000
0000
0000
0000
0000
0000
0000
0000
0000
,
0000
0000
0000
0000
0000
0000
0000
0000
0000
0003
0000
0000
2000
3000
0200
0300
0021
0000
0000
0000
0001
0000
0000
0000
0001
0030
0000
0000
1000
0000
0001
0000
,
0000
1000
0001
0000
0000
0000
0001
0000
0010
0000
0010
0000
0010
0000
0100
0001
,
0000
0000
1200
0300
0021
0030
2000
3000
0020
0030
0200
0300
2010
3000
0200
0300
0021
0000
0000
0000
0001
0000
0000
0000
0001
0030
0000
0000
0100
0000
0001
0000
,
0000
0000
0100
0000
0001
0000
0000
0000
0000
0000
0000
0000
0100
0000
0000
0000
1000
0000
0002
0003
1000
0000
0020
0030
1000
0000
0200
0300
0010
0000
2001
3000
,
0000
0000
0210
0300
0001
0000
2000
3000
0200
0300
0020
0030
1002
0203
2300
3000
0120
0000
0000
0000
0100
0030
0000
0000
0100
0000
0000
0000
0010
0000
0001
0000
,
0000
0000
0010
0000
0001
0000
0000
0000
2000
0000
3000
0000
0201
0000
0300
0000
0120
0000
0000
0000
0100
0000
0000
0000
0100
0000
0000
0000
1000
0030
0001
0000
,
0000
0000
1000
0000
0001
0000
0000
0000
2000
0000
0000
3000
0210
0000
0000
0300
0021
0000
0000
0000
0001
0000
0000
0030
0201
0000
0300
0000
1020
0000
0130
0000
,
0002
0000
1000
0000
0103
0000
0000
0000
2000
0000
3000
0000
0201
0000
0300
0000
0120
0000
0000
0000
0100
0000
0000
0000
0100
0000
0000
0000
1000
0000
0001
0030
,
0000
0000
1000
0000
0001
0000
0000
0000
0000
0000
0000
0000
0012
0003
0000
0000
0100
0000
0000
0000
0100
0000
0000
0000
0100
0000
0000
0000
1000
0000
0001
0000
,
0000
1000
0001
0000
0000
0000
0001
0000
0010
0000
0010
0000
0010
0000
1000
0001
,
0000
1000
0001
0000
0000
0000
0100
0000
0010
0000
0010
0000
0010
0000
1000
0001
,
0000
1000
0001
0000
0000
0000
0000
0000
0000
0000
0000
0000
0000
0000
0000
0000
;

//---------------dance-single - Copied from----------------
#NOTES:
     dance-single:
     Copied from:
     Edit:
     13:
     1.000,1.000,1.000,1.000,1.000,525.000,206.000,181.000,0.000,90.000:




0000
0000
0000
0000
,
0000
0000
0000
0000
0000
0000
0000
0000
0020
0030
0020
0000
0000
0000
0000
0000
0230
0300
0200
0000
0000
0000
0000
0000
0320
0030
0020
0000
0000
0000
0000
0000
0230
0300
0200
0000
0000
0000
0000
0000
0320
0030
0020
0000
0000
0000
0000
0000
2030
3000
2000
0000
0000
0000
0000
0000
3000
0000
0000
0000
0000
0000
0000
0000
,
0000
0000
0000
0000
0000
0000
0000
0000
0210
0300
0010
0000
1000
0000
0100
0001
,
0000
0100
0001
0000
0000
1000
0011
0100
1012
0003
0010
0000
1000
0000
0100
0001
,
0000
0100
0001
0000
1000
0000
0110
0000
0211
0300
0010
0000
1000
0000
0100
0001
,
0000
0100
0001
0000
0000
0100
0011
0100
1012
0003
0010
0000
1000
0000
0100
0001
,
0000
0100
0001
0000
1000
0000
0110
0000
2011
3000
0010
0001
1000
0000
1100
0001
,
0000
0100
1001
0000
0010
0100
0001
0100
1010
0000
0010
0001
1000
0000
1100
0001
,
0000
0100
1001
0000
1000
0100
1010
0001
1010
0000
0010
0001
1000
0000
1100
0001
,
0000
0000
0000
0000
0000
0000
0000
0000
0000
0000
0000
0000
0100
0000
0000
0000
0000
0000
0000
0000
0000
0000
0000
0000
1001
0000
0000
0000
0000
0000
0000
0000
0000
0000
0000
0000
0000
0000
0000
0000
0000
0000
0000
0000
0000
0000
0000
0000
0010
0000
0000
0000
0000
0000
0000
0000
0000
0000
0000
0000
0100
0000
0000
0000
0000
0000
0000
0000
0000
0000
0000
0000
0001
0000
0000
0000
0000
0000
0000
0000
0000
0000
0000
0000
0100
0000
0000
0000
0000
0000
0000
0000
0000
0000
0000
0000
1010
0000
0000
0000
0000
0000
0000
0000
0000
0000
0000
0000
0000
0000
0000
0000
0000
0000
0000
0000
0000
0000
0000
0000
0010
0000
0000
0000
0000
0000
0000
0000
0000
0000
0000
0000
0000
0000
0000
0000
0000
0000
0000
0000
0000
0000
0000
0000
2100
0000
0000
0000
0000
0000
0000
0000
0000
0000
0000
0000
3020
0000
0000
0000
0000
0000
0000
0000
0000
0000
0000
0000
2031
0000
0000
0000
0000
0000
3200
0000
0000
0000
0000
0000
1320
0000
0000
0000
0000
0000
0000
0000
0030
0000
0000
0000
,
0002
0100
0010
0000
0200
0303
0001
0000
1211
0300
0011
0110
1001
0000
1110
0011
,
1000
0010
1101
0010
0100
1010
0101
0110
1110
0000
0011
0110
1001
0000
1110
0011
,
1000
0010
1101
0010
1000
1100
0111
1010
0111
0000
0011
0110
1001
0000
1110
0011
,
1000
0010
1101
0010
0001
1100
0011
1100
1110
0000
0011
0110
1001
0000
1110
0101
,
0010
0000
0110
0000
1101
0000
0010
0000
2100
0000
0011
3000
1211
0000
0011
0000
2321
0000
3000
0000
0000
0000
0000
0000
0000
0000
0000
0000
0000
0000
0000
0000
,
0000
0032
0023
0000
,
0000
0000
2030
3200
0320
0000
0000
0000
,
0000
0032
0023
0000
,
0000
0000
0000
0000
0000
0000
0000
0000
2030
0000
0000
0000
3200
0000
0000
0300
2121
0000
3000
0000
0001
0000
0100
0000
0001
0000
0000
0030
1210
0000
0001
0000
,
0000
0000
1000
0000
0011
0000
0300
0000
2001
0000
0100
0000
3012
0000
0100
0003
1021
0000
0000
0000
0100
0000
0001
0000
0100
0000
0000
0000
1100
0000
0001
0000
,
0000
0000
0000
0000
0000
0000
0000
0000
0000
0000
0000
0000
1000
0000
0000
0000
0000
0000
0000
0000
0000
0000
0000
0000
0101
0000
0000
0000
0000
0000
0000
0000
0000
0000
0000
0000
0000
0000
0000
0000
0000
0000
0030
0000
0000
0000
0000
0000
0210
0000
0000
0000
0000
0000
0000
0000
2300
0000
0000
0000
0100
0000
0000
0000
3000
0000
0000
0000
0000
0000
0000
0000
0211
0000
0000
0000
0000
0000
0000
0000
2300
0000
0000
0000
0100
0000
0000
0000
3000
0000
0000
0000
0000
0000
0000
0000
1021
0000
0000
0000
0000
0000
0000
0000
0000
0000
0000
0000
0000
0000
0000
0000
0000
0000
0000
0000
0000
0000
0000
0000
0001
0000
0000
0000
0000
0000
0000
0000
0000
0000
0000
0000
0100
0000
0000
0000
0000
0000
0000
0000
0000
0000
0000
0000
0001
0000
0000
0000
0000
0000
0000
0000
0000
0000
0000
0000
0000
0000
0000
0000
0000
0000
0000
0000
0000
0000
0000
0000
1132
0000
0000
0000
0000
0000
0000
0000
0000
0000
0000
0000
0010
0000
0000
0000
0000
0000
0000
0000
0000
0000
0000
0000
,
0000
0000
1000
0000
0110
0000
0000
0000
1023
0000
0100
0000
2031
0000
0010
3000
1201
0000
0000
0000
0010
0000
0001
0000
0010
0000
0000
0000
1010
0000
0001
0000
,
0000
0000
1000
0000
0011
0000
0000
0000
1000
0000
0010
0300
2101
3000
0210
0300
2121
3000
0000
0000
0001
0000
0100
0000
0001
0000
0000
0000
1100
0000
0001
0000
,
0000
0000
1000
0030
0112
0000
0000
0000
0010
0000
0100
0000
0010
0000
0100
0003
1021
0000
0000
0000
0100
0000
0001
0000
0100
0000
0000
0000
1100
0000
0001
0000
,
0000
0000
0000
0000
0000
0000
0000
0000
0000
0000
0000
0000
1000
0000
0000
0000
0000
0000
0000
0000
0000
0000
0000
0000
0101
0000
0000
0000
0000
0000
0000
0000
0000
0000
0000
0000
0000
0000
0000
0000
0000
0000
0000
0000
0000
0000
0000
0000
0231
0000
0000
0000
0000
0000
0000
0000
2300
0000
0000
0000
0010
0000
0000
0000
3000
0000
0000
0000
0000
0000
0000
0000
0211
0000
0000
0000
0000
0000
0000
0000
2300
0000
0000
0000
0100
0000
0000
0000
3000
0000
0000
0000
0000
0000
0000
0000
1021
0000
0000
0000
0000
0000
0000
0000
0000
0000
0000
0000
0000
0000
0000
0000
0000
0000
0000
0000
0000
0000
0000
0000
0001
0000
0000
0000
0000
0000
0000
0000
0000
0000
0000
0000
0100
0000
0000
0000
0000
0000
0000
0000
0000
0000
0000
0000
0001
0000
0000
0000
0000
0000
0000
0000
0000
0000
0000
0000
0000
0000
0000
0000
0000
0000
0030
0000
0000
0000
0000
0000
1210
0000
0000
0000
0000
0000
0000
0000
0000
0000
0000
0000
0001
0000
0000
0000
0000
0000
0000
0000
0000
0000
0000
0000
,
0000
0000
0010
0300
2101
0000
0000
0000
3102
0000
0010
0000
1203
0000
0010
0300
2121
0000
3000
0000
0000
0000
0000
0000
0000
0000
0000
0000
0000
0000
0000
0000
,
0000
0000
0000
0000
0000
0000
0000
0000
2130
0000
0000
0000
3210
0000
0000
0300
2121
0000
3000
0000
0031
0000
0000
0000
0011
0000
0000
0000
0100
0000
0001
0000
,
1000
0001
0000
0100
0011
0100
0001
0000
1010
0000
0010
0000
0011
0000
0100
0001
,
0000
0001
0000
1000
0110
1000
0010
0000
0101
0000
0001
0000
1001
0000
0100
0001
,
0010
0001
0000
0100
1001
0100
0001
0000
0110
0000
0010
0000
1010
0000
0100
0001
,
0000
0000
2000
3000
0200
0300
0020
0030
0002
0003
0020
0030
0200
0300
2000
3000
0211
0300
0000
0000
2000
3000
0210
0300
0001
0000
2000
3000
0210
0300
0000
0000
,
1020
0030
0000
0000
0102
0000
0003
0000
0121
0000
1030
0000
0200
0000
0301
0000
2110
0000
3000
0000
0002
0023
0231
2300
3010
0000
0000
0000
0010
0000
0000
0000
,
0100
0000
0000
0000
0210
0300
2000
3000
1120
0030
0102
0000
0010
0000
0100
0003
1010
0000
0200
0300
0020
0030
1002
0003
0210
0300
2000
3000
0021
0030
0200
0300
,
1002
0003
0020
0030
0201
0300
2000
3000
0121
0030
2010
3000
0200
0300
0120
0030
1012
0000
0000
0000
0000
0000
0100
0000
0010
0000
0000
0000
1000
0000
0000
0000
,
0100
0000
0000
0000
1003
0000
0200
0320
1031
0000
0010
0200
0321
0030
0010
0000
1201
0000
0000
0000
0000
0000
0010
0000
0001
0000
0000
0300
0120
0030
0000
0000
,
1000
0000
0000
0000
0210
0300
0000
0000
0110
0000
2001
3200
0320
0030
0201
0320
1132
0000
0000
0000
0000
0000
0100
0000
0010
0000
0000
0003
0210
0300
0000
0000
,
1000
0000
0000
0000
0210
0000
0300
0000
2001
3200
1320
0032
1203
0320
2031
3200
1312
0000
0000
0000
0000
0000
0010
0000
0100
0000
0000
0003
2100
3000
0000
0000
,
0010
0000
0000
0000
2100
3000
0000
0000
0011
0000
0100
0000
2000
3000
0201
0320
1132
0000
0000
0000
0000
0000
0000
0000
0000
0000
0000
0000
0000
0000
0000
0000
,
0000
0000
0000
0000
0000
0000
0000
0000
0003
0000
0000
0000
2000
3000
0200
0300
1021
0000
0000
0000
0001
0000
0100
0000
0001
0030
0000
0000
1100
0000
0001
0000
,
0000
1000
0101
0000
0000
0100
0001
0100
1010
0000
0010
0001
0010
0000
0110
0001
,
0000
0000
1200
0300
0121
0030
2000
3000
1020
0030
0210
0300
2011
3000
0210
0300
1021
0000
0000
0000
0001
0000
0100
0000
0001
0030
0000
0000
1100
0000
0001
0000
,
0000
0000
0100
0000
1001
0000
0000
0000
0000
0000
0010
0000
0100
0000
0010
0000
1100
0000
0002
0003
1000
0000
0021
0030
1000
0000
0200
0300
0110
0000
2001
3000
,
0000
0000
0210
0300
0101
0000
2000
3000
1200
0300
0120
0030
1012
0203
2301
3000
1120
0000
0000
0000
0100
0030
0001
0000
0100
0000
0000
0000
1010
0000
0001
0000
,
0000
0000
0010
0000
1001
0000
0000
0000
2000
0000
3010
0000
0201
0000
1300
0000
0121
0000
0000
0000
0100
0000
0001
0000
0100
0000
0000
0000
1100
0030
0001
0000
,
0000
0000
1000
0000
0101
0000
0000
0000
2101
0000
0010
3000
1201
0000
0010
0300
0121
0000
0000
0000
0001
0000
1000
0030
0201
0000
0300
0000
1021
0000
0130
0000
,
0002
0000
1000
0000
0113
0000
0000
0000
2000
0000
3010
0000
1200
0000
0301
0000
1120
0000
0000
0000
0100
0000
0001
0000
0100
0000
0000
0000
1100
0000
0001
0030
,
0000
0000
1000
0000
0101
0000
0000
0000
1000
0000
0100
0000
1012
0003
0100
0000
0011
0000
0000
0000
0010
0000
0001
0000
0010
0000
0000
0000
1100
0000
0001
0000
,
0000
1000
0101
0000
0000
0010
0001
0100
1010
0000
0010
0001
0010
0000
1100
0001
,
0000
1000
0101
0000
1000
0010
1001
0100
0011
0000
0010
0001
0010
0000
1100
0001
,
0000
1000
0101
0000
0000
0000
0000
0000
0000
0000
0000
0000
0000
0000
0000
0000
;
