#TITLE:The Race;
#SUBTITLE:(Power-Drill Mix);
#ARTIST:Captain Jack;
#TITLETRANSLIT:;
#SUBTITLETRANSLIT:;
#ARTISTTRANSLIT:;
#CREDIT:;
#BANNER:The Race-bn.PNG;
#BACKGROUND:The Race-bg.PNG;
#LYRICSPATH:;
#CDTITLE:Dancemania Speed 7.png;
#MUSIC:Captain Jack - The Race (Power-Drill Mix).mp3;
#OFFSET:-5.640;
#SAMPLESTART:48.280;
#SAMPLELENGTH:12.000;
#SELECTABLE:YES;
#BPMS:0.000=172.910;
#STOPS:;
#BGCHANGES:;
// cache tags:
#FIRSTBEAT:0.000;
#LASTBEAT:356.000;
#SONGFILENAME:Songs/toune 2/The Race (Power-Drill Mix)/The Race.sm;
#HASMUSIC:1;
#HASBANNER:1;
#MUSICLENGTH:135.818;
// end cache tags

//---------------dance-single - ----------------
#NOTES:
     dance-single:
     :
     Hard:
     9:
     0.645,0.590,0.361,0.258,0.088,529.000,49.000,35.000,0.000,0.000:  // measure 1
2000
0100
0010
3001
,  // measure 2
0020
0100
0100
0031
,  // measure 3
0200
0010
0001
0301
,  // measure 4
1010
0101
1010
0101
,  // measure 5
2002
0000
0000
3003
,  // measure 6
1000
0100
0000
0010
0001
0000
1000
0000
0000
0000
0100
0000
0010
0000
0001
0000
,  // measure 7
0200
0310
2000
3100
,  // measure 8
1000
0100
0000
0010
0001
0000
1000
0000
0000
0000
0100
0000
0010
0000
0001
0000
,  // measure 9
1200
0301
0012
1003
,  // measure 10
1000
0100
0000
0010
0001
0000
1000
0000
0000
0000
0100
0000
0010
0000
0001
0000
,  // measure 11
2000
3010
0200
0301
,  // measure 12
1000
0100
0000
0010
0001
0000
1000
0000
0000
0000
0100
0000
0010
0000
1000
0000
,  // measure 13
0102
0013
1020
0130
,  // measure 14
2002
0000
0000
3003
,  // measure 15
1001
0110
0011
1100
,  // measure 16
0001
0000
0001
0100
0000
1000
0001
0010
,  // measure 17
1000
0000
1100
0000
0001
0000
0001
0010
,  // measure 18
0000
1000
0000
0100
0000
0010
0100
0010
,  // measure 19
0100
0001
0010
1100
,  // measure 20
0010
0000
0100
0010
0000
0100
0001
0100
,  // measure 21
1000
0000
0001
0000
0010
0000
0100
0010
,  // measure 22
0000
0011
0000
1100
0000
1100
0000
0010
,  // measure 23
1000
0010
1000
0100
1000
0001
0010
0100
,  // measure 24
0010
1000
0100
1000
0001
0010
0100
0010
,  // measure 25
0100
0000
0100
0000
0110
0000
0001
0010
,  // measure 26
0000
0010
0000
0100
0000
1000
0001
0010
,  // measure 27
1000
0000
0100
1000
0100
1000
0001
0010
,  // measure 28
0100
0010
1000
0100
1000
0010
0100
0000
,  // measure 29
0001
0000
0001
0010
0000
0010
0000
0010
,  // measure 30
1000
0100
1000
0100
1000
0001
0010
0100
,  // measure 31
1001
0000
1001
0000
,  // measure 32
0001
0010
1000
0100
1000
0001
0100
1000
,  // measure 33
0001
0100
0100
0010
1000
0001
0010
0100
,  // measure 34
1000
0001
0010
1000
0010
0100
0010
0100
,  // measure 35
0001
0010
1000
0001
0010
0100
1000
0001
,  // measure 36
0100
1000
0100
1000
0001
0010
0100
0010
,  // measure 37
0001
0010
1000
0001
0010
1000
0001
0100
,  // measure 38
1000
0100
1000
0010
0100
0010
0100
0010
,  // measure 39
1001
0011
1100
1100
,  // measure 40
1000
0001
1000
0001
1000
0001
1000
0002
,  // measure 41
0000
0000
1000
0000
0103
0000
1000
0100
,  // measure 42
1000
0100
0000
0010
0001
0000
0100
0000
0000
0000
1000
0000
0100
0000
1000
0000
,  // measure 43
0210
1300
2001
3010
,  // measure 44
0100
0010
0100
0010
0100
0010
0100
0020
,  // measure 45
0000
0000
0001
0000
1030
0000
0100
0010
,  // measure 46
1000
0100
0000
0010
0001
0000
0100
0000
0000
0000
1000
0000
0010
0000
0100
0000
,  // measure 47
1002
1003
0201
0310
,  // measure 48
0001
1000
0000
0010
0100
0000
0001
0000
0000
0000
1000
0000
0010
0000
0100
0000
,  // measure 49
2000
3010
0002
1003
,  // measure 50
0001
1000
0000
0010
0100
0000
0001
0000
0000
0000
1000
0000
0010
0000
0100
0000
,  // measure 51
2001
3100
0210
0301
,  // measure 52
0001
1000
0000
0010
0100
0000
0001
0000
0000
0000
1000
0000
0010
0000
0100
0000
,  // measure 53
0002
0013
2000
3100
,  // measure 54
0001
1000
0000
0010
0100
0000
0001
0000
0000
0000
1000
0000
0010
0000
0001
0000
,  // measure 55
1200
0310
0021
1030
,  // measure 56
1001
0000
0010
1000
0100
1000
0001
0100
,  // measure 57
1000
0001
0010
0100
0000
0010
0100
0010
,  // measure 58
0100
0000
0001
0000
0101
0000
1000
0011
,  // measure 59
0000
0100
0000
0010
0000
0010
1000
0100
,  // measure 60
1000
0000
0001
0100
1000
0001
0010
0100
,  // measure 61
0010
0100
0010
0100
0000
0001
0100
1000
,  // measure 62
0001
0010
0100
0010
1000
0100
1000
0010
,  // measure 63
0000
1100
0000
1100
0000
1010
0000
0100
,  // measure 64
1000
0001
0010
1000
0010
0100
0001
0010
,  // measure 65
1000
0010
0100
0010
0000
0100
0010
0100
,  // measure 66
0001
0000
0001
0100
1000
0001
0010
0100
,  // measure 67
0000
0011
0000
1100
0000
1010
0000
0100
,  // measure 68
1000
0010
1000
0100
1000
0001
0010
0100
,  // measure 69
0010
0100
0001
0100
0000
1000
0000
0001
,  // measure 70
0100
0000
0001
0010
0000
0100
0000
0010
,  // measure 71
0100
0010
0100
0001
0100
1000
0001
0100
,  // measure 72
2002
0000
3003
0000
,  // measure 73
0001
1000
0010
1000
0010
0100
0001
0100
,  // measure 74
1000
0001
0010
1000
0010
0100
0001
0010
,  // measure 75
1000
0010
0100
0010
1000
0001
0100
0010
,  // measure 76
1000
0001
0100
0010
1000
0100
0010
0001
,  // measure 77
1000
0100
0010
0001
0100
0010
1000
0100
,  // measure 78
0001
1000
0010
0100
0001
0100
1000
0100
,  // measure 79
0100
1000
0001
0010
0100
0010
1000
0001
,  // measure 80
1001
0110
1001
0011
,  // measure 81
1000
0100
1000
0100
1000
0100
1000
0200
,  // measure 82
0000
0000
1000
0000
0301
0000
1000
0100
,  // measure 83
0010
0001
0000
1000
0100
0000
0010
0000
0000
0000
0100
0000
0010
0000
0001
0000
,  // measure 84
1000
0100
0001
0010
,  // measure 85
0010
0001
0010
0001
0010
0001
0010
0002
,  // measure 86
0000
0000
1000
0000
0103
0000
1000
0100
,  // measure 87
0010
1000
0000
0100
0010
0000
0001
0000
0000
0000
0100
0000
0010
0000
0001
0000
,  // measure 88
0100
0010
1000
0001
,  // measure 89
2002
0000
0000
0000
,  // measure 90
3003
0000
0000
0000
;

//---------------dance-single - ----------------
#NOTES:
     dance-single:
     :
     Medium:
     7:
     0.484,0.491,0.140,0.110,0.029,426.000,19.000,15.000,0.000,0.000:  // measure 1
2000
0100
0010
3100
,  // measure 2
0002
0010
0100
1003
,  // measure 3
0200
1000
0010
0301
,  // measure 4
0100
0010
1000
1000
,  // measure 5
2002
0000
0000
3003
,  // measure 6
0001
0000
0000
1000
0000
0000
0001
0000
0000
0000
0100
0000
1000
0000
0010
0000
,  // measure 7
0001
1000
0010
1000
,  // measure 8
1000
0000
0000
0010
0000
0000
1000
0000
0000
0000
0100
0000
0001
0000
0100
0000
,  // measure 9
0010
0100
0001
1000
,  // measure 10
0001
0000
0000
1000
0000
0000
0001
0000
0000
0000
0100
0000
1000
0000
0100
0000
,  // measure 11
0001
0010
0100
1000
,  // measure 12
1000
0000
0000
0010
0000
0000
1000
0000
0000
0000
1000
0000
0001
0000
1000
0000
,  // measure 13
0010
0100
1000
0100
,  // measure 14
2002
0000
0000
3003
,  // measure 15
0010
0001
1000
0001
,  // measure 16
0010
0000
0010
1000
0000
0100
1000
0100
,  // measure 17
1000
0000
0100
0000
0001
0000
0001
0100
,  // measure 18
0000
1000
0000
0100
0000
0100
1000
0010
,  // measure 19
1000
0100
0001
0001
,  // measure 20
0010
0000
0010
1000
0000
0100
0000
0100
,  // measure 21
1000
0000
0001
0000
0001
0000
0001
0100
,  // measure 22
0000
0100
0000
0100
0000
1000
0000
0001
,  // measure 23
1000
0000
0001
0000
0010
0000
1000
0100
,  // measure 24
1000
0000
0001
0100
0000
1000
0001
0010
,  // measure 25
1000
0000
0100
0000
0100
0000
0010
0100
,  // measure 26
0000
0001
0000
0101
0000
0101
0000
0001
,  // measure 27
0001
0000
1000
0000
0001
0000
0001
0100
,  // measure 28
0000
1000
0000
0100
0000
0010
1000
0010
,  // measure 29
1000
0000
0100
0100
0000
1000
0000
0001
,  // measure 30
0001
1000
0001
1000
0001
1000
0010
0100
,  // measure 31
0010
0000
0000
1000
0100
0000
0000
0000
,  // measure 32
0001
0001
0000
1000
0000
0001
0000
0001
,  // measure 33
0100
1000
0001
0100
1000
0000
0001
0010
,  // measure 34
1000
0010
0000
0010
0000
0010
0000
1000
,  // measure 35
0100
0000
0001
0000
0100
0000
1000
0100
,  // measure 36
1000
0100
0000
0010
0000
0010
0000
1000
,  // measure 37
0100
1000
0100
0001
0100
0000
1000
0001
,  // measure 38
0010
0100
0000
0010
0000
0010
0000
1000
,  // measure 39
0100
0001
0100
0010
,  // measure 40
1001
0000
0011
0000
1100
0000
0010
2000
,  // measure 41
0000
0000
0001
0000
3001
0000
0001
0001
,  // measure 42
0001
1000
0000
0001
0000
0001
0000
0001
,  // measure 43
0100
1000
0001
0010
,  // measure 44
1001
0000
0011
0000
1100
0000
0010
0200
,  // measure 45
0000
0001
0310
0001
,  // measure 46
1000
0000
0100
0000
1000
0100
1000
0100
,  // measure 47
0001
0010
1000
0100
,  // measure 48
0001
0000
0000
1000
0000
0000
1000
0000
0000
0000
0010
0000
0010
0000
0010
0000
,  // measure 49
0100
0001
1000
0001
,  // measure 50
0010
0000
0000
0100
0000
0000
0001
0000
0000
0000
0010
0000
0010
0000
0100
0000
,  // measure 51
0010
0100
1000
0010
,  // measure 52
0001
0000
0000
0001
0000
0000
0001
0000
0000
0000
1000
0000
0100
0000
1000
0000
,  // measure 53
0100
0010
0100
0010
,  // measure 54
1000
0000
0000
0010
0000
0000
0001
0000
0000
0000
0100
0000
0010
0000
0001
0000
,  // measure 55
0001
0010
0001
0001
,  // measure 56
1001
0100
0001
0010
,  // measure 57
0100
0000
1000
1000
0000
0010
1000
0010
,  // measure 58
1000
0000
0100
0000
0001
0001
0000
1000
,  // measure 59
0000
0001
0000
0010
0000
0100
0000
0010
,  // measure 60
0000
1000
0010
0100
,  // measure 61
0001
0000
0001
0001
0000
0100
0001
0100
,  // measure 62
0001
0000
0010
0000
0010
0010
0000
0100
,  // measure 63
0000
1000
0000
0010
0000
1000
0010
0010
,  // measure 64
1000
0000
0100
0000
0100
0000
0100
1000
,  // measure 65
0100
0000
0001
0100
0000
0001
0100
0001
,  // measure 66
0010
0000
0100
0000
0010
0000
0010
0010
,  // measure 67
0000
1000
0000
0100
0000
0100
0000
0100
,  // measure 68
1000
0000
0001
0000
0010
0000
0001
0100
,  // measure 69
0001
0000
0001
0100
0000
0001
0100
1000
,  // measure 70
0010
0000
0100
0100
0000
1000
0000
0100
,  // measure 71
1000
0100
1000
0010
1000
0010
1000
0010
,  // measure 72
2002
0000
0000
0000
3003
0000
0010
0100
,  // measure 73
0001
1000
0000
0001
0000
0010
0000
0100
,  // measure 74
1000
0100
1000
0010
1000
0000
0100
0100
,  // measure 75
0100
1000
0000
0100
0000
0001
0000
0001
,  // measure 76
0100
0000
0001
0000
0010
0000
0010
1000
,  // measure 77
0010
1000
0000
0010
0000
0010
0000
0100
,  // measure 78
1000
0001
1000
0001
0010
0000
0100
0100
,  // measure 79
0100
0010
0000
0100
0000
1000
0000
1000
,  // measure 80
0100
1000
0100
0100
,  // measure 81
0011
0000
1100
0000
1010
0000
0100
0200
,  // measure 82
0000
0000
1000
0000
1300
0000
0001
0100
,  // measure 83
1000
0001
0000
0001
0000
0001
0000
0001
,  // measure 84
0100
1000
0001
0001
,  // measure 85
1010
0000
0011
0000
0110
0000
0100
2000
,  // measure 86
0000
0000
0001
0000
3010
0000
0100
1000
,  // measure 87
0100
0001
0000
0001
0000
0001
0000
0001
,  // measure 88
0010
1000
0100
0010
,  // measure 89
2002
0000
0000
0000
,  // measure 90
3003
0000
0000
0000
;

//---------------dance-single - ----------------
#NOTES:
     dance-single:
     :
     Easy:
     4:
     0.362,0.459,0.317,0.140,0.000,282.000,43.000,19.000,0.000,0.000:  // measure 1
2000
0100
0010
3100
,  // measure 2
0002
0010
0100
1003
,  // measure 3
0200
1000
0010
0301
,  // measure 4
0100
0010
1000
1000
,  // measure 5
2002
0000
0000
3003
,  // measure 6
0001
0000
1010
0000
,  // measure 7
0001
1000
0010
1000
,  // measure 8
1000
0000
1010
0000
,  // measure 9
0010
0100
0001
1000
,  // measure 10
0001
0000
0110
0000
,  // measure 11
0001
0010
0100
1000
,  // measure 12
1000
0000
1010
0000
,  // measure 13
0010
0100
1000
0100
,  // measure 14
2002
0000
0000
3003
,  // measure 15
0010
0001
1000
0001
,  // measure 16
0010
0000
0100
0000
,  // measure 17
1000
0100
0001
0001
,  // measure 18
1000
0000
0010
0000
,  // measure 19
1000
0100
0001
0001
,  // measure 20
0010
0000
0100
0000
,  // measure 21
1000
0001
0001
0001
,  // measure 22
1000
0000
0010
0000
,  // measure 23
1000
0001
0010
1000
,  // measure 24
1000
0001
0100
0001
,  // measure 25
1000
0100
0100
0010
,  // measure 26
1000
0100
0010
0100
,  // measure 27
0001
1000
0001
0001
,  // measure 28
0100
0010
0100
1000
,  // measure 29
1000
0100
1000
0100
,  // measure 30
0001
0001
0001
0010
,  // measure 31
0010
0000
0100
1000
,  // measure 32
0001
0000
0010
0000
,  // measure 33
0100
0001
1000
0001
,  // measure 34
1000
0000
0010
0000
,  // measure 35
0100
0001
0100
1000
,  // measure 36
1000
0000
0001
0000
,  // measure 37
0100
0100
0100
1000
,  // measure 38
0010
0000
1000
0000
,  // measure 39
0100
0001
0100
0010
,  // measure 40
1001
0011
1100
1010
,  // measure 41
2002
0000
3003
0100
,  // measure 42
0001
0000
0110
0000
,  // measure 43
0100
1000
0001
0010
,  // measure 44
1001
0011
1100
0011
,  // measure 45
2002
0000
3003
0001
,  // measure 46
1000
0000
0110
0000
,  // measure 47
0001
0010
1000
0100
,  // measure 48
0001
0000
1010
0000
,  // measure 49
0100
0001
1000
0001
,  // measure 50
0010
0000
1100
0000
,  // measure 51
0010
0100
1000
0010
,  // measure 52
0001
0000
0110
0000
,  // measure 53
0100
0010
0100
0010
,  // measure 54
1000
0000
0011
0000
,  // measure 55
0001
0010
0001
0001
,  // measure 56
1001
0100
0001
0010
,  // measure 57
0100
0000
0010
0000
,  // measure 58
1000
0100
0001
1000
,  // measure 59
0100
0000
0110
0000
,  // measure 60
0100
1000
0010
0100
,  // measure 61
0001
0000
1100
0000
,  // measure 62
0001
0010
0010
1000
,  // measure 63
0100
0000
0110
0000
,  // measure 64
1000
0100
0100
0100
,  // measure 65
0100
0000
0101
0000
,  // measure 66
0010
0100
0010
0010
,  // measure 67
1000
0000
0110
0000
,  // measure 68
1000
0001
0010
0001
,  // measure 69
0001
0000
0110
0000
,  // measure 70
0010
0100
0010
0100
,  // measure 71
1000
1000
1000
1000
,  // measure 72
2002
0000
3003
0010
,  // measure 73
0001
0010
0100
0010
,  // measure 74
1000
1000
1000
0100
,  // measure 75
0100
0010
0100
1000
,  // measure 76
0100
0001
0010
0010
,  // measure 77
0010
0100
0010
0001
,  // measure 78
1000
1000
0010
0100
,  // measure 79
0100
0001
0100
0010
,  // measure 80
0100
1000
0100
0100
,  // measure 81
0011
1100
1010
0101
,  // measure 82
2002
0000
3003
0001
,  // measure 83
1000
0000
0110
0000
,  // measure 84
0100
1000
0001
0001
,  // measure 85
1010
0011
0110
1100
,  // measure 86
2002
0000
3003
0100
,  // measure 87
0100
0000
1001
0000
,  // measure 88
0001
0010
0001
0100
,  // measure 89
2002
0000
0000
0000
,  // measure 90
3003
0000
0000
0000
;
