#TITLE:Bailar de a dos;
#SUBTITLE:(The Re-Mix);
#ARTIST:Porto Seguro;
#TITLETRANSLIT:;
#SUBTITLETRANSLIT:;
#ARTISTTRANSLIT:;
#CREDIT:;
#BANNER:Bailar de a dos (The Re-Mix) BN.png;
#BACKGROUND:Bailar de a dos (The Re-Mix) BG.png;
#LYRICSPATH:Bailar de a dos (The Re-Mix).lrc;
#CDTITLE:ncdx_cdtitle.png;
#MUSIC:Bailar de a dos (The Re-Mix).mp3;
#OFFSET:-7.640;
#SAMPLESTART:72.046;
#SAMPLELENGTH:15.000;
#SELECTABLE:YES;
#BPMS:0.000=134.030;
#STOPS:14.000=1.370
;
#BGCHANGES:;
// cache tags:
#FIRSTBEAT:0.000;
#LASTBEAT:212.000;
#SONGFILENAME:Songs/NC.DX Originals/Bailar de a dos (The Re-Mix)/Bailar de a dos (The Re-Mix).sm;
#HASMUSIC:1;
#HASBANNER:1;
#MUSICLENGTH:109.852;
// end cache tags

//---------------dance-single - ----------------
#NOTES:
     dance-single:
     :
     Hard:
     7:
     0.390,0.386,0.109,0.228,0.168,263.000,12.000,25.000,0.000,0.000:
1000
0000
0000
0100
0000
0000
0001
0000
0020
0000
0000
0000
0000
0000
0000
0000
,
2030
0000
3200
0300
,
0001
0000
0000
0010
0000
0000
1000
0000
0200
0000
0000
0000
0000
0000
0000
0000
,
0302
0003
1001
0010
,
0001
0000
1000
0000
0010
0000
1000
0100
,
1000
0000
0001
0100
0001
0000
0010
0000
,
0010
0000
0001
0100
1000
0000
0101
0000
,
1100
0020
0130
1000
,
0001
0000
0010
0100
0010
0000
0001
1000
,
0001
0000
1000
0100
0001
0000
1000
0100
,
1000
0000
0100
1000
0000
0100
1000
0000
0001
0000
1000
0000
1001
0000
0000
0000
,
0010
0000
0000
0000
0001
0000
0000
1000
0000
0000
0100
0000
2000
0000
0000
0000
,
3100
0000
0000
0000
1000
0000
0000
0001
0000
0000
0100
0000
0002
0000
0000
0000
,
0103
0000
0000
0000
0010
0000
0000
0001
0000
0000
1000
0000
0010
0000
0000
0000
,
1000
0001
1000
0001
0000
0010
0200
0000
,
0310
0000
0000
0000
1000
0000
0000
0001
0000
0000
0100
0000
0002
0000
0000
0000
,
0103
0000
0000
0000
1000
0000
0000
0100
0000
0000
0010
0000
0002
0000
0000
0000
,
0000
0000
0023
0230
,
0000
0000
0300
1000
,
0001
0100
0010
1001
,
0010
0000
0001
1000
0001
0000
0100
0000
,
0010
0000
0001
0010
0001
0000
1000
0100
,
1000
0000
0001
1000
0001
0000
1000
0000
,
1100
0001
0101
2000
,
3100
0000
0010
0001
0010
0000
0002
0000
,
0103
0000
1000
0010
1000
0000
0100
0000
,
0100
0000
0000
0000
0010
0000
0000
0000
0010
0000
0000
0000
1000
0000
0000
0001
,
1000
0000
0000
0001
1000
0000
0000
0001
1000
0000
0001
0000
0010
0000
0000
0000
,
0010
0100
0100
0001
,
1000
0000
0001
0001
0001
0000
1000
0000
,
1000
0000
0001
0000
0001
0000
0001
0100
,
1000
0000
1000
0100
0001
0000
0010
0000
,
0010
0000
1000
0000
0001
0000
0100
0010
,
0100
0000
0000
0000
0001
0000
0000
0000
0010
0000
0000
0000
1000
0000
0000
0001
,
0000
0000
1000
0000
0000
0001
0000
0000
1000
0000
0001
1000
0001
0000
0000
0000
,
1001
0000
0000
0000
0010
0000
0000
0001
0000
0000
1000
0000
0002
0000
0000
0000
,
0103
0000
0000
0000
0010
0000
0000
1000
0000
0000
0001
0000
2000
0000
0000
0000
,
3100
0000
0000
0000
0001
0000
0000
0010
0000
0000
0001
0000
1000
0000
0000
0000
,
0001
0100
0001
0010
0000
0001
1000
0000
,
1100
0000
0000
0000
0001
0000
0000
0100
0000
0000
0001
0000
2000
0000
0000
0000
,
3100
0000
0000
0000
0010
0000
0000
0001
0000
0000
1000
0000
0002
0000
0000
0000
,
0000
0000
2003
3020
,
0000
0000
0000
0000
0000
0000
0000
0000
0030
0000
0000
0000
1000
0001
0000
0000
,
1000
0001
0000
0000
0010
0000
0000
0001
0000
0000
1000
0000
0200
0000
0000
0000
,
1300
0000
0000
0000
0001
0000
0000
0010
0000
0000
0001
0000
2000
0000
0000
0000
,
3010
0000
0000
0000
1000
0000
0000
0100
0000
0000
0010
0000
0001
0000
0000
0000
,
1000
0001
1000
0001
0000
0100
0001
0000
,
0101
0000
1000
0000
1100
0000
1000
0100
,
0001
0100
1000
0100
0001
0000
1000
0010
,
0001
0000
0010
0000
1000
0000
0010
0000
0001
0000
0000
0000
1000
0000
0000
0100
,
1000
0000
0000
0100
1000
0001
0000
0001
0000
0000
0000
0000
0010
0000
0000
0001
,
0010
0000
0000
0001
0010
0100
0000
0100
0000
0000
0000
0000
1000
0000
0000
0001
,
1000
0000
0000
0001
1000
0010
0000
0010
0000
0000
0000
0000
2002
0000
0000
0000
,
3003
0000
0000
0000
;

//---------------dance-single - ----------------
#NOTES:
     dance-single:
     :
     Challenge:
     8:
     0.456,0.482,0.328,0.137,0.319,300.000,36.000,15.000,0.000,0.000:
1000
0000
0000
0100
0000
0000
0010
0000
0001
0000
0000
0000
0001
0000
0000
0000
,
1000
1000
0010
0010
,
1000
0000
0000
0001
0000
0000
0010
0000
1100
0000
0000
0001
1000
0000
0000
0010
,
0001
0000
0000
0100
0001
0000
0000
0000
1001
0000
0000
0000
1100
0000
0000
0000
,
0101
0000
1000
0001
1000
0000
0000
0001
0000
0000
0010
0000
1100
0000
0000
0000
,
0010
0000
1000
0001
1000
0000
0000
0001
0000
0000
0100
0000
0010
0000
0000
0000
,
1000
0100
0010
0001
0000
1000
0101
0000
,
1100
0000
0010
0001
0010
0000
0000
0001
0000
0000
1000
0000
1100
0000
0000
0000
,
0011
0000
1000
0001
0100
0000
0000
0001
0000
0000
0010
0000
1100
0000
0000
0000
,
0011
0000
1000
0001
1000
0000
0000
0010
0000
0000
0100
0000
0010
0000
1000
0000
,
0001
0000
0010
0001
0000
1000
0001
0000
0100
0000
0001
0000
1001
0000
0010
0100
,
0010
0000
0100
0000
1000
0000
0000
0001
0000
0000
1000
0000
1200
0000
0000
0000
,
1300
0000
0000
0000
0010
0000
0000
0001
0000
0000
1000
0000
1002
0000
0000
0000
,
1003
0000
0000
0000
0010
0000
0000
0001
0000
0000
1000
0000
0010
0000
0000
0000
,
1000
0001
0010
0001
0000
1000
1100
0000
,
0101
0000
0000
0000
0010
0000
0000
0001
0000
0000
1000
0000
0210
0000
0000
0000
,
0310
0000
0000
0000
1000
0000
0000
0001
0000
0000
1000
0000
0002
0000
0000
0000
,
0000
0000
0023
0230
,
0000
0000
0000
0000
0000
0000
0000
0000
0300
0000
0000
0000
1000
0000
0001
0010
,
0000
0001
1000
0000
0010
0000
0100
0000
0001
0000
1000
0000
1001
0000
0000
1000
,
0000
0000
0010
0000
0100
0000
0000
0001
0000
0000
1000
0000
0100
0000
0000
1000
,
0000
0000
0001
0000
0101
0000
0000
0000
1000
0000
0010
0000
1000
0000
0000
0001
,
0000
0000
0010
0000
0001
0000
0000
1000
0000
0000
0100
0000
0010
0000
0000
0001
,
0000
0000
1000
0000
0002
0000
0000
0000
0103
0000
1000
0000
0010
0000
0000
1000
,
0000
0000
0100
0000
0010
0000
0000
0000
0001
0000
1000
0000
0010
0000
0000
0100
,
0000
0001
1000
0000
0010
0000
1000
0000
,
1000
0000
0000
0000
0001
0000
0000
0000
0001
0000
0000
0000
1000
0000
0000
0010
,
1000
0000
0000
0010
1000
0100
0000
1100
0010
0000
0001
0000
1000
0000
0000
0001
,
0000
0000
0100
0000
0010
0000
0000
1000
0000
0000
0001
0000
0001
0000
0000
0001
,
0000
0000
1000
0000
1000
0000
0000
0000
0100
0000
0010
0000
0001
0000
0000
1000
,
0000
0000
0010
0000
0100
0000
0000
0001
0000
0000
1000
0000
0001
0000
0000
1000
,
0000
0000
0001
0000
0011
0000
0000
0000
1000
0000
0100
0000
0010
0000
0000
0001
,
0000
0000
1000
0000
0010
0000
0000
0000
1000
0000
0001
0000
0100
0000
0000
0001
,
0000
0000
0010
0000
0001
0000
0000
0000
1000
0000
0000
0000
0100
0000
0000
0100
,
0000
0000
0100
0000
0000
0100
0000
0000
0100
0000
0010
0100
0010
0000
0000
0000
,
1001
0000
0000
0000
0100
0000
0000
0001
0000
0000
1000
0000
0002
0000
0000
0000
,
0103
0000
0000
0000
1000
0000
0000
0010
0000
0000
0001
0000
0200
0000
0000
0000
,
1300
0000
0000
0000
0010
0000
0000
0001
0000
0000
1000
0000
0010
0000
0000
0000
,
0100
0001
0010
0001
0000
0100
1002
0000
,
0103
0000
0000
0000
0010
0000
0000
1000
0000
0000
0001
0000
0100
0000
0000
0000
,
0101
0000
0000
0000
1000
0000
0000
0010
0000
0000
1000
0000
0200
0000
0000
0000
,
0000
0000
0320
0032
,
0000
0000
0000
0000
0000
0000
0000
0003
0000
0000
0000
0000
1000
0001
0000
0000
,
1000
0001
0000
0000
1000
0000
0000
0001
0000
0000
0010
0000
1001
0000
0000
0000
,
0100
0000
0000
0000
0010
0000
0000
1000
0000
0000
0001
0000
0010
0000
0000
0000
,
1100
0000
0000
0000
0010
0000
0000
0001
0000
0000
1000
0000
0001
0000
0000
0000
,
1000
0010
0100
0001
0000
1000
0001
0000
,
0101
1000
1100
0010
,
0101
0000
1000
0100
1100
0000
0010
0000
,
0101
0000
0000
0000
0010
0000
0001
0000
1001
0000
0000
0000
0010
0000
0000
1000
,
0010
0000
0000
1000
0010
0100
0000
0101
0000
0000
0000
0000
0010
0000
0000
0001
,
0010
0000
0000
0001
0010
0100
0000
1100
0000
0000
0000
0000
0010
0000
0000
0001
,
1000
0000
0000
0001
1000
0010
0000
0110
0000
0000
1000
0000
2002
0000
0000
0000
,
3003
0000
0000
0000
;

//---------------dance-single - ----------------
#NOTES:
     dance-single:
     :
     Medium:
     5:
     0.326,0.338,0.127,0.164,0.000,219.000,14.000,18.000,0.000,0.000:
1000
0001
1000
1000
,
0001
0001
1000
0100
,
1000
0001
1000
1000
,
0001
1000
1001
1000
,
0001
0000
1000
0100
1000
0000
0001
0000
,
1000
0000
0002
0000
0103
0000
0010
0001
,
0010
0000
0100
1000
0100
0000
0020
0000
,
0230
0302
2003
3100
,
1000
0000
0001
1000
0001
0000
0100
0000
,
0001
0020
0031
1000
,
0001
0000
1000
0000
0001
1000
1001
0000
,
0010
1000
0001
2000
,
3100
0001
1000
0002
,
0103
0001
1000
0010
,
0010
0000
0100
0000
0100
0000
0001
0100
,
0001
0000
1000
0100
1000
0000
0002
0000
,
0103
0010
1000
0001
,
0001
1000
1000
0020
,
0000
0000
0000
0030
,
0000
0000
0000
1001
,
0010
0000
0001
0100
0001
0000
1000
0000
,
0001
0000
1000
0100
1000
0000
0010
0000
,
0010
0000
0100
0000
0100
0000
0001
0001
,
0001
0000
1000
1000
1000
0000
0001
0000
,
1000
0001
0101
1000
,
0001
1000
1100
0001
,
0001
1000
1000
0001
,
1000
0000
0001
1000
0001
0000
1000
0000
,
0000
0001
0000
1000
,
0001
1000
1000
0001
,
0000
1000
0000
0001
,
1000
0001
0001
1000
,
1100
0001
0101
1000
,
1010
0001
0011
1000
,
1000
0000
1000
0000
0001
1000
0001
0000
,
1001
0010
0010
0002
,
0103
0100
0100
2000
,
3100
0010
0001
1000
,
0001
1000
0100
0001
,
0010
1000
0100
0002
,
0103
0001
1000
0020
,
0130
0001
1000
0001
,
0001
1000
1000
0010
,
0110
1000
0001
2000
,
3100
1000
0001
0020
,
0130
1000
0001
0100
,
0100
0001
0001
1000
,
0010
1000
0001
1000
,
1100
0000
0001
0100
0001
0000
1000
0000
,
1100
0000
0001
0100
0001
0000
1000
0000
,
1000
0000
0001
1000
0001
0000
0010
0000
,
0010
0000
0100
0010
0100
0000
1000
0000
,
1000
0000
0001
1000
0001
0000
2002
0000
,
3003
0000
0000
0000
;

//---------------dance-single - ----------------
#NOTES:
     dance-single:
     :
     Easy:
     3:
     0.259,0.289,0.064,0.246,0.000,165.000,7.000,27.000,0.000,0.000:
0000
0000
2000
0000
,
3200
0000
0302
0000
,
0023
0000
2030
0000
,
3100
0001
1001
1000
,
0000
1000
0000
0001
,
0000
0001
0000
2000
,
3001
2000
3001
0010
,
0010
0100
0100
0001
,
0000
1000
0000
0001
,
0000
1000
0000
0002
,
1003
0002
1003
0100
,
0100
0010
0010
0002
,
0103
1000
0001
2000
,
3100
0001
1000
0010
,
0010
1000
0001
1000
,
1000
0001
0001
2000
,
3100
0001
1000
0002
,
0000
0000
0000
0023
,
0000
0000
0000
0030
,
0000
0000
0000
1001
,
0000
0001
0000
1000
,
0000
0010
0000
1000
,
0000
0100
0000
0001
,
0000
0100
0000
1000
,
0000
0001
0000
1000
,
0000
0010
0000
0001
,
0000
1000
0000
0001
,
0001
1000
1000
1001
,
0000
0001
0000
1000
,
0001
0000
1000
1000
1000
0000
0001
0000
,
0000
1000
0000
0010
,
0010
0100
0100
0002
,
0103
2000
3100
0002
,
0013
2000
3010
0001
,
0001
0000
0001
0000
1000
0001
1000
0000
,
1001
0010
0001
2000
,
3100
0001
0010
0002
,
0103
1000
0001
1000
,
1000
0010
0010
0100
,
0100
0001
0001
2000
,
3100
0001
1000
0002
,
0000
0000
0000
2003
,
0000
0000
0000
3001
,
0001
1000
0001
2000
,
3010
1000
0001
0020
,
0031
1000
0001
0100
,
0100
0010
0010
1000
,
1100
0001
0101
1000
,
0100
0001
0100
1000
,
0010
0001
0010
1000
,
1000
0001
1000
0001
,
0001
1000
0001
1000
,
0001
1000
0001
2002
,
3003
0000
0000
0000
;
