#TITLE:ANDROMEDA II;
#SUBTITLE:;
#ARTIST:Sota Fujimori;
#TITLETRANSLIT:;
#SUBTITLETRANSLIT:;
#ARTISTTRANSLIT:;
#CREDIT:;
#BANNER:andromeda II bn.png;
#BACKGROUND:andromeda II bg.png;
#LYRICSPATH:;
#CDTITLE:;
#MUSIC:17 - Sota Fujimori - ANDROMEDA II.ogg;
#OFFSET:-0.404;
#SAMPLESTART:58.825;
#SAMPLELENGTH:12.000;
#SELECTABLE:YES;
#BPMS:0.000=152.000;
#STOPS:;
#BGCHANGES:;
// cache tags:
#FIRSTBEAT:4.000;
#LASTBEAT:292.500;
#SONGFILENAME:Songs/SSSC Pack 2/ANDROMEDA II - [Zimlord]/17 - Sota Fujimori - ANDROMEDA II.sm;
#HASMUSIC:1;
#HASBANNER:1;
#MUSICLENGTH:121.051;
// end cache tags

//---------------dance-single - zimlord----------------
#NOTES:
     dance-single:
     zimlord:
     Challenge:
     13:
     1.000,1.000,0.107,0.050,1.000,1071.000,13.000,6.000,4.000,0.000:

0000
0000
0000
0000
,
1000
0100
0010
0000
0001
0100
0000
0100
0001
1000
0010
0000
1000
0100
0000
0100
,
1000
0100
0010
0000
0001
1000
0000
1000
0001
0100
0001
0010
0100
1000
0000
1000
,
0100
0010
0001
0000
0100
0001
0000
0001
1000
0100
0010
0000
0100
1000
0000
1000
,
0001
0100
0010
0000
1000
0010
0000
0010
0100
0001
1000
0000
0001
0010
0000
0010
,
0001
1000
0001
0000
1001
0000
1000
0100
0010
0100
1000
0000
1010
0000
0010
0100
,
0001
0100
0010
0000
0101
0000
0100
0001
1000
0001
0100
0000
0101
0000
0001
0010
,
0100
1000
0100
0000
0011
0000
1000
0001
0100
0001
1000
0000
1010
0000
0010
0000
,
0101
0000
0001
0100
0010
1000
0010
1000
0001
1000
0001
1000
0100
0010
0100
1000
,
0001
0100
0000
0100
0000
0001
1000
0000
0100
1000
0000
1000
0100
0000
0010
0001
,
1000
0001
0000
0001
0000
0010
0100
0000
1000
0100
0000
1000
0001
0000
1000
0010
,
0100
0010
0000
0010
0000
1000
0001
0000
0010
0001
0000
0001
0010
0000
0100
1000
,
0100
0000
0000
0010
0000
0000
0000
0000
0000
0010
0000
0000
0000
0000
0000
0100
0000
0000
1000
0000
0000
0000
0000
0000
0001
0000
0000
0100
0000
0000
0000
0000
0000
0001
0000
0000
1000
0000
0001
0000
1000
0000
0001
0000
0000
1000
0000
0000
,
0001
0100
0000
0100
0000
0010
0100
0000
0010
1000
0000
1000
0010
0000
0100
0001
,
1000
0001
0000
0001
0000
1000
0100
0000
0010
0100
0000
0010
0001
0000
0010
0100
,
1000
0001
0000
0001
0000
1000
0010
0000
0100
0010
0000
0010
0100
0000
0001
0100
,
0001
1000
0000
1000
0000
0100
0010
0000
0001
1000
0001
1000
0010
0100
0001
1000
,
0001
0100
0001
0100
0010
1000
0010
1000
0001
0100
0001
0010
0100
1000
0100
1000
,
0001
0010
0001
0010
0100
1000
0100
1000
0001
0100
0001
1000
0010
0100
0001
0100
,
0010
1000
0100
0010
0001
1000
0100
1000
0001
0100
0001
1000
0010
0100
0010
0100
,
0001
0010
0100
0010
0001
1000
0100
1000
0010
0100
0001
1000
0100
0010
0001
0100
,
0001
1000
0001
1000
0010
0100
0010
1000
0001
0010
0001
0010
0100
1000
0100
0010
,
0001
1000
0001
0010
0100
1000
0100
1000
0001
0100
0010
0100
0001
1000
0001
0100
,
0010
1000
0010
1000
0001
0100
0001
0100
0010
1000
0100
0010
0001
0010
0100
1000
,
0001
0100
0010
1000
0001
0100
0001
0100
0010
1000
0100
1000
0002
0023
0230
2300
,
3002
0013
0001
0010
0100
1000
0100
1000
0001
0010
0001
0100
0010
1000
0010
0100
,
0001
1000
0001
1000
0010
0100
0010
0100
0001
1000
0010
0100
0001
1000
0001
0010
,
0100
1000
0100
1000
0001
1000
0001
1000
0010
0100
0010
1000
0001
0010
0100
1000
,
0100
0010
0100
0010
0001
1000
0001
1000
0010
0100
0001
0100
0010
1000
0100
0010
,
0100
1000
0100
1000
0001
0010
0100
0010
0001
1000
0001
1000
0100
0010
0100
1000
,
0001
1000
0001
1000
0010
0100
0001
0100
0010
1000
0100
0010
0100
1000
0001
1000
,
0010
0100
0010
0100
0001
1000
0100
0010
0001
1000
0001
1000
0010
0100
0001
0100
,
0010
1000
0100
0010
0001
0100
0010
1000
0001
1000
0001
1000
0100
0010
0001
1000
,
0001
1000
1010
0010
1000
0100
0110
0010
,
0001
1000
1001
0001
0010
0100
1100
1000
,
0010
0100
0101
0001
1000
0010
1001
1000
,
0001
0100
0001
0100
0010
1000
0100
0010
0001
1000
0001
1000
0100
0010
0100
1000
,
0001
0100
0001
0100
0010
1000
0010
1000
0001
0100
0010
1000
0100
0010
0100
0010
,
0001
0000
0000
1000
0000
0000
0001
0000
0000
1000
0000
0000
0100
0000
0000
1000
0000
0000
0100
0000
0000
1000
0000
0000
0001
0000
0000
0100
0000
0000
0001
0000
0000
0100
0000
0000
0001
0000
1000
0000
0001
0000
1000
0000
0000
0001
0000
0000
,
1000
0100
1000
0100
0010
0001
0010
0001
1000
0010
0100
0010
1000
0001
0010
0100
,
1000
0000
0000
0010
0000
0000
1000
0000
0000
0010
0000
0000
0100
0000
0000
0001
0000
0000
0100
0000
0000
0001
0000
0000
1000
0000
0100
0000
0010
0000
0001
0000
0010
0000
0100
0000
1000
0000
0001
0000
0100
0000
0001
0000
1000
0000
0010
0000
,
1000
0000
0000
0001
0000
0000
1000
0000
0000
0001
0000
0000
0100
0000
0000
0001
0000
0000
1000
0000
0000
0010
0000
0000
1000
0000
0001
0000
1000
0000
0001
0000
0000
1000
0000
0000
0001
0000
0000
0100
0000
0000
0001
0000
0000
1000
0000
0000
,
0100
0000
0000
0010
0000
0000
0100
0000
0000
0010
0000
0000
0001
0000
0000
1000
0000
0000
0001
0000
0000
1000
0000
0000
0100
0000
0000
0010
0000
0000
0100
0000
0000
1000
0000
0000
0001
0000
0100
0000
0001
0000
0100
0000
0000
0001
0000
0000
,
0100
0000
0000
0010
0000
0000
0100
0000
0000
0010
0000
0000
1000
0000
0000
0001
0000
0000
1000
0000
0000
0001
0000
0000
0100
0000
0000
0010
0000
0000
1000
0000
0000
0001
0000
0000
1000
0000
0100
0000
1000
0000
0100
0000
0000
1000
0000
0000
,
0001
0000
0000
0100
0000
0000
0001
0000
0000
0100
0000
0000
0010
0000
0000
1000
0000
0000
0010
0000
0000
1000
0000
0000
0001
0000
0100
0000
0001
0000
1000
0000
0100
0000
0010
0000
0001
0000
1000
0000
0001
0000
0100
0000
0010
0000
0100
0000
,
0001
1000
0010
1000
0001
0100
0001
0100
0010
1000
0001
0010
0100
1000
0100
1000
,
0001
0000
0000
0010
0000
0000
0001
0000
0000
0010
0000
0000
0001
0000
0000
1000
0000
0000
0010
0000
0000
0100
0000
0000
0001
0000
0000
1000
0000
0000
0001
0000
0000
1000
0000
0000
0010
0000
0100
0000
0010
0000
0100
0000
0000
0001
0000
0000
,
1000
0001
1000
0001
0010
0100
0010
0001
1000
0100
1000
0100
0010
0001
0010
0001
,
0100
0000
0000
0001
0000
0000
0100
0000
0000
0001
0000
0000
1000
0000
0000
0010
0000
0000
1000
0000
0000
0001
0000
0000
1000
0000
0100
0000
1000
0000
0001
0000
0100
0000
0001
0000
1000
0000
0100
0000
0010
0000
0001
0000
0010
0000
0100
0000
,
1000
0000
0000
0001
0000
0000
0010
0000
0000
0100
0000
0000
1000
0000
0000
0001
0000
0000
1000
0000
0000
0001
0000
0000
1000
0000
0001
0000
1000
0000
0001
0000
0000
0100
0000
0000
0010
0000
0000
1000
0000
0000
0010
0000
0000
1000
0000
0000
,
0001
0000
0000
0100
0000
0000
0001
0000
0000
0100
0000
0000
0001
0000
0000
1000
0000
0000
0001
0000
0000
1000
0000
0000
0100
0000
0000
0010
0000
0000
0100
0000
0000
1000
0000
0000
0001
0000
0100
0000
0001
0000
0100
0000
0000
0001
0000
0000
,
0010
0000
0000
0100
0000
0000
0010
0000
0000
0100
0000
0000
1000
0000
0000
0001
0000
0000
1000
0000
0000
0001
0000
0000
0100
0000
0000
0010
0000
0000
1000
0000
0000
0001
0000
0000
1000
0000
0010
0000
1000
0000
0010
0000
0000
0100
0000
0000
,
0010
0000
0000
1000
0000
0000
0010
0000
0000
1000
0000
0000
0100
0000
0000
1000
0000
0000
0100
0000
0000
1000
0000
0000
0001
0000
0100
0000
0001
0000
0100
0000
0010
0000
0100
0000
0010
0000
1000
0000
0010
0000
1000
0000
0100
0000
0010
0000
,
0001
0100
0010
1000
0001
0100
0001
1000
0100
0010
0100
1000
0001
0100
0001
1000
,
0010
0000
0000
0100
0000
0000
0010
0000
0000
0100
0000
0000
0001
0000
0000
1000
0000
0000
0010
0000
0000
0100
0000
0000
0001
0000
0000
0010
0000
0000
0001
0000
0000
0010
0000
0000
0100
0000
1000
0000
0100
0000
1000
0000
0000
0001
0000
0000
,
1000
0100
1000
0001
0010
0001
1000
0010
0100
0001
0100
0010
1000
0100
0010
0001
,
1000
0000
0000
0010
0000
0000
1000
0000
0000
0010
0000
0000
0100
0000
0000
0001
0000
0000
0010
0000
0000
0001
0000
0000
1000
0000
0010
0000
1000
0000
0010
0000
0100
0000
0001
0000
0100
0000
0010
0000
1000
0000
0001
0000
1000
0000
0100
0000
,
0010
0000
0000
0100
0000
0000
0010
0000
0000
0001
0000
0000
0010
0000
0000
0100
0000
0000
0010
0000
0000
0001
0000
0000
0100
0000
0001
0000
0100
0000
0001
0000
0000
1000
0000
0000
0010
0000
0000
0100
0000
0000
0010
0000
0000
0100
0000
0000
,
0001
0000
0000
0010
0000
0000
0100
0000
0000
1000
0000
0000
0100
0000
0000
0010
0000
0000
0001
0000
0000
1000
0000
0000
0001
0000
0000
0100
0000
0000
0010
0000
0000
1000
0000
0000
0001
0000
0100
0000
0001
0000
0100
0000
0000
0001
0000
0000
,
1000
0000
0000
0010
0000
0000
1000
0000
0000
0001
0000
0000
0100
0000
0000
0010
0000
0000
0100
0000
0000
0010
0000
0000
1000
0000
0000
0100
0000
0000
0010
0000
0000
0100
0000
0000
1000
0000
0001
0000
1000
0000
0001
0000
0000
1000
0000
0000
,
0100
0000
0000
0010
0000
0000
0001
0000
0000
0100
0000
0000
0010
0000
0000
1000
0000
0000
0010
0000
0000
0100
0000
0000
0001
0000
1000
0000
0001
0000
1000
0000
0100
0000
1000
0000
0100
0000
0010
0000
0100
0000
0010
0000
0001
0000
1000
0000
,
0001
0100
0010
1000
0100
0010
0100
1000
0001
0010
0001
0010
0100
1000
0100
0010
,
0001
0000
0000
0100
0000
0000
0001
0000
0000
1000
0000
0000
0010
0000
0000
0100
0000
0000
0010
0000
0000
0100
0000
0000
0001
0000
0000
1000
0000
0000
0001
0000
0000
0100
0000
0000
0010
0000
0100
0000
0010
0000
0100
0000
0000
0010
0000
0000
,
1000
0001
1000
0001
0010
0100
0010
0001
1000
0100
0010
0001
1000
0010
1000
0010
,
0100
0000
0000
0001
0000
0000
0100
0000
0000
0010
0000
0000
1000
0000
0000
0001
0000
0000
0010
0000
0000
0100
0000
0000
1000
0000
0001
0000
1000
0000
0001
0000
0010
0000
0100
0000
1000
0000
0100
0000
0010
0000
0001
0000
1000
0000
0001
0000
,
1000
0000
0000
0010
0000
0000
1000
0000
0000
0010
0000
0000
0100
0000
0000
0001
0000
0000
0100
0000
0000
0010
0000
0000
0100
0000
0001
0000
0100
0000
0001
0000
0000
1000
0000
0000
0001
0000
0000
0010
0000
0000
0100
0000
0000
1000
0000
0000
,
0010
0000
0000
1000
0000
0000
0010
0000
0000
1000
0000
0000
0001
0000
0000
0100
0000
0000
0001
0000
0000
1000
0000
0000
0010
0000
0000
0100
0000
0000
0001
0000
0000
1000
0000
0000
0001
0000
1000
0000
0001
0000
1000
0000
0000
0001
0000
0000
,
1000
0000
0000
0100
0000
0000
1000
0000
0000
0100
0000
0000
0010
0000
0000
0001
0000
0000
0010
0000
0000
0100
0000
0000
1000
0000
0000
0010
0000
0000
1000
0000
0000
0010
0000
0000
1000
0000
0100
0000
1000
0000
0100
0000
0000
1000
0000
0000
,
0001
0000
0000
0100
0000
0000
0001
0000
0000
1000
0000
0000
0100
0000
0000
0010
0000
0000
0100
0000
0000
1000
0000
0000
0001
0000
0100
0000
0001
0000
1000
0000
0100
0000
1000
0000
0001
0000
0010
0000
0100
0000
1000
0000
0100
0000
0010
0000
,
0001
0000
0000
0100
0000
0000
0001
0000
0000
1000
0000
0000
0100
0000
1000
0000
,
0010
0000
0000
0100
0000
0000
0010
0000
0000
1000
0000
0000
0001
0000
0010
0000
,
0100
0000
0000
0010
0000
0000
0100
0000
0000
1000
0000
0000
0001
0000
1000
0000
,
0010
0000
0000
0100
0000
0000
0010
0000
0000
1000
0000
0000
0001
0000
2000
0000
,
3MMM
M000
0000
0000
0000
0000
0000
0000
;
