#TITLE:Escaping the Halberd;
#SUBTITLE:;
#ARTIST:Kirby Superstar;
#TITLETRANSLIT:;
#SUBTITLETRANSLIT:;
#ARTISTTRANSLIT:;
#CREDIT:;
#BANNER:banner.PNG;
#BACKGROUND:250px-Pic7.jpg;
#LYRICSPATH:;
#CDTITLE:;
#MUSIC:46- Kirby Super Star - Escape the Halberd.mp3;
#OFFSET:0.000;
#SAMPLESTART:10.500;
#SAMPLELENGTH:12.000;
#SELECTABLE:YES;
#BPMS:0.000=370.000;
#STOPS:0.000=10.500
;
#BGCHANGES:;
// cache tags:
#FIRSTBEAT:0.000;
#LASTBEAT:464.500;
#SONGFILENAME:Songs/toune 2/Escaping the Halberd/EscapeTheMADNESS.sm;
#HASMUSIC:1;
#HASBANNER:1;
#MUSICLENGTH:92.456;
// end cache tags

//---------------dance-single - Blank----------------
#NOTES:
     dance-single:
     Blank:
     Hard:
     10:
     0.953,1.000,1.000,0.022,0.081,466.000,149.000,2.000,0.000,0.000:

0220
0330
0000
0000
1000
0000
0000
0000
0000
0000
0000
0000
0001
0000
0000
0000
0000
0000
0000
0000
1000
0000
0000
0000
0000
0000
0000
0000
0001
0000
0000
0000
0000
0000
0000
0000
0100
0000
0000
0000
0000
0000
0000
0000
0000
0000
0000
0000
0000
0000
0000
0000
0001
0000
0000
0000
0000
0000
0000
0000
0000
0000
0000
0000
,
0000
1000
0000
0000
0000
0010
0000
0000
0000
0001
0000
0000
0000
1000
0000
0000
,
0000
0001
0000
0010
0000
0000
0000
0000
0000
0100
0000
1000
0000
0000
0000
0000
,
0000
0110
0000
0000
0000
0000
0010
0000
0000
0000
1000
0000
0000
0000
0010
0000
,
0000
0001
0000
0100
0000
1000
0000
0100
,
0000
0001
0010
0000
0000
1000
0100
0000
,
0000
1010
0000
0100
0000
0010
0000
0100
,
0000
1000
0000
0100
0000
0001
0000
0010
,
0000
0100
1000
0000
0000
0100
0010
0000
,
0000
1001
0000
0010
0000
1001
0000
0010
,
0000
0100
0000
1010
0000
0010
0000
0010
,
0000
0001
0010
0000
0000
0100
1000
0000
,
0000
0011
0000
1000
0000
0100
0000
0010
,
0000
1000
0000
0010
0000
0001
0000
0010
,
0000
0100
1000
0000
0000
0010
0001
0000
,
0000
0110
0000
0000
1001
0000
0000
0000
,
1100
0011
0000
0101
,
1010
0000
0101
1010
,
0110
0000
0110
1001
,
0110
1000
0010
0101
,
0010
0000
0100
0000
1000
0100
0000
0000
,
0001
0010
0000
0000
0110
0000
1000
0000
,
0110
0100
0010
0011
,
1000
0000
0001
0000
0010
0100
0000
0000
,
1000
0100
0000
0000
0110
0000
1000
0000
,
1001
0010
0100
0110
,
0010
0000
1000
0000
0001
0010
0000
0000
,
0100
1000
0000
0000
0110
0000
1000
0000
,
0110
1000
0010
0101
,
0010
0000
1000
0000
0001
0010
0000
0000
,
0100
1000
0000
0000
0101
0000
1000
0000
,
0110
0100
0001
0110
,
1000
0000
0001
0000
1000
0100
0000
0000
,
0010
0001
0000
0000
0110
0000
0000
0110
,
0000
0000
0000
1001
0000
0110
0000
0000
,
0000
0011
0000
1100
0000
0000
0000
0110
,
0000
0011
0000
1010
0000
0000
1000
0010
,
1000
0001
0100
0000
0010
0001
0010
0000
,
0100
0000
1000
0100
1000
0000
0001
0010
,
0001
0000
1000
0100
1000
0000
0110
0000
,
0000
0000
0110
0000
1000
0100
1000
0000
,
0110
0000
0001
0010
0001
0000
0010
0100
,
0010
0000
1000
0001
1000
0000
0110
0000
,
0000
0000
0110
0000
1000
0001
1000
0000
,
0110
0000
0001
0010
0100
0000
1000
0010
,
0100
0000
1000
0100
0010
0000
1001
0000
,
0000
0000
0110
0000
1000
0010
0100
0000
,
0110
0000
0001
0100
0010
0000
1000
0100
,
0010
0000
0001
0010
0100
0000
0110
0000
,
0000
0000
0110
0000
1000
0100
1000
0000
,
0110
0000
0001
0010
0001
0000
1000
0010
,
0100
0000
0001
0010
1000
0000
0110
0000
,
0000
0110
0000
0000
0000
1001
0000
0110
,
0000
0000
0000
0011
0000
0110
0000
0000
,
0000
1100
0000
0000
0000
0011
0000
0000
,
0000
0110
0000
1100
0000
0110
0000
0000
,
0000
0000
0000
0110
0000
0000
0000
0000
,
0000
0101
0000
0000
0000
0101
0000
0000
,
0000
0101
0000
0000
0000
1001
0000
0000
,
0000
0000
0000
1001
0000
0000
0000
0000
,
0000
0110
0000
0000
0000
0110
0000
0000
,
0000
0110
0000
0000
0000
0110
0000
0000
,
0000
0000
0000
1001
0000
0000
0000
0000
,
0000
1001
0000
0000
0000
1001
0000
0000
,
0000
1001
0000
0000
0000
1001
0000
0000
,
0000
0000
0000
1001
0000
0000
0000
0000
,
0000
0110
0000
0000
0000
0110
0000
0000
,
0000
0110
0000
0000
0000
0110
0000
0000
,
0000
0000
0000
0110
0000
0000
0000
0000
,
0000
1010
0000
0000
0000
1010
0000
0000
,
0000
1010
0000
0000
1001
0000
0000
0000
,
0110
1001
0000
0110
,
0011
0000
1100
0000
,
0011
0000
0000
1000
0001
1000
0001
0000
,
0110
0000
1000
0100
0010
0000
0110
0000
,
1000
0100
0010
0100
0010
0100
1000
0100
,
0010
1000
0100
0000
0101
0000
0000
0000
,
1001
0000
1000
0100
0010
0000
1001
0000
,
0001
0010
0100
1000
0100
0010
0001
0010
,
0100
1000
0100
0000
0110
0000
0000
0000
,
0110
0000
1000
0100
0010
0000
1001
0000
,
0001
0010
0100
0010
0100
1000
0100
1000
,
0100
0010
0001
0000
1001
0000
0000
0000
,
1001
0000
0100
1000
0010
0000
1001
0000
,
0001
0100
1000
0100
0001
0100
1000
0001
,
0100
1000
0100
0000
1001
0000
0000
0000
,
1001
0000
0010
0100
1000
0000
1001
0000
,
0010
1000
0100
0010
0001
0010
0100
0001
,
0100
0010
1000
0000
1010
0000
0000
1001
,
0000
0000
0000
0110
0000
1001
0000
0000
,
0000
0110
0000
0011
0000
0000
0000
1100
,
0000
0000
0000
0011
0000
0000
0000
1000
,
0010
0100
0000
1001
0000
1000
0001
1000
,
0000
0110
0000
0001
0010
0001
0100
0010
,
0100
0010
1000
0010
1000
0000
0110
0000
,
0000
0000
1001
0000
0010
0100
1000
0000
,
1001
0000
0010
0100
0001
0010
1000
0100
,
0010
0100
1000
0000
1001
0000
0000
0000
,
1001
0000
0100
0010
0100
0000
1001
0000
,
0100
0010
0100
1000
0001
1000
0001
0100
,
0010
0100
0010
1000
0001
0000
1001
0000
,
0000
0000
1001
0000
0100
0010
0100
0000
,
1001
0000
0010
0100
0010
0001
0010
1000
,
0100
0010
1000
0100
0010
0000
1001
0000
,
0000
0000
1001
0000
0100
0010
0100
0000
,
1001
0000
0100
0010
0001
0000
0100
0010
,
0100
1000
0010
0100
0010
0100
0010
0000
,
1001
0000
1001
0110
,
0000
1001
0110
0000
,
1001
0000
1100
0000
0110
0000
0000
1000
,
0001
1000
0001
0000
0000
1001
0000
0000
,
0000
0000
0000
1001
0000
0000
0000
0000
,
0000
0110
0000
0000
0000
1100
0000
0000
,
0000
0011
0000
0000
0000
1100
0000
0000
,
0000
0000
0000
0011
0000
0000
0000
0000
,
0000
1100
0000
0000
0000
0011
0000
0000
,
0000
0110
0000
0000
0000
0000
0000
0000
;
