#TITLE:CARTOON HEROES;
#SUBTITLE:(Speedy Mix);
#ARTIST:Unknown artist;
#TITLETRANSLIT:;
#SUBTITLETRANSLIT:;
#ARTISTTRANSLIT:;
#CREDIT:;
#BANNER:../BN.png;
#BACKGROUND:../BG.png;
#LYRICSPATH:;
#CDTITLE:../CDTitleXD.png;
#MUSIC:CARTOON HEROES (Speedy Mix).ogg;
#OFFSET:0.000;
#SAMPLESTART:35.294;
#SAMPLELENGTH:12.000;
#SELECTABLE:YES;
#BPMS:0.000=170.008,1.000=169.997,3.000=170.008,4.000=169.997,6.000=170.008,7.000=169.997,10.000=170.008,11.000=169.997,13.000=170.008,14.000=169.997,16.000=170.008,17.000=169.997,20.000=170.008,21.000=169.997,24.000=170.008,25.000=169.997,27.000=170.008,28.000=169.997,31.000=170.008,32.000=169.997,34.000=170.008,35.000=169.997,37.000=170.008,38.000=169.997,41.000=170.008,42.000=169.997,44.000=170.008,45.000=169.997,47.000=170.008,48.000=169.997,50.000=170.008,51.000=169.997,53.000=170.008,54.000=169.997,57.000=170.008,58.000=169.997,60.000=170.008,61.000=169.997,63.000=170.008,64.000=169.997,66.000=170.008,67.000=169.997,70.000=170.008,71.000=169.997,74.000=170.008,75.000=169.997,78.000=170.008,79.000=169.997,82.000=170.008,83.000=169.997,86.000=170.008,87.000=169.997,90.000=170.008,91.000=169.997,94.000=170.008,95.000=169.997,98.000=170.008,99.000=169.997,102.000=170.008,103.000=169.997,106.000=170.008,107.000=169.997,110.000=170.008,111.000=169.997,114.000=170.008,115.000=169.997,118.000=170.008,119.000=169.997,122.000=170.008,123.000=169.997,126.000=170.008,127.000=169.997,130.000=170.008,131.000=169.997,134.000=170.008,135.000=169.997,138.000=170.008,139.000=169.997,142.000=170.008,143.000=169.997,146.000=170.008,147.000=169.997,150.000=170.008,151.000=169.997,154.000=170.008,155.000=169.997,158.000=170.008,159.000=169.997,162.000=170.008,163.000=169.997,166.000=170.008,167.000=169.997,170.000=170.008,171.000=169.997,174.000=170.008,175.000=169.997,178.000=170.008,179.000=169.997,182.000=170.008,183.000=169.997,186.000=170.008,187.000=169.997,190.000=170.008,191.000=169.997,194.000=170.008,195.000=169.997,198.000=170.008,199.000=169.997,202.000=170.008,203.000=169.997,206.000=170.008,207.000=169.997,210.000=170.008,211.000=169.997,214.000=170.008,215.000=169.997,218.000=170.008,219.000=169.997,222.000=170.008,223.000=169.997,226.000=170.008,227.000=169.997,230.000=170.008,231.000=169.997,234.000=170.008,235.000=169.997,238.000=170.008,239.000=169.997,242.000=170.008,243.000=169.997,246.000=170.008,247.000=169.997,250.000=170.008,251.000=169.997,254.000=170.008,255.000=169.997,258.000=170.008;
#STOPS:;
#BGCHANGES:;
// cache tags:
#FIRSTBEAT:4.000;
#LASTBEAT:257.000;
#SONGFILENAME:Songs/Index Gradation/CARTOON HEROES (Speedy Mix) - [Will]/CARTOON HEROES (Speedy Mix).sm;
#HASMUSIC:1;
#HASBANNER:1;
#MUSICLENGTH:91.764;
// end cache tags

//---------------dance-single - ----------------
#NOTES:
     dance-single:
     :
     Hard:
     9:
     0.671,0.700,0.120,0.044,0.202,416.000,11.000,4.000,0.000,0.000:
0000
0000
0000
0000
,
1000
0100
1000
0000
0100
0010
1000
0011
,
0100
0000
0001
0100
0000
0010
1000
0000
0010
0100
0000
0000
0100
0010
0001
0000
,
1000
0100
0010
0000
0000
0010
0100
0000
0001
0000
0010
0000
0100
0000
1000
0000
,
0010
0000
0000
0000
1000
0100
0010
0000
0001
0000
0000
0000
0100
0000
0010
0000
,
1000
0100
1000
0000
0000
0000
0100
0000
0010
0000
0001
0000
1000
0000
0001
0000
,
0100
0000
0010
0000
1000
0000
0100
0000
0000
0010
0001
0000
1000
0000
0010
0000
,
1000
0001
0100
0000
0000
0000
0001
0000
1000
0000
0000
0000
0010
0000
0100
0000
,
0001
1000
0000
0010
0100
0000
0001
1000
,
0010
0000
1000
0000
0100
0000
1000
0000
0100
0000
1000
0000
0100
1000
0000
0000
,
0000
0000
1000
0100
1000
0000
0010
0000
,
0100
0000
0001
1000
0000
0010
0100
0000
,
0000
0001
1000
0010
,
0000
0000
0100
0000
0000
0000
0001
0000
1000
0000
0010
0000
0001
0100
0001
0000
,
0000
0001
0000
0000
1000
0000
0010
0000
,
0100
0010
0000
1001
0000
0010
0100
0000
,
1001
0000
0010
0000
0100
0000
0001
1000
,
0000
0010
0000
0100
0000
0001
0100
0000
,
0000
0000
0000
0000
0010
0000
0000
0010
0000
0000
1000
0000
0001
0000
0000
0000
,
0100
0000
0000
0000
0000
0000
1000
0010
0000
0000
1000
0000
0100
0000
0000
0000
,
0000
0000
0010
0000
1000
0000
0010
1000
,
0000
0100
0000
0010
1000
0001
0100
0000
,
0010
0000
1000
0000
0001
0000
0000
0100
,
0000
0010
1000
0000
0001
0000
0000
0000
,
0000
0100
0000
0010
0000
1000
0000
0001
,
0000
0100
0000
0010
1000
0001
0200
0000
,
0000
0000
0010
0000
0010
0000
0310
0001
,
0000
1000
0100
0010
0100
0010
0100
0000
,
1000
0000
0000
0000
0100
0000
0000
0000
0000
0000
1000
0001
0010
0100
1000
0000
,
0000
0010
0000
0100
0001
0000
0100
0010
,
0000
1000
0001
0000
0100
0000
0010
1000
,
0000
0001
0000
0100
0000
0010
0100
0000
,
0001
1000
0010
0100
0000
0001
0100
0010
,
1000
0001
0100
0010
1000
0001
0100
0010
,
1000
0000
0001
0000
0100
0000
0010
0000
0001
0100
0001
0000
0010
0000
0100
0000
,
0000
0000
1000
0001
0010
0000
0000
0000
0001
0010
0100
0000
1000
0000
0001
0000
,
1000
0000
0100
0000
0010
0000
0001
0000
1000
0100
0010
0000
0001
0000
1000
0000
,
0100
0010
0001
1000
0100
0010
0100
1000
,
0100
0000
0010
0000
0001
0000
1000
0000
0100
0000
0010
0000
0001
0000
1000
0100
,
0010
0001
1000
0100
0010
0100
1000
0001
,
0010
0100
1000
0001
0010
0100
1000
0001
,
0010
0000
0001
0010
0100
0000
1000
0000
0001
0000
1000
0000
0100
0000
0010
0000
,
0001
0000
1000
0000
0100
0010
0100
0000
1000
0000
0001
0000
0010
0000
0001
0000
,
0010
0100
1000
0100
1000
0001
0010
1001
,
0000
0100
0001
0100
0001
0100
0010
0000
,
0010
1000
0010
0100
0001
0100
0001
1000
,
0010
0100
0001
1000
0010
0100
0001
0100
,
0010
1000
0001
0100
0010
1000
0001
0100
,
0010
1000
0001
0100
0001
0100
0001
0100
,
0001
0000
0010
0000
0000
0000
1000
0010
1000
0000
0000
0000
0010
0000
1000
0000
,
0010
0100
0001
0100
0001
1000
0001
1000
,
0001
0100
0001
0100
0010
1000
0000
0010
,
0100
0010
0100
0010
1000
0010
0100
0010
,
1000
0010
0100
0010
0100
0001
0100
0001
,
0100
0000
0001
0000
1000
0000
0010
0000
0100
0000
0010
0000
0100
0000
0001
0100
,
0001
1000
0100
1000
0100
1000
0100
1000
,
0001
0000
0010
0000
0100
0000
1000
0010
1000
0000
0001
0010
0001
0000
1000
0000
,
0001
0100
0001
1000
0001
0100
0001
0010
,
0000
0011
0000
0011
0000
0011
0000
0000
,
0011
0000
0000
0000
0022
0000
0033
0000
0000
0010
0100
0000
1000
0000
0000
0000
,
0000
0000
1000
0100
0000
0000
0010
0001
0010
0000
0011
0000
0000
0011
0000
0000
,
0001
0010
0100
1000
0100
0000
1000
0100
0000
0010
0001
0000
0000
0000
0100
0000
,
0000
0000
0010
0000
0000
0000
1000
0100
0010
0000
0000
0000
1000
0100
0000
0000
,
1000
0100
0020
0000
0000
0000
0000
0000
,
0000
0030
0000
0000
;

//---------------dance-single - ----------------
#NOTES:
     dance-single:
     :
     Challenge:
     14:
     1.000,1.000,0.403,0.033,1.000,747.000,37.000,3.000,9.000,0.000:

0000
0000
0000
0000
,
1001
0000
0001
0000
0101
0000
0100
0010
0000
0010
0100
0000
0010
0000
1000
0000
,
1010
0000
0100
0000
0101
0000
0010
1000
0000
1000
0010
0000
0100
0001
0100
0000
,
0101
0000
0010
1000
0010
0000
0100
0001
0000
0100
0010
0000
1000
0100
1000
0000
,
0001
0100
0010
0000
1000
0000
0100
0010
0001
0100
0010
1000
0001
0000
1000
0000
,
1001
0000
0001
0000
0101
0000
0100
0010
0000
0010
0100
0000
0001
0100
0010
1000
,
0100
0000
0010
0001
0010
0000
0100
1000
0000
0100
1000
0000
0001
0100
0010
0100
,
0001
0000
1000
0000
1001
0000
0001
0100
0000
0010
1000
0000
0101
0000
0010
0000
,
1010
0000
0100
0000
0001
0100
0000
0100
0010
0100
0001
0000
0100
0000
0010
0000
,
1010
0000
0M00
0000
000M
0000
M000
0M00
0000
00M0
000M
0M00
00M0
0000
0M00
0000
,
1001
0010
0100
0001
0010
0001
1000
0100
,
0010
0000
0001
0000
1000
0100
0010
0001
1000
0000
0001
0010
0100
1000
0001
0100
,
0010
1000
0100
0000
0010
0001
0100
0010
1000
0001
0010
0000
0100
1000
0001
0100
,
0010
1000
0100
0000
0010
0001
0010
0100
1000
0001
0100
0000
0010
1000
0001
0010
,
0100
1000
0001
0100
0010
0100
0001
0010
0001
1000
0100
0010
0001
1000
0010
0100
,
0001
0010
0001
0100
0010
1000
0001
0010
0100
1000
0001
0100
0010
0100
0001
0100
,
1001
0000
0101
0000
0110
0000
1010
0110
,
0000
0000
0100
0000
0001
1000
0100
1000
0001
0000
0100
0000
0010
0000
0010
0000
,
1010
0000
0000
0000
1000
0100
0010
0001
0010
0100
1000
0001
0100
0010
0100
0001
,
0010
0001
1000
0100
0010
0001
0010
0100
1000
0001
0100
0010
0100
0001
0100
0010
,
1000
0100
0010
0001
1000
0010
0100
0001
0010
0001
1000
0100
0010
0001
0010
0100
,
1000
0001
0100
0010
0100
0001
0010
0001
1000
0100
0010
0001
0010
0100
1000
0001
,
2001
0000
0001
0000
3010
0000
0010
0100
,
0000
0000
0100
0000
0010
0000
0000
0000
1000
0100
1000
0000
0001
0000
0100
0000
,
0110
0000
0000
0000
1000
0100
0010
0001
0010
0100
1000
0001
0100
0010
0100
0001
,
0010
0001
1000
0100
0010
0100
1000
0001
0010
0100
1000
0001
0100
0000
0020
0000
,
0130
0000
0000
0000
0001
0010
0100
1000
0001
0100
0010
0100
0001
0010
0001
1000
,
0100
0010
0001
0010
0100
1000
0001
0100
0010
0100
0001
0010
0001
1000
0200
0000
,
1300
0000
0000
0000
0001
0100
0001
0100
0010
1000
0100
0010
0100
1000
0001
0100
,
0010
1000
0100
0010
0001
0010
0100
1000
0001
0100
0010
0100
0001
0010
0001
1000
,
0001
0000
1001
0000
1001
0000
0101
1001
,
0000
1010
0000
0110
0000
0001
0001
0100
,
0010
1000
0001
0010
0100
1000
0001
0100
0010
0100
0001
0010
0001
1000
0100
0010
,
0100
1000
0001
0100
0010
0100
0001
0010
0001
1000
0100
1000
0001
0010
0100
1000
,
0001
0100
0010
0100
0001
0010
0001
1000
0100
0010
0100
1000
0001
0100
0010
0100
,
0001
0010
0100
1000
0001
0100
0010
0100
0001
0010
0001
1000
0100
0010
0100
1000
,
0001
0100
0010
0100
0001
0010
0001
1000
0100
0010
0100
1000
0001
0100
0010
0100
,
0001
0010
0001
1000
0100
1000
0001
0010
0100
1000
0001
0100
0010
0100
0001
0010
,
0001
0100
0010
1000
0001
0010
0100
1000
0001
0100
0010
0100
0001
0010
0001
1000
,
0100
0010
0100
1000
0001
0010
0100
1000
0001
0100
0010
0100
0001
0010
0001
1000
,
0001
0000
0100
0010
0100
0001
1000
0000
0100
0000
0010
0001
0100
0010
1000
0000
,
0001
0000
0010
0100
1000
0001
0100
0010
1000
0000
0001
0000
0100
0010
0100
0001
,
0100
0000
0010
0000
1000
0100
1000
0001
0100
0000
0010
0000
1000
0100
1000
0001
,
0100
0010
1000
0010
1000
0100
1100
1100
,
1001
0000
0001
0000
0100
0010
0100
0010
1000
0000
0010
0000
0100
0010
0100
0010
,
1000
0000
0001
0000
1000
0100
1000
0100
0010
0000
0001
0000
0010
0100
0010
0100
,
1000
0000
0001
0000
0100
0010
0100
0010
1000
0000
0001
0000
0100
0000
0010
0000
,
1010
0000
0000
0000
0100
0001
0100
0010
1000
0100
0010
0100
1000
0000
0000
0000
,
1001
0000
0001
0000
1000
0100
1000
0100
1000
0001
0100
0010
1000
0010
1000
0010
,
1000
0100
0010
0001
0100
0010
0100
0010
0100
0001
0010
0100
1000
0001
1000
0001
,
1000
0010
0100
0001
1000
0010
1000
0010
1000
0001
0010
0100
1000
0001
1000
0001
,
1000
0100
0010
0001
0100
0010
0100
0010
0100
0001
0010
0100
1000
0000
0001
0000
,
1001
0000
1000
0000
0100
0010
0100
0010
0001
0000
0100
0000
0010
1000
0010
1000
,
0001
0000
0100
0000
0010
1000
0010
1000
0001
0000
0100
0000
0010
1000
0010
0100
,
0001
0000
0100
0000
0010
1000
0010
1000
0001
0000
0100
0000
0010
1000
0010
1000
,
1001
0000
0001
0000
0100
0000
0000
0010
1000
0000
0100
0010
0100
0000
0010
0001
,
0011
0000
0001
0000
1000
0100
1000
0010
1000
0000
0001
0000
0100
0001
0010
0001
,
0100
0000
0010
0000
1000
0100
1000
0001
0100
0000
0010
0000
1000
0100
0010
0100
,
1000
0000
0001
0000
0100
0010
0100
0001
0100
0000
0010
0000
1000
0100
0010
0001
,
1000
0100
0010
0001
0010
0100
1000
0001
0100
0010
0100
0001
1000
0000
0000
0000
0000
0000
1010
0000
0000
0000
0000
0000
,
0100
0001
0100
0010
1000
0001
0010
0100
1000
0001
0100
0010
1000
0000
0000
0000
0000
0000
0110
0000
0000
0000
0000
0000
,
0001
0100
0001
0000
1000
0010
1000
0000
0001
0100
0001
0000
1000
0010
1000
0000
,
1001
0000
0000
0000
;
