#TITLE:The Medley of Kirby;
#SUBTITLE:Speed Star DeluXe 2;
#ARTIST:hapi=>;
#TITLETRANSLIT:;
#SUBTITLETRANSLIT:;
#ARTISTTRANSLIT:;
#CREDIT:owenviau1 & leonid;
#BANNER:The Medley of Kirby SSDX2 bn.png;
#BACKGROUND:The Medley of Kirby SSDX2 bg.png;
#LYRICSPATH:The Medley of Kirby SSDX2.lrc;
#CDTITLE:cdtitle.png;
#MUSIC:The Medley of Kirby SSDX2.mp3;
#OFFSET:-1.341;
#SAMPLESTART:1392.162;
#SAMPLELENGTH:29.999;
#SELECTABLE:YES;
#DISPLAYBPM:180.000;
#BPMS:0.000=50.989,1.000=51.001,2.000=52.002,3.000=55.000,4.000=58.002,5.000=60.000,6.000=62.002,7.000=64.004,8.000=65.503,9.000=68.001,10.000=70.504,11.000=72.000,12.000=74.004,13.000=77.001,14.000=78.500,15.000=160.005,16.000=159.995,17.000=160.005,18.000=159.995,19.000=160.005,20.000=159.995,21.000=160.005,22.000=159.995,23.000=160.005,24.000=159.995,25.000=160.005,26.000=159.995,27.000=160.005,28.000=159.995,29.000=160.005,30.000=159.995,31.000=160.005,32.000=159.995,33.000=160.005,34.000=159.995,35.000=160.005,36.000=159.995,37.000=160.005,38.000=159.995,39.000=160.005,40.000=159.995,41.000=160.005,42.000=159.995,43.000=160.005,44.000=159.995,45.000=160.005,46.000=159.995,47.000=160.005,48.000=159.995,49.000=160.005,50.000=159.995,51.000=160.005,52.000=159.995,53.000=160.005,54.000=159.995,55.000=160.005,56.000=159.995,57.000=160.005,58.000=159.995,59.000=160.005,60.000=159.995,61.000=160.005,62.000=159.995,63.000=160.005,64.000=159.995,65.000=160.005,66.000=159.995,67.000=160.005,68.000=159.995,69.000=160.005,70.000=159.995,71.000=160.005,72.000=159.995,73.000=160.005,74.000=159.995,75.000=160.005,76.000=159.995,77.000=161.008,78.000=160.998,81.000=161.008,82.000=160.005,83.000=159.995,84.000=161.008,85.000=160.500,88.000=160.510,89.000=160.500,92.000=160.510,93.000=160.500,95.000=161.008,96.000=162.003,98.000=160.005,99.000=161.008,100.000=160.998,104.000=161.008,105.000=160.998,107.000=162.003,109.000=161.993,110.000=161.008,111.000=160.998,114.000=162.003,116.000=161.993,117.000=161.008,118.000=160.998,120.000=162.003,122.000=161.008,123.000=162.003,125.000=161.993,126.000=162.003,128.000=161.993,129.000=162.003,130.000=163.001,132.000=162.003,134.000=161.008,135.000=162.003,137.000=161.993,138.000=162.003,140.000=161.993,141.000=162.003,142.000=163.001,146.000=162.003,148.000=161.993,149.000=162.003,150.000=164.001,152.000=162.003,154.000=161.993,155.000=162.003,156.000=163.001,162.000=162.991,163.000=163.001,170.000=162.991,171.000=163.001,172.000=164.001,176.000=163.001,181.000=164.001,186.000=163.991,187.000=163.001,189.000=164.001,193.000=165.004,194.000=164.001,199.000=163.991,200.000=164.001,205.000=165.004,207.000=164.993,208.000=165.004,209.000=164.001,214.000=165.004,216.000=164.993,217.000=165.004,219.000=164.993,220.000=165.004,221.000=164.993,222.000=165.004,224.000=164.993,225.000=165.004,227.000=164.993,228.000=165.004,229.000=164.993,230.000=165.004,232.000=164.993,233.000=165.004,235.000=164.993,236.000=165.004,238.000=164.993,239.000=165.997,240.000=166.008,241.000=165.997,243.000=165.004,245.000=166.321,246.000=167.003,247.000=163.041,248.000=165.004,250.000=165.997,251.000=166.008,252.000=165.997,253.000=166.008,254.000=165.997,257.000=166.008,258.000=165.997,261.000=166.008,262.000=165.997,265.000=166.008,266.000=165.997,267.000=167.003,269.000=166.993,270.000=167.003,272.000=165.997,273.000=166.008,274.000=165.997,277.000=166.008,278.000=165.997,279.000=167.003,281.000=166.993,282.000=167.003,283.000=165.997,284.000=166.008,285.000=168.000,288.000=167.003,290.000=166.993,291.000=167.003,293.000=166.993,294.000=167.003,296.000=166.993,297.000=167.003,300.000=166.993,301.000=167.003,303.000=168.000,309.000=167.003,311.000=166.993,312.000=167.003,314.000=166.993,315.000=168.000,317.000=168.998,318.000=168.000,333.000=168.998,334.000=169.009,335.000=168.998,338.000=168.000,343.000=168.998,344.000=169.009,345.000=168.998,347.000=168.000,349.000=168.998,350.000=169.009,351.000=168.998,355.000=169.009,356.000=168.998,357.000=170.008,358.000=169.997,359.000=168.998,360.000=169.009,361.000=168.998,365.000=169.009,366.000=168.998,368.000=170.008,369.000=169.997,370.000=168.998,371.000=169.009,372.000=168.998,374.000=170.008,375.000=169.997,378.000=170.008,379.000=169.997,381.000=170.008,382.000=169.997,385.000=170.008,386.000=169.997,388.000=170.008,389.000=169.997,391.000=170.008,392.000=169.997,395.000=170.008,396.000=169.997,398.000=170.008,399.000=172.008,400.000=171.997,401.000=171.008,402.000=170.997,404.000=170.008,405.000=169.997,407.000=170.008,408.000=169.997,409.000=172.008,410.000=170.008,411.000=169.997,412.000=172.008,413.000=171.008,414.000=170.997,416.000=171.008,417.000=170.997,418.000=171.008,419.000=170.997,420.000=171.008,421.000=170.997,422.000=172.008,423.000=171.008,425.000=170.008,427.000=172.008,429.000=171.008,431.000=172.008,433.000=171.997,434.000=172.008,435.000=171.997,436.000=172.008,438.000=171.997,439.000=170.008,441.000=169.997,442.000=171.008,443.000=172.008,445.000=171.997,446.000=172.008,447.000=171.997,448.000=173.009,449.000=172.998,450.000=172.008,452.000=171.997,453.000=172.008,454.000=171.997,455.000=172.008,457.000=171.997,458.000=172.008,460.000=171.997,461.000=172.008,462.000=173.009,463.000=172.998,464.000=173.009,465.000=172.998,466.000=172.008,468.000=171.997,469.000=172.008,470.000=171.997,471.000=172.008,472.000=173.009,473.000=172.998,474.000=172.008,475.000=173.009,476.000=172.998,477.000=173.009,478.000=172.998,479.000=173.009,481.000=172.998,482.000=173.009,483.000=172.998,484.000=173.009,485.000=172.998,486.000=173.009,487.000=172.998,488.000=173.009,490.000=172.998,491.000=173.009,492.000=174.010,493.000=173.999,494.000=174.010,495.000=173.009,496.000=172.998,497.000=173.999,498.000=174.010,499.000=173.999,500.000=174.010,501.000=173.009,502.000=172.998,503.000=173.009,504.000=172.998,505.000=173.999,506.000=174.010,507.000=173.999,508.000=174.010,509.000=173.999,510.000=174.010,511.000=173.999,512.000=174.010,513.000=173.999,514.000=174.010,515.000=173.999,517.000=174.010,518.000=173.999,519.000=174.010,520.000=173.999,521.000=174.010,522.000=173.999,523.000=174.010,524.000=173.999,526.000=174.010,527.000=175.000,528.000=175.012,529.000=175.000,531.000=175.012,532.000=175.000,534.000=173.999,535.000=174.010,536.000=173.999,538.000=174.010,539.000=173.999,540.000=175.000,541.000=175.012,542.000=175.000,544.000=175.012,545.000=175.000,547.000=175.012,548.000=175.000,550.000=175.012,551.000=175.000,553.000=175.012,554.000=175.000,555.000=175.012,556.000=175.000,557.000=176.001,558.000=176.013,559.000=176.001,562.000=176.013,563.000=176.001,565.000=175.000,566.000=175.012,567.000=175.000,569.000=175.012,570.000=175.000,571.000=176.001,572.000=176.013,573.000=176.001,576.000=176.013,577.000=176.001,580.000=176.013,581.000=176.001,584.000=176.013,585.000=176.001,587.000=177.002,589.000=177.014,590.000=177.002,591.000=178.002,592.000=177.002,594.000=177.014,595.000=177.002,598.000=176.001,599.000=176.013,600.000=176.001,603.000=176.013,604.000=176.001,606.000=177.002,608.000=177.014,609.000=177.002,614.000=177.014,615.000=177.002,618.000=178.002,620.000=177.990,621.000=177.002,624.000=176.990,625.000=177.002,626.000=178.002,628.000=177.990,629.000=178.002,632.000=177.002,635.000=178.002,637.000=177.990,638.000=178.002,643.000=177.990,644.000=178.002,649.000=177.990,650.000=178.002,652.000=179.001,654.000=178.002,656.000=179.001,657.000=178.002,659.000=177.990,660.000=179.001,664.000=178.989,665.000=179.001,670.000=178.002,672.000=177.990,673.000=179.001,677.000=178.989,678.000=180.000,679.000=179.001,683.000=178.989,684.000=179.001,686.000=180.000,692.000=179.001,696.000=178.989,697.000=179.001,698.000=180.000,728.000=180.997,730.000=181.010,731.000=180.997,732.000=180.000,741.000=180.997,743.000=181.010,744.000=180.997,747.000=180.000,752.000=180.997,754.000=181.010,755.000=180.997,756.000=180.000,760.000=180.997,762.000=181.010,763.000=180.997,766.000=182.006,767.000=180.997,769.000=181.010,770.000=180.000,772.000=180.997,774.000=181.010,775.000=180.997,780.000=181.010,781.000=180.997,784.000=181.010,785.000=180.997,789.000=181.010,790.000=180.997,794.000=181.010,795.000=180.997,796.000=182.006,797.000=180.997,798.000=182.006,799.000=181.993,800.000=182.006,801.000=181.993,802.000=182.006,803.000=180.997,805.000=181.010,806.000=180.997,807.000=182.006,808.000=181.993,809.000=182.006,810.000=181.993,811.000=180.997,813.000=181.010,814.000=180.997,816.000=182.006,817.000=181.993,818.000=182.006,819.000=181.993,820.000=182.006,821.000=180.997,823.000=181.010,824.000=180.997,825.000=182.006,826.000=181.993,827.000=182.006,828.000=181.993,829.000=182.006,830.000=181.993,831.000=182.006,832.000=181.993,833.000=182.006,834.000=181.993,835.000=182.006,836.000=181.993,837.000=182.006,839.000=181.993,840.000=182.006,841.000=181.993,842.000=182.006,843.000=181.993,844.000=182.006,845.000=181.993,846.000=182.006,847.000=181.993,848.000=182.006,849.000=181.993,850.000=182.006,852.000=181.993,853.000=182.006,854.000=183.000,855.000=182.006,856.000=181.993,857.000=182.006,858.000=181.993,859.000=182.006,860.000=181.993,861.000=182.006,862.000=183.000,867.000=182.006,868.000=181.993,869.000=182.006,870.000=181.993,871.000=182.006,872.000=181.993,873.000=182.006,874.000=183.000,875.000=182.006,876.000=181.993,877.000=182.006,878.000=181.993,879.000=182.006,880.000=183.000,887.000=183.013,888.000=183.000,892.000=182.006,893.000=181.993,894.000=182.006,895.000=183.000,908.000=184.006,909.000=183.993,910.000=183.000,927.000=184.006,928.000=183.993,929.000=184.006,930.000=183.993,931.000=183.000,934.000=184.006,935.000=183.993,936.000=184.006,937.000=183.000,940.000=184.006,941.000=183.993,942.000=184.006,943.000=183.000,946.000=184.006,947.000=183.993,948.000=184.006,949.000=183.000,953.000=184.006,955.000=183.993,956.000=184.006,957.000=183.993,958.000=184.006,959.000=183.993,960.000=184.006,962.000=183.993,963.000=184.006,964.000=183.993,965.000=184.006,966.000=183.993,967.000=184.006,968.000=183.993,969.000=184.006,971.000=183.993,972.000=184.006,973.000=183.000,974.000=184.006,975.000=183.993,976.000=184.006,977.000=183.993,978.000=184.006,979.000=183.993,980.000=184.996,981.000=184.006,982.000=183.993,983.000=184.006,984.000=183.993,985.000=184.006,986.000=183.993,987.000=184.006,989.000=184.996,990.000=185.009,991.000=184.996,994.000=184.006,995.000=183.993,996.000=184.006,997.000=183.993,998.000=184.006,999.000=184.996,1000.000=185.009,1001.000=184.996,1002.000=184.006,1003.000=183.993,1004.000=184.996,1005.000=185.009,1006.000=184.006,1007.000=183.993,1008.000=184.996,1009.000=185.009,1010.000=184.996,1012.000=184.006,1013.000=183.993,1014.000=184.006,1015.000=183.993,1016.000=184.996,1017.000=185.009,1018.000=184.996,1020.000=184.006,1021.000=183.993,1022.000=184.996,1023.000=185.009,1024.000=184.996,1026.000=185.997,1027.000=184.996,1028.000=185.009,1029.000=184.996,1032.000=185.009,1033.000=184.996,1035.000=185.009,1036.000=184.996,1038.000=185.009,1039.000=184.996,1042.000=185.009,1043.000=184.996,1045.000=185.009,1046.000=184.996,1048.000=185.009,1049.000=184.996,1052.000=185.997,1054.000=184.996,1055.000=185.009,1056.000=184.996,1057.000=185.997,1059.000=186.011,1060.000=185.997,1061.000=184.996,1062.000=185.009,1063.000=184.996,1065.000=185.997,1067.000=186.011,1068.000=185.997,1069.000=185.971,1070.000=185.009,1071.000=184.983,1072.000=185.009,1074.000=185.997,1079.000=186.024,1080.000=185.009,1081.000=184.983,1082.000=185.009,1084.000=185.997,1089.000=186.024,1090.000=185.997,1099.000=186.024,1100.000=185.997,1109.000=186.024,1110.000=185.997,1116.000=186.996,1119.000=185.997,1122.000=186.496,1125.000=186.522,1126.000=186.496,1131.000=186.522,1132.000=186.496,1137.000=186.522,1138.000=186.496,1142.000=186.522,1143.000=186.496,1145.000=186.996,1148.000=187.023,1149.000=186.996,1156.000=187.023,1157.000=186.996,1161.000=185.997,1163.000=186.996,1166.000=187.023,1167.000=186.996,1168.000=187.500,1175.000=186.996,1178.000=187.023,1179.000=186.996,1183.000=187.500,1214.000=188.006,1216.000=187.980,1217.000=188.006,1220.000=187.980,1221.000=188.006,1224.000=189.000,1226.000=188.006,1228.000=187.980,1229.000=188.006,1232.000=187.980,1233.000=188.006,1236.000=187.980,1237.000=188.006,1240.000=187.980,1241.000=188.006,1245.000=187.980,1246.000=189.000,1251.000=188.006,1253.000=187.980,1254.000=188.006,1255.000=189.000,1257.000=188.006,1259.000=189.000,1260.000=188.006,1261.000=189.000,1264.000=188.006,1266.000=187.980,1267.000=188.006,1269.000=189.000,1275.000=188.006,1277.000=187.980,1278.000=189.000,1309.000=190.004,1312.000=189.977,1313.000=189.000,1317.000=190.004,1320.000=189.000,1324.000=190.004,1327.000=189.977,1328.000=190.004,1330.000=189.000,1337.000=190.004,1341.000=189.977,1342.000=190.004,1343.000=189.000,1349.000=189.027,1350.000=189.000,1351.000=190.004,1354.000=189.977,1355.000=190.004,1359.000=189.000,1364.000=190.004,1367.000=189.977,1368.000=190.004,1369.000=189.000,1371.000=190.004,1374.000=189.977,1375.000=190.004,1380.000=189.977,1381.000=190.004,1386.000=189.977,1387.000=190.004,1393.000=189.977,1394.000=190.004,1399.000=189.977,1400.000=190.004,1405.000=189.977,1406.000=190.004,1411.000=189.977,1412.000=190.004,1418.000=189.977,1419.000=190.004,1424.000=189.977,1425.000=190.004,1430.000=189.977,1431.000=190.004,1437.000=189.977,1438.000=190.004,1443.000=189.977,1444.000=190.004,1449.000=189.977,1450.000=190.004,1456.000=189.977,1457.000=190.004,1462.000=189.977,1463.000=190.004,1468.000=189.977,1469.000=190.004,1475.000=189.977,1476.000=190.004,1481.000=189.977,1482.000=190.004,1487.000=189.977,1488.000=190.004,1494.000=189.977,1495.000=190.004,1500.000=189.977,1501.000=190.004,1506.000=189.977,1507.000=190.004,1513.000=189.977,1514.000=190.004,1519.000=189.977,1520.000=190.004,1525.000=189.977,1526.000=190.004,1532.000=189.977,1533.000=190.004,1537.000=189.977,1538.000=190.004,1544.000=189.977,1545.000=190.004,1551.000=189.977,1552.000=190.004,1556.000=189.977,1557.000=190.004,1563.000=189.977,1564.000=190.004,1570.000=189.977,1571.000=190.004,1575.000=189.977,1576.000=190.004,1582.000=189.977,1583.000=190.004,1589.000=189.977,1590.000=190.004,1594.000=189.977,1595.000=190.004,1601.000=189.977,1602.000=190.004,1608.000=189.977,1609.000=190.004,1613.000=189.977,1614.000=190.004,1620.000=189.977,1621.000=190.004,1627.000=189.977,1628.000=190.004,1632.000=189.977,1633.000=190.004,1639.000=189.977,1640.000=190.004,1646.000=189.977,1647.000=190.004,1651.000=189.977,1652.000=190.004,1658.000=189.977,1659.000=190.004,1664.000=189.977,1665.000=190.004,1671.000=189.977,1672.000=190.004,1677.000=189.977,1678.000=190.004,1684.000=189.977,1685.000=190.004,1689.000=189.977,1690.000=190.032,1691.000=189.977,1692.000=190.004,1696.000=189.977,1697.000=190.004,1703.000=189.977,1704.000=190.004,1708.000=189.977,1709.000=190.032,1710.000=189.977,1711.000=190.004,1715.000=189.977,1716.000=190.004,1722.000=189.977,1723.000=190.004,1724.000=185.997,1725.000=182.988,1726.000=181.010,1727.000=177.990,1728.000=174.010,1729.000=170.008,1730.000=168.000,1731.000=165.004,1732.000=161.993,1733.000=158.008,1734.000=155.009,1735.000=150.993,1736.000=149.003,1737.000=147.000,1738.000=141.999,1739.000=139.000,1740.000=135.999,1741.000=134.002,1742.000=129.999,1743.000=126.000,1744.000=124.004,1745.000=120.000,1746.000=116.997,1747.000=114.003,1748.000=110.999,1749.000=108.000,1750.000=105.000,1751.000=101.997,1752.000=98.000,1753.000=95.995,1753.500=94.689,1754.000=92.999,1754.500=89.768,1755.000=84.998,1756.000=85.004,1757.000=84.998,1760.000=85.004,1761.000=84.998,1763.000=85.004,1764.000=84.998,1766.000=85.004,1767.000=67.510,1768.000=95.002,1769.000=94.995,1770.000=95.002,1772.000=94.995,1773.000=95.002,1775.000=94.995,1776.000=95.002,1779.000=94.995,1780.000=95.002,1782.000=94.995,1783.000=95.002,1785.000=94.995,1786.000=95.002,1788.000=92.999,1789.000=95.002,1790.000=96.002,1792.000=95.002,1793.000=94.995,1794.000=95.002,1795.000=94.003,1796.000=92.003,1797.000=83.134,1797.500=79.930,1798.000=73.795,1798.500=71.252,1799.000=64.999,1800.000=60.000,1801.000=58.001,1802.000=54.999,1803.000=92.999,1804.000=95.002,1805.000=94.995,1806.000=95.002,1808.000=94.995,1809.000=95.002,1811.000=94.995,1812.000=95.002,1815.000=94.995,1816.000=95.002,1819.000=94.995,1820.000=95.002,1821.000=94.995,1822.000=95.002,1823.000=94.995,1824.000=95.002,1825.000=94.995,1826.000=95.002,1827.000=94.995,1828.000=95.002,1829.000=94.995,1830.000=95.002,1832.000=94.995,1833.000=95.002,1834.000=94.995,1835.000=95.002,1836.000=190.004,1839.000=189.977,1840.000=190.004,1845.000=189.977,1846.000=190.004,1851.000=189.977,1852.000=190.004,1858.000=189.977,1859.000=190.004,1864.000=189.977,1865.000=190.004,1870.000=189.977,1871.000=190.004,1874.000=189.977,1875.000=190.004,1879.000=189.977,1880.000=190.004,1884.000=189.977,1885.000=190.004,1890.000=189.977,1891.000=190.004,1895.000=189.977,1896.000=190.004,1900.000=189.977,1901.000=190.004,1905.000=189.977,1906.000=190.004,1910.000=189.977,1911.000=190.004,1915.000=189.977,1916.000=190.004,1920.000=189.977,1921.000=190.004,1925.000=189.977,1926.000=190.004,1931.000=189.977,1932.000=190.004,1935.000=193.563,1936.000=191.990,1937.000=192.017,1938.000=190.992,1939.000=191.019,1940.000=190.992,1942.000=191.019,1943.000=190.004,1946.000=189.977,1947.000=190.004,1952.000=189.977,1953.000=190.004,1954.000=190.992,1955.000=191.019,1956.000=190.992,1959.000=191.019,1960.000=190.004,1964.000=190.992,1965.000=191.990,1966.000=192.017,1967.000=190.992,1968.000=191.019,1969.000=190.992,1972.000=191.019,1973.000=190.992,1975.000=191.019,1976.000=191.990,1977.000=192.017,1978.000=191.990,1979.000=192.017,1980.000=191.990,1981.000=190.992,1982.000=191.019,1983.000=190.992,1984.000=191.990,1985.000=192.017,1986.000=191.990,1987.000=192.017,1988.000=191.990,1989.000=192.017,1990.000=191.990,1991.000=192.017,1992.000=191.990,1994.000=192.017,1995.000=191.990,1996.000=192.998,2000.000=191.990,2001.000=192.017,2002.000=191.990,2003.000=192.017,2004.000=191.990,2006.000=192.998,2012.000=193.026,2013.000=192.998,2021.000=193.988,2022.000=194.017,2023.000=193.988,2024.000=194.017,2025.000=193.988,2026.000=192.998,2032.000=193.988,2033.000=194.017,2034.000=193.988,2035.000=192.998,2036.000=194.989,2037.000=193.988,2038.000=194.017,2039.000=193.988,2040.000=194.989,2041.000=193.988,2042.000=194.017,2043.000=193.988,2044.000=194.017,2045.000=193.988,2046.000=194.989,2047.000=195.018,2048.000=194.989,2049.000=195.018,2050.000=192.998,2052.000=194.017,2053.000=194.989,2054.000=195.018,2055.000=194.989,2056.000=195.018,2057.000=196.000,2060.000=194.989,2061.000=195.018,2062.000=194.989,2063.000=195.018,2064.000=194.989,2066.000=195.018,2067.000=194.989,2069.000=195.018,2070.000=194.989,2071.000=195.018,2072.000=196.000,2079.000=194.989,2080.000=195.018,2081.000=194.989,2082.000=195.018,2083.000=194.989,2084.000=196.000,2089.000=196.992,2091.000=197.022,2092.000=196.992,2095.000=196.000,2104.000=196.992,2105.000=197.022,2106.000=196.992,2109.000=197.022,2110.000=196.992,2111.000=196.000,2115.000=196.992,2117.000=197.022,2118.000=197.995,2121.000=199.007,2122.000=200.000,2123.000=199.007,2124.000=197.995,2126.000=196.992,2127.000=197.022,2128.000=196.992,2130.000=197.995,2132.000=198.024,2133.000=197.995,2134.000=199.007,2136.000=198.977,2137.000=199.007,2139.000=197.995,2141.000=198.024,2142.000=197.995,2147.000=199.007,2149.000=198.977,2150.000=199.007,2153.000=198.977,2154.000=199.007,2157.000=198.977,2158.000=199.007,2160.000=197.995,2162.000=198.024,2163.000=197.995,2165.000=199.007,2166.000=200.000,2173.000=199.970,2174.000=200.030,2175.000=199.007,2180.000=200.030,2181.000=201.003,2182.000=201.985,2183.000=201.003,2185.000=200.030,2186.000=199.970,2187.000=200.030,2188.000=199.970,2189.000=200.030,2190.000=199.970,2191.000=200.030,2192.000=199.970,2193.000=201.003,2198.000=200.030,2199.000=199.970,2200.000=200.030,2201.000=201.003,2215.000=180.000,2216.000=170.008,2217.000=160.015,2218.000=130.012,2219.000=100.992,2220.000=101.008,2221.000=100.992,2222.000=101.008,2223.000=100.992,2224.000=101.008,2225.000=100.992,2226.000=101.008,2227.000=100.992,2228.000=101.008,2229.000=100.992,2230.000=101.008,2231.000=100.992,2232.000=101.008,2233.000=100.992,2234.000=106.745,2235.000=108.979,2235.500=99.534,2236.000=100.045,2236.500=101.989,2237.000=100.992,2237.500=99.057,2238.000=103.005,2238.500=101.023,2239.000=98.116,2239.500=104.042,2240.000=101.023,2240.500=99.057,2241.000=98.584,2242.000=101.008,2243.000=110.730,2243.500=100.015,2244.000=101.008,2245.000=100.992,2245.500=98.116,2246.000=102.005,2247.000=98.116,2247.500=104.042,2248.000=101.023,2248.500=97.194,2249.000=100.501,2249.500=98.584,2250.000=103.005,2250.500=101.023,2251.000=100.992,2252.000=101.008,2253.000=100.992,2254.000=101.008,2255.000=100.992,2256.000=101.008,2257.000=100.992,2258.000=101.008,2259.000=100.992,2260.000=101.008,2261.000=100.992,2262.000=101.008,2263.000=100.992,2264.000=101.008,2265.000=100.992,2266.000=101.008,2267.000=100.992,2268.000=101.008,2269.000=100.992,2270.000=101.008,2271.000=100.992,2272.000=101.008,2273.000=100.992,2274.000=101.008,2275.000=100.992,2276.000=101.008,2277.000=100.992,2278.000=101.008,2279.000=100.992,2280.000=101.008,2281.000=100.992,2282.000=101.008,2283.000=100.992,2284.000=101.008,2285.000=100.992,2286.000=101.008,2287.000=100.992,2288.000=109.993,2289.000=110.012,2290.000=115.586,2291.000=122.591,2292.000=138.621,2293.000=160.015,2294.000=159.976,2295.000=160.015,2296.000=159.976,2297.000=160.015,2299.000=159.976,2300.000=160.015,2302.000=159.976,2303.000=160.015,2305.000=159.976,2306.000=160.015,2307.000=159.976,2308.000=160.015,2310.000=159.976,2311.000=160.015,2312.000=159.976,2313.000=160.015,2315.000=159.976,2316.000=160.015,2318.000=159.976,2319.000=160.015,2321.000=159.976,2322.000=160.015,2323.000=159.976,2324.000=160.015,2326.000=159.976,2327.000=160.015,2328.000=159.976,2329.000=160.015,2331.000=159.976,2332.000=160.015,2334.000=159.976,2335.000=160.015,2337.000=159.976,2338.000=160.015,2339.000=159.976,2340.000=160.015,2342.000=159.976,2343.000=160.015,2344.000=159.976,2345.000=160.015,2347.000=196.524,2348.000=197.227,2349.000=200.698,2350.000=200.942,2351.000=201.003,2352.000=201.985,2354.000=202.976,2355.000=203.039,2356.000=202.976,2358.000=201.985,2360.000=202.046,2361.000=201.985,2362.000=200.030,2363.000=199.970,2364.000=201.985,2366.000=202.046,2367.000=201.985,2370.000=202.976,2371.000=203.039,2372.000=202.976,2373.000=203.978,2374.000=202.976,2375.000=203.039,2376.000=202.976,2377.000=203.039,2378.000=202.976,2380.000=201.003,2382.000=201.985,2383.000=202.046,2384.000=202.976,2385.000=203.978,2386.000=204.041,2387.000=203.978,2389.000=204.041,2390.000=203.978,2392.000=204.041,2393.000=203.978,2394.000=202.976,2395.000=201.985,2397.000=202.046,2398.000=201.985,2401.000=202.976,2402.000=203.039,2403.000=202.976,2404.000=203.039,2405.000=202.976,2407.000=203.039,2408.000=203.978,2409.000=204.041,2410.000=203.978,2412.000=204.041,2413.000=203.978,2414.000=202.976,2415.000=203.039,2416.000=203.978,2417.000=204.041,2418.000=204.989,2420.000=205.053,2421.000=204.989,2424.000=202.976,2425.000=203.039,2426.000=202.976,2427.000=203.039,2428.000=201.985,2429.000=202.046,2430.000=203.978,2431.000=204.041,2432.000=204.989,2434.000=205.053,2435.000=204.989,2440.000=205.053,2441.000=204.989,2442.000=203.978,2443.000=202.976,2444.000=203.039,2445.000=203.978,2446.000=204.041,2447.000=204.989,2449.000=206.011,2452.000=205.946,2453.000=204.989,2455.000=205.053,2456.000=204.989,2459.000=203.978,2460.000=204.041,2461.000=204.989,2463.000=205.053,2464.000=204.989,2468.000=206.011,2471.000=209.071,2472.000=202.976,2473.000=206.011,2476.000=204.989,2478.000=205.053,2479.000=204.989,2483.000=206.011,2485.000=206.977,2486.000=207.042,2487.000=206.977,2488.000=207.042,2489.000=206.977,2491.000=206.011,2493.000=204.989,2495.000=205.053,2496.000=204.989,2499.000=206.011,2500.000=208.019,2501.000=207.953,2502.000=208.019,2503.000=207.953,2504.000=206.977,2505.000=207.042,2506.000=204.989,2507.000=202.976,2508.000=204.989,2509.000=206.977,2510.000=207.042,2511.000=206.977,2512.000=207.042,2513.000=206.977,2515.000=207.042,2516.000=206.977,2517.000=208.019,2519.000=207.953,2520.000=208.019,2522.000=206.977,2523.000=207.042,2524.000=206.977,2525.000=207.042,2526.000=206.977,2528.000=207.042,2529.000=206.977,2530.000=207.042,2531.000=208.019,2533.000=207.953,2534.000=208.019,2537.000=206.977,2538.000=207.042,2539.000=206.977,2540.000=207.042,2541.000=206.977,2543.000=207.042,2544.000=206.977,2545.000=207.042,2546.000=208.019,2548.000=207.953,2549.000=209.005,2553.000=208.019,2554.000=206.977,2555.000=207.042,2556.000=206.977,2557.000=208.019,2559.000=207.953,2560.000=209.005,2565.000=208.019,2567.000=207.953,2568.000=208.019,2571.000=209.005,2589.000=208.939,2590.000=209.005,2593.000=210.000,2594.000=209.005,2599.000=210.000,2605.000=209.005,2610.000=210.000,2618.000=210.067,2619.000=210.000,2623.000=211.005,2626.000=210.000,2628.000=211.005,2632.000=210.000,2638.000=211.005,2642.000=210.000,2643.000=211.005,2648.000=212.019,2650.000=211.951,2651.000=211.005,2662.000=212.019,2664.000=211.951,2665.000=212.019,2667.000=211.005,2672.000=212.019,2674.000=211.951,2675.000=212.019,2678.000=211.951,2679.000=212.019,2682.000=211.951,2683.000=212.019,2686.000=212.496,2690.000=212.564,2691.000=212.496,2700.000=212.564,2701.000=212.496,2704.000=212.975,2705.000=213.043,2706.000=212.975,2707.000=213.043,2708.000=212.975,2710.000=213.043,2711.000=212.975,2712.000=213.043,2713.000=212.975,2714.000=213.043,2715.000=212.975,2717.000=213.043,2718.000=212.975,2719.000=213.043,2720.000=212.975,2722.000=213.043,2723.000=214.008,2729.000=213.939,2730.000=214.008,2733.000=212.975,2734.000=213.043,2735.000=212.975,2736.000=214.008,2742.000=213.939,2743.000=214.008,2748.000=211.816,2749.000=207.562,2750.000=214.008,2751.000=216.247,2752.000=197.640,2753.000=223.253,2754.000=211.816,2755.000=223.178,2756.000=223.253,2757.000=203.476,2758.000=218.533,2759.000=214.008,2760.000=205.499,2761.000=218.533,2762.000=214.008,2763.000=218.533,2764.000=225.691,2765.000=203.476,2766.000=218.533,2767.000=223.178,2768.000=214.008,2771.000=216.247,2774.000=214.008,2775.000=199.548,2776.000=219.987,2778.000=220.060,2779.000=219.987,2780.000=216.035,2781.000=215.965,2782.000=216.035,2783.000=215.965,2784.000=216.035,2785.000=215.965,2786.000=219.987,2788.000=224.009,2791.000=219.987,2793.000=220.060,2794.000=219.987,2796.000=224.009,2798.000=225.999,2802.000=228.025,2803.000=230.007,2805.000=225.999,2808.000=228.025,2809.000=230.007,2810.000=232.024,2811.000=231.942,2812.000=228.025,2813.000=227.946,2814.000=228.025,2815.000=232.024,2816.000=231.942,2817.000=235.997,2819.000=240.022,2820.000=235.997,2827.000=236.081,2828.000=238.035,2829.000=237.950,2830.000=238.035,2831.000=237.950,2832.000=240.022,2833.000=242.042,2834.000=244.006,2840.000=242.042,2841.000=241.953,2842.000=242.042,2843.000=241.953,2844.000=242.042,2845.000=245.000,2846.000=247.013,2847.000=248.965,2848.000=249.059,2849.000=248.965,2850.000=249.059,2851.000=248.965,2853.000=249.059,2854.000=248.965,2855.000=249.059,2856.000=248.965,2858.000=249.059,2859.000=248.965,2860.000=254.032,2861.000=253.935,2862.000=254.032,2865.000=253.935,2866.000=256.993,2870.000=257.093,2871.000=256.993,2878.000=261.050,2879.000=260.947,2880.000=261.050,2881.000=260.947,2882.000=261.050,2883.000=260.947,2884.000=261.050,2885.000=260.947,2886.000=261.050,2888.000=265.024,2890.000=264.918,2891.000=265.024,2892.000=268.031,2894.000=267.922,2895.000=270.000,2898.000=274.027,2900.000=273.913,2901.000=271.998,2903.000=269.012,2909.000=274.027,2911.000=273.913,2912.000=278.058,2913.000=280.059,2914.000=275.970,2915.000=274.027,2918.000=275.970,2919.000=278.058,2920.000=277.941,2921.000=278.058,2922.000=277.941,2923.000=278.058,2925.000=277.941,2926.000=278.058,2927.000=277.941,2928.000=278.058,2930.000=277.941,2931.000=278.058,2932.000=275.052,2933.000=274.938,2934.000=275.052,2936.000=290.004,2944.000=300.000,2956.000=295.049,2957.000=294.918,2958.000=295.049,2960.000=294.918,2961.000=295.049,2962.000=294.918,2963.000=295.049,2965.000=297.036,2966.000=296.903,2967.000=300.000,2981.000=300.955,2982.000=301.092,2983.000=300.955,2985.000=301.092,2986.000=300.955,2988.000=301.092,2989.000=300.955,2991.000=300.000,3000.000=300.955,3001.000=301.092,3002.000=300.955,3004.000=301.092,3005.000=300.955,3007.000=301.092,3008.000=300.955,3011.000=301.092,3012.000=300.955,3014.000=301.092,3015.000=300.955,3017.000=301.092,3018.000=300.955,3020.000=301.092,3021.000=300.955,3023.000=301.092,3024.000=302.055,3025.000=301.917,3026.000=302.055,3027.000=301.917,3028.000=302.055,3030.000=301.917,3031.000=302.055,3032.000=301.917,3033.000=302.055,3035.000=301.917,3036.000=302.055,3037.000=301.917,3038.000=302.055,3040.000=301.917,3041.000=302.055,3042.000=301.917,3043.000=302.055,3045.000=301.917,3046.000=302.055,3047.000=301.917,3048.000=302.055,3050.000=301.917,3051.000=302.055,3052.000=301.917,3053.000=303.023,3055.000=302.885,3056.000=303.023,3061.000=302.885,3062.000=303.023,3064.000=302.055,3065.000=301.917,3066.000=302.055,3067.000=301.917,3068.000=302.055,3069.000=303.023,3071.000=302.885,3072.000=303.023,3077.000=302.885,3078.000=303.023,3083.000=302.885,3084.000=303.023,3086.000=303.998,3116.000=304.979,3119.000=305.120,3120.000=304.979,3126.000=305.120,3127.000=304.979,3132.000=305.120,3133.000=304.979,3139.000=305.120,3140.000=304.979,3141.000=303.998,3144.000=304.979,3147.000=305.120,3148.000=304.979,3149.000=305.967,3151.000=306.108,3152.000=305.967,3155.000=306.108,3156.000=305.967,3159.000=306.108,3160.000=305.967,3162.000=304.979,3165.000=305.120,3166.000=304.979,3169.000=305.967,3170.000=306.961,3171.000=307.103,3172.000=305.967,3174.000=306.108,3175.000=306.961,3176.000=307.103,3177.000=306.961,3180.000=305.967,3182.000=306.108,3183.000=305.967,3185.000=306.961,3186.000=307.103,3187.000=306.961,3190.000=307.103,3191.000=306.961,3193.000=307.103,3194.000=306.961,3197.000=307.103,3198.000=306.961,3200.000=307.103,3201.000=306.961,3204.000=307.103,3205.000=306.961,3207.000=307.103,3208.000=306.961,3211.000=307.103,3212.000=306.961,3214.000=307.961,3215.000=308.104,3216.000=307.961,3219.000=308.104,3220.000=307.961,3222.000=308.104,3223.000=307.961,3225.000=306.961,3226.000=307.103,3227.000=306.961,3230.000=307.103,3231.000=307.961,3232.000=308.104,3233.000=307.961,3235.000=308.968,3237.000=309.112,3238.000=307.961,3239.000=308.104,3240.000=307.961,3243.000=308.104,3244.000=307.961,3246.000=308.968,3248.000=309.112,3249.000=308.968,3252.000=309.112,3253.000=308.968,3256.000=309.112,3257.000=308.968,3261.000=309.112,3262.000=308.968,3265.000=309.112,3266.000=308.968,3269.000=309.112,3270.000=308.968,3274.000=309.112,3275.000=308.968,3278.000=309.112,3279.000=308.968,3282.000=309.981,3285.000=310.127,3286.000=309.981,3293.000=310.127,3294.000=309.981,3298.000=308.968,3300.000=309.112,3301.000=308.968,3303.000=309.981,3304.000=311.001,3341.000=312.028,3343.000=311.881,3344.000=312.028,3349.000=311.881,3350.000=312.028,3354.000=311.881,3355.000=312.028,3359.000=311.881,3360.000=311.001,3370.000=312.028,3372.000=311.881,3373.000=312.028,3378.000=311.881,3379.000=312.028,3383.000=311.881,3384.000=312.028,3389.000=311.881,3390.000=312.028,3395.000=311.881,3396.000=312.028,3400.000=311.881,3401.000=312.028,3404.000=315.903,3405.000=316.053,3406.000=315.903,3408.000=320.961,3410.000=315.903,3411.000=316.053,3412.000=315.903,3413.000=227.632,3414.000=221.534,3415.000=223.934,3416.000=227.242,3417.000=240.458,3418.000=220.060,3419.000=237.693,3420.000=240.458,3421.000=249.153,3422.000=243.288,3423.000=219.987,3424.000=220.060,3425.000=219.987,3429.000=123.093,3430.000=100.000,3461.000=103.005,3462.000=102.989,3463.000=105.993,3464.000=125.000,3465.000=135.000,3466.000=138.014,3467.000=145.002,3468.000=160.015,3469.000=170.008,3470.000=180.000,3471.000=189.977,3472.000=200.030,3473.000=210.000,3474.000=219.987,3475.000=230.007,3476.000=240.022,3477.000=239.935,3478.000=240.022,3479.000=250.000,3480.000=260.024,3481.000=270.000,3482.000=280.059,3483.000=290.004,3484.000=300.000,3485.000=309.981,3486.000=320.029,3487.000=329.925,3488.000=339.928,3489.000=350.000,3490.000=359.902,3491.000=369.966,3492.000=379.954,3493.000=390.035,3496.000=389.806,3497.000=390.035,3500.000=389.806,3501.000=399.940,3502.000=400.181,3503.000=399.940,3507.000=400.181,3508.000=399.940,3510.000=400.181,3511.000=399.940,3515.000=400.181,3516.000=399.940,3518.000=400.181,3519.000=399.940,3521.000=401.883,3522.000=402.128,3523.000=401.883,3524.000=402.128,3525.000=401.883,3526.000=402.128,3527.000=401.883,3528.000=402.128,3529.000=401.883,3530.000=402.128,3531.000=401.883,3532.000=402.128,3533.000=401.883,3534.000=402.128,3535.000=401.883,3536.000=402.128,3537.000=401.883,3538.000=402.128,3539.000=401.883,3540.000=402.128,3541.000=401.883,3542.000=402.128,3543.000=401.883,3545.000=402.128,3546.000=401.883,3547.000=402.128,3548.000=401.883,3549.000=402.128,3550.000=401.883,3551.000=402.128,3552.000=404.093,3553.000=403.846,3554.000=404.093,3555.000=403.846,3556.000=404.093,3558.000=403.846,3559.000=404.093,3561.000=403.846,3562.000=457.785,3563.000=361.475,3564.000=404.093,3566.000=403.846,3567.000=404.093,3569.000=403.846,3570.000=404.093,3571.000=403.846,3572.000=404.093,3574.000=403.846,3575.000=404.093,3577.000=403.846,3578.000=404.093,3579.000=403.846,3580.000=404.093,3581.000=405.083,3582.000=404.835,3583.000=405.083,3585.000=404.835,3586.000=405.083,3588.000=404.835,3589.000=405.083,3591.000=404.835,3592.000=405.083,3594.000=404.835,3595.000=406.077,3596.000=405.828,3597.000=406.077,3599.000=405.828,3600.000=406.077,3603.000=405.828,3604.000=407.077,3605.000=406.827,3606.000=407.077,3608.000=406.827,3609.000=407.077,3612.000=406.827,3613.000=407.077,3615.000=406.827,3616.000=407.077,3618.000=406.827,3619.000=407.077,3621.000=406.827,3622.000=407.077,3625.000=406.827,3626.000=408.081,3627.000=407.830,3628.000=408.081,3630.000=407.830,3631.000=408.081,3633.000=407.830,3634.000=408.081,3636.000=407.830,3637.000=408.081,3639.000=407.830,3640.000=408.081,3642.000=409.091,3643.000=408.838,3644.000=409.091,3646.000=408.838,3647.000=409.091,3648.000=408.838,3649.000=410.105,3650.000=409.851,3651.000=410.105,3652.000=409.851,3653.000=410.105,3655.000=409.851,3656.000=410.105,3657.000=409.851,3658.000=410.105,3659.000=409.851,3660.000=410.105,3662.000=409.851,3663.000=410.105,3664.000=409.851,3665.000=410.105,3667.000=409.851,3668.000=410.105,3669.000=409.851,3670.000=410.105,3671.000=409.851,3672.000=410.105,3674.000=409.851,3675.000=410.105,3676.000=409.851,3677.000=410.105,3678.000=411.125,3679.000=410.870,3680.000=411.125,3681.000=410.870,3682.000=411.125,3683.000=410.870,3684.000=411.125,3685.000=410.870,3686.000=411.125,3687.000=411.893,3688.000=412.150,3689.000=411.893,3690.000=412.150,3691.000=411.893,3692.000=412.150,3693.000=411.893,3695.000=412.150,3696.000=411.893,3697.000=412.150,3698.000=411.893,3700.000=412.150,3701.000=411.893,3702.000=412.150,3703.000=411.893,3704.000=412.921,3705.000=413.179,3706.000=412.921,3708.000=413.179,3709.000=412.921,3712.000=413.179,3713.000=412.921,3715.000=413.179,3716.000=412.921,3718.000=413.179,3719.000=412.921,3721.000=413.955,3723.000=414.214,3724.000=413.955,3729.000=414.214,3730.000=413.955,3735.000=414.214,3736.000=413.955,3741.000=414.994,3756.000=416.038,3759.000=415.776,3760.000=416.038,3763.000=417.087,3764.000=416.824,3765.000=417.087,3767.000=416.824,3768.000=417.087,3770.000=416.824,3771.000=417.087,3773.000=416.824,3774.000=417.087,3776.000=416.824,3777.000=417.087,3779.000=416.824,3780.000=417.087,3782.000=416.824,3783.000=417.087,3785.000=416.824,3786.000=417.877,3787.000=418.142,3788.000=417.877,3789.000=418.142,3790.000=417.877,3791.000=418.142,3792.000=417.877,3793.000=418.142,3794.000=417.877,3795.000=418.142,3796.000=417.877,3797.000=418.142,3798.000=417.877,3800.000=418.142,3801.000=417.877,3802.000=418.142,3803.000=417.877,3804.000=418.142,3805.000=417.877,3806.000=418.142,3807.000=417.877,3808.000=418.142,3809.000=418.936,3811.000=420.000,3828.000=421.069,3829.000=420.802,3830.000=421.069,3833.000=420.802,3834.000=421.069,3837.000=420.802,3838.000=421.069,3841.000=420.802,3842.000=421.069,3845.000=420.802,3846.000=421.069,3849.000=420.802,3850.000=421.069,3853.000=420.802,3854.000=421.069,3856.000=420.802,3857.000=421.069,3859.000=421.875,3860.000=422.954,3862.000=423.225,3863.000=422.954,3866.000=424.038,3869.000=423.767,3870.000=424.038,3872.000=422.954,3874.000=423.225,3875.000=422.954,3879.000=423.225,3880.000=422.954,3884.000=423.225,3885.000=422.954,3889.000=424.038,3893.000=423.767,3894.000=424.038,3902.000=425.129,3903.000=424.855,3904.000=425.129,3905.000=424.855,3906.000=425.129,3907.000=424.855,3908.000=425.129,3909.000=424.855,3910.000=425.950,3912.000=426.224,3913.000=425.950,3916.000=426.224,3917.000=425.950,3921.000=426.224,3922.000=425.950,3925.000=427.050,3928.000=426.774,3929.000=427.050,3935.000=426.774,3936.000=427.050,3942.000=426.774,3943.000=427.050,3949.000=426.774,3950.000=427.878,3951.000=428.155,3952.000=427.878,3953.000=428.155,3954.000=427.878,3955.000=428.155,3956.000=427.878,3957.000=428.155,3958.000=427.878,3959.000=428.988,3966.000=430.104,3967.000=429.825,3968.000=430.104,3970.000=429.825,3971.000=430.104,3972.000=429.825,3973.000=430.104,3975.000=429.825,3976.000=430.104,3978.000=429.825,3979.000=430.104,3980.000=429.825,3981.000=430.104,3983.000=429.825,3984.000=430.104,3986.000=429.825,3987.000=430.104,3988.000=429.825,3989.000=430.104,3991.000=429.825,3992.000=430.104,3994.000=429.825,3995.000=430.104,3996.000=429.825,3997.000=430.104,3999.000=429.825,4000.000=430.104,4002.000=429.825,4003.000=430.945,4005.000=431.226,4006.000=430.945,4010.000=432.071,4012.000=431.789,4013.000=432.071,4016.000=431.789,4017.000=432.071,4020.000=431.789,4021.000=432.071,4024.000=431.789,4025.000=432.919,4026.000=433.202,4027.000=432.919,4030.000=433.202,4031.000=432.919,4033.000=433.202,4034.000=432.919,4037.000=433.202,4038.000=432.919,4040.000=433.202,4041.000=432.919,4043.000=433.202,4044.000=434.055,4046.000=433.770,4047.000=434.055,4051.000=433.770,4052.000=434.055,4057.000=434.911,4058.000=435.197,4059.000=434.911,4061.000=435.197,4062.000=434.911,4064.000=435.197,4065.000=434.911,4068.000=435.197,4069.000=434.911,4071.000=435.197,4072.000=434.911,4073.000=436.058,4075.000=435.771,4076.000=436.058,4077.000=436.922,4078.000=440.120,4079.000=450.000,4221.000=450.920,4222.000=452.153,4223.000=454.015,4229.000=454.952,4230.000=455.892,4231.000=457.153,4232.000=459.056,4233.000=460.976,4234.000=462.911,4235.000=463.235,4236.000=462.911,4239.000=463.235,4240.000=463.885,4241.000=465.845,4242.000=466.173,4243.000=468.153,4244.000=469.149,4245.000=470.149,4246.000=472.163,4247.000=471.826,4248.000=473.854,4249.000=474.874,4250.000=475.216,4251.000=474.874,4253.000=475.216,4254.000=474.874,4255.000=476.929,4256.000=479.001,4257.000=480.044,4259.000=481.091,4260.000=482.143,4261.000=481.792,4262.000=482.143,4263.000=483.906,4264.000=486.040,4265.000=487.832,4266.000=488.192,4267.000=487.832,4268.000=488.192,4269.000=490.000,4270.000=491.091,4271.000=490.727,4272.000=491.091,4275.000=492.921,4276.000=494.025,4277.000=495.135,4278.000=496.995,4279.000=498.117,4280.000=500.000,4284.000=501.897,4285.000=502.278,4286.000=501.897,4287.000=503.808,4288.000=504.192,4289.000=504.962,4290.000=506.897,4291.000=508.846,4292.000=511.997,4293.000=513.986,4294.000=515.187,4295.000=514.786,4296.000=515.187,4297.000=514.786,4298.000=515.187,4299.000=514.786,4300.000=517.201,4301.000=516.797,4302.000=518.824,4303.000=522.925,4304.000=525.835,4305.000=526.253,4306.000=525.835,4307.000=526.253,4308.000=525.835,4309.000=529.200,4310.000=532.180,4311.000=531.752,4312.000=532.180,4313.000=531.752,4314.000=532.180,4315.000=535.194,4316.000=537.805,4317.000=538.242,4318.000=537.805,4319.000=538.242,4320.000=540.000,4322.000=543.103,4323.000=547.146,4324.000=546.694,4325.000=547.146,4327.000=552.170,4328.000=551.710,4329.000=552.170,4330.000=554.950,4334.000=555.416,4335.000=554.950,4337.000=558.228,4338.000=557.757,4339.000=558.228,4340.000=564.902,4342.000=565.385,4343.000=569.767,4344.000=570.259,4345.000=569.767,4346.000=570.259,4347.000=569.767,4348.000=572.727,4349.000=573.224,4350.000=575.217,4351.000=577.225,4352.000=579.755,4353.000=584.881,4354.000=592.211,4355.000=591.682,4356.000=595.946,4358.000=600.272,4359.000=599.728,4360.000=604.110,4361.000=607.996,4362.000=611.933,4363.000=617.071,4364.000=622.295,4365.000=627.014,4368.000=630.000,4369.000=634.837,4370.000=635.447,4371.000=644.737,4372.000=645.366,4373.000=644.737,4374.000=645.366,4375.000=649.804,4376.000=660.180,4377.000=659.521,4378.000=660.180,4380.000=670.213,4381.000=669.534,4382.000=679.856,4384.000=680.556,4385.000=679.856,4387.000=680.556,4388.000=679.856,4389.000=689.781,4390.000=700.000,4391.000=709.764,4392.000=710.526,4393.000=709.764,4395.000=710.526,4396.000=709.764,4397.000=719.804,4398.000=720.588,4399.000=719.804,4402.000=730.132,4403.000=739.933,4405.000=750.000,4409.000=760.345,4410.000=759.472,4411.000=760.345,4412.000=759.472,4413.000=760.345,4415.000=770.081,4423.000=769.186,4424.000=770.081,4430.000=771.879,4431.000=773.684,4432.000=774.590,4433.000=773.684,4435.000=774.590,4436.000=773.684,4438.000=776.408,4439.000=775.498,4440.000=776.408,4441.000=780.071,4442.000=781.915,4443.000=783.768,4445.000=784.698,4446.000=783.768,4448.000=785.630,4450.000=786.564,4451.000=785.630,4452.000=786.564,4453.000=785.630,4455.000=786.564,4456.000=785.630,4457.000=790.323,4458.000=789.379,4459.000=790.323,4461.000=789.379,4462.000=792.216,4463.000=794.118,4467.000=793.165,4468.000=794.118,4469.000=796.029,4472.000=797.949,4477.000=799.879,4480.000=800.847,4481.000=799.879,4489.000=800.847,4490.000=799.879,4496.000=800.847,4497.000=799.879,4505.000=800.847,4506.000=799.879,4512.000=800.847,4513.000=799.879,4521.000=800.847,4522.000=799.879,4528.000=800.847,4529.000=799.879,4537.000=800.847,4538.000=799.879,4544.000=800.847,4545.000=799.879,4553.000=800.847,4554.000=799.879,4560.000=800.847,4561.000=799.879,4569.000=800.847,4570.000=799.879,4576.000=800.847,4577.000=799.879,4585.000=800.847,4586.000=799.879,4592.000=800.847,4593.000=799.879,4601.000=800.847,4602.000=799.879,4608.000=800.847,4609.000=799.879,4617.000=800.847,4618.000=799.879,4621.000=700.000,4623.000=602.459,4624.000=601.911,4625.000=602.459,4627.000=601.911,4628.000=602.459,4629.000=500.000,4631.000=403.600,4642.000=403.354,4643.000=403.600,4650.000=300.000,4662.000=280.892,4663.000=178.832,4664.000=180.000;
#STOPS:;
#BGCHANGES:;
// cache tags:
#FIRSTBEAT:0.500;
#LASTBEAT:5162.000;
#SONGFILENAME:Songs/owenviau1 Simfiles 5/The Medley of Kirby SSDX2 - [owenviau1& leonid] v1.3/The Medley of Kirby SSDX2.sm;
#HASMUSIC:1;
#HASBANNER:1;
#MUSICLENGTH:1448.751;
// end cache tags

//---------------dance-single - Spread----------------
#NOTES:
     dance-single:
     Spread:
     Challenge:
     20:
     1.000,1.000,1.000,0.897,1.000,10780.000,3843.000,1300.000,408.000,686.000:
0000
0000
0000
0000
0100
0000
0000
0100
2002
0000
0000
0000
0000
0000
0000
0000
0000
0000
3003
0000
1000
0000
0100
0000
2010
0000
0001
0000
3010
0000
0100
0000
,
0120
0000
0000
0000
0000
0000
0000
0000
0000
0000
0000
0000
0000
0000
0000
0000
0000
0000
0000
0000
0000
0000
0000
0000
1030
0000
0000
0000
0000
0000
0000
0000
0000
0000
0000
0000
0000
0000
0000
0000
0000
0000
0000
0000
0000
0000
0000
0000
0000
0000
0000
0000
0000
0000
0000
0000
0000
0000
0000
0000
0000
0000
0000
0000
0000
0000
0000
0000
0000
0000
0000
0000
2002
0000
0000
0000
0000
0000
0000
0000
0000
0000
0000
0000
3003
0000
0000
0000
0000
0000
0000
0000
0000
0000
0000
0000
2002
0000
0000
0000
0000
0000
0000
0000
3003
0000
0000
0000
0000
0000
0000
0000
2002
0000
0000
0000
0000
0000
0000
0000
3003
0000
0000
0000
0000
0000
0000
0000
2002
0000
0000
0000
0000
0000
0000
0000
3003
0000
0000
0000
0000
0000
0000
0000
2210
0000
0000
0000
0000
0000
3301
0000
0000
0000
0000
0000
0010
0000
0000
0000
0000
0000
0001
0000
0000
0000
0000
0000
1000
0000
0000
0000
0000
0000
0100
0000
0000
0000
0000
0000
1000
0000
0000
0000
0000
0000
0100
0000
0000
0000
0000
0000
,
0010
0001
0010
0001
1000
0100
1000
0100
0001
1000
0001
1000
0010
0100
0010
0100
0001
1000
0001
1000
0010
0100
0010
0100
1001
0010
0001
0100
0010
1000
0100
1000
,
0011
0100
1000
0010
0100
0001
0010
0001
1100
0010
0001
1000
0101
0010
1000
0100
0011
0100
1010
0001
1110
0001
0100
0010
1101
0000
0000
0000
0000
0000
0000
0000
,
0000
0000
0000
0000
,
0000
0000
0000
0000
,
0000
0000
0000
0000
0000
0000
0000
0000
0000
0000
0000
0000
1011
0100
0010
0000
,
0100
0010
0000
0100
0010
0100
0010
0000
0100
0010
0000
0100
0010
0100
0010
0000
,
0100
0010
0000
0100
0010
0100
0010
0000
1100
0010
0000
0100
0011
1000
0001
0000
,
1000
0001
0000
1000
0011
1000
0001
0000
1000
0001
0000
1000
0011
1000
0001
0000
,
1010
0001
0000
1000
0110
0001
0100
0000
0011
0100
0000
0001
1100
0010
0100
0000
,
0011
0100
0000
0010
1100
0010
0100
0000
0011
0100
0000
0010
1100
0010
0100
0000
,
0011
0100
0000
0010
1100
0010
0101
0000
1010
0100
0000
0010
1100
0001
1000
0000
,
0011
1000
0000
0001
1100
0001
1000
0000
0011
1000
0000
0001
1100
0001
1000
0000
,
0101
1000
0000
0001
0110
0001
0100
0000
0011
0100
1000
0001
1100
0000
0001
0000
,
1100
0010
0100
0000
1001
0000
0010
0000
1100
0001
0100
0000
1010
0000
0001
0000
,
1100
0010
0100
0000
1001
0000
0010
0000
1100
0001
0100
0000
1010
0000
0001
0000
,
1100
0001
0010
0000
1001
0000
0100
0000
1010
0001
0100
0000
1010
0000
0001
0000
,
1010
0001
0100
0000
1001
0000
0010
0000
1100
0001
0010
0000
0101
0000
0010
0000
,
1001
0100
1000
0000
0011
0000
0100
0000
1001
0010
1000
0000
0101
0000
0010
0000
,
1001
0100
1000
0000
0011
0000
0100
0000
1001
0010
1000
0000
0101
0000
0011
0000
,
0101
0010
1001
0000
1001
0000
1010
0000
1100
0001
1010
0000
1000
0100
0000
0100
,
1010
0010
0001
0000
1000
0000
0101
0200
,
1301
0000
1000
0010
1100
0001
0100
0001
1100
0010
1000
0100
1010
0001
0100
0010
,
1001
0100
0010
0001
1100
0000
0000
0000
1001
0000
0000
0000
1010
0000
2000
0000
,
3011
0000
1000
0100
1010
0001
0010
0001
1100
0010
0001
0100
1001
0010
0100
1000
,
0011
0100
0000
0000
0001
0000
0000
0000
1001
0000
0000
0000
1100
0000
0200
0000
,
0311
0000
0100
0010
1100
0001
1000
0001
0110
1000
0100
0010
1001
0100
0010
0001
,
1100
0010
0001
1000
0110
0000
0000
0000
1001
0000
0000
0000
1010
0000
2000
0000
,
3101
0000
0010
0001
1100
0010
0100
0010
1001
0100
0010
0100
1001
0010
0101
1000
,
0011
0100
0001
0010
1000
0000
1000
0000
1001
0000
1000
0000
0110
0000
0220
0000
,
0330
0000
1010
0101
0010
1100
0000
1010
0101
0010
1001
0100
1010
0000
2020
0000
,
3030
1100
0010
0101
0000
0000
0101
1010
0101
0010
0100
1010
0101
0000
0202
0000
,
0303
0110
1001
0100
0011
1100
0000
0110
1001
0010
0101
0010
1100
0000
0000
1010
,
0000
0000
0110
0000
0000
0101
0000
1010
0000
0011
0011
0000
0110
0000
0220
0000
,
0330
0000
1100
0010
0101
1010
0000
1100
0011
0100
1001
0010
1100
0000
2200
0000
,
3300
1010
0100
0011
0000
0000
0101
1010
0101
1000
0011
0100
1010
0000
2020
0000
,
3030
0011
1100
0010
0101
1010
0000
1100
0011
0100
1001
0010
1100
0011
0000
0101
,
1010
0101
0000
0011
1100
0010
1000
0010
1001
0010
1000
0010
1101
0000
0100
0000
,
0011
0000
0000
0000
1000
0000
0000
0000
1010
0000
0100
0000
0010
0000
0100
0000
1001
0000
0000
0000
0010
0000
0000
0000
1200
0300
0000
0000
0001
0000
0000
0000
,
2010
3000
0000
0000
0001
0000
0000
0000
1200
0300
0000
0000
1001
0000
0000
0000
1010
0000
0000
0000
0000
0000
0000
0000
1002
0003
0000
0000
0020
0030
0000
0000
,
0201
0300
0000
0000
2000
3000
0000
0000
0101
0000
0010
0000
0001
0000
0010
0000
2100
3000
0000
0000
0001
0000
1000
0000
0120
0000
0030
0000
0101
0000
0000
0000
,
2100
0000
3000
0000
0101
0000
0000
0000
0120
0030
0000
0000
0000
0000
0000
0000
1021
0000
0030
0000
0000
0000
0000
0000
1200
0000
0300
0000
0001
0000
0000
0000
,
1010
0000
0100
0000
0011
0100
1000
0100
0021
0030
0000
0000
1200
0300
0001
0000
,
0110
0000
1000
0000
0101
0100
1010
0010
1002
0003
0000
0000
0120
0030
0001
0000
,
0110
0000
1000
0000
0101
0010
1000
0010
0102
0003
0000
0000
2010
3000
0001
0000
,
2010
0000
3000
0000
0001
0000
0000
0000
0120
0030
0000
0000
0100
0000
0000
0000
0120
0000
0030
0000
0100
0000
0000
0000
1001
0000
0000
0000
0010
0000
0000
0000
,
0101
0000
0000
0000
1000
0000
0000
0000
1010
0000
0100
0000
0010
0000
0100
0000
1001
0000
0000
0000
0010
0000
0000
0000
1200
0300
0000
0000
0001
0000
0000
0000
,
2010
3000
0000
0000
0001
0000
0000
0000
1200
0300
0000
0000
0001
0000
0000
0000
0110
0000
0000
0000
0000
0000
0000
0000
1002
0003
0000
0000
0020
0030
0000
0000
,
0201
0300
0000
0000
2000
3000
0000
0000
0101
0000
0010
0000
0001
0000
0010
0000
2100
3000
0000
0000
0001
0000
1000
0000
0210
0000
0300
0000
0011
0000
0000
0000
,
2010
0000
3000
0000
0011
0000
0000
0000
0210
0300
0000
0000
0000
0000
0000
0000
1021
0000
0030
0000
0000
0000
0000
0000
1101
0000
0000
0000
0010
0000
0000
0000
,
1010
0010
1010
0010
1011
0010
1100
0010
,
1010
0010
1010
0010
1011
0010
1100
0010
,
1010
0000
0010
0000
1010
0000
0010
0000
1011
0000
0010
0000
2101
3000
0010
0000
,
0112
0003
0010
0000
2110
3000
0010
0000
0112
0003
0010
0000
2021
0030
3000
0000
,
0200
0300
0000
0000
0000
0000
0001
0000
1200
0000
0300
0000
0000
0000
0000
0000
1010
0000
0000
0000
0100
0000
0000
0000
0021
0000
0000
0000
0030
0000
0000
0000
,
0201
0300
0000
0000
0000
0000
1000
0000
0210
0300
0000
0000
0000
0000
0000
0000
1100
0000
0000
0000
0010
0000
0000
0000
2001
0000
0000
0000
3000
0000
0000
0000
,
0020
0030
0000
0000
0000
0000
0001
0000
0120
0030
0000
0000
0000
0000
0000
0000
1100
0000
0000
0000
0010
0000
0000
0000
1002
0000
0000
0000
0003
0000
0000
0000
,
2000
0000
3000
0000
0000
0000
0010
0000
0200
0000
0300
0000
0002
0003
0000
0000
1000
0000
0000
0000
0200
0000
0300
0000
2001
0000
0000
0000
3000
0000
0000
0000
,
0020
0030
0000
0000
0000
0000
0001
0000
0120
0000
0030
0000
0000
0000
0000
0000
1010
0000
0000
0000
0100
0000
0000
0000
0012
0000
0000
0000
0003
0000
0000
0000
,
1200
0300
0000
0000
0000
0000
1000
0000
0210
0300
0000
0000
0000
0000
0000
0000
1010
0000
0000
0000
0001
0000
0000
0000
2001
0000
0000
0000
3000
0000
0000
0000
,
0020
0030
0000
0000
0000
0000
0001
0000
1020
0030
0000
0000
0000
0000
0000
0000
0110
0000
0000
0000
0001
0000
0000
0000
2100
0000
0000
0000
3000
0000
0000
0000
,
0002
0003
0000
0100
0002
0003
0200
0300
2000
0000
3000
0000
1020
0100
0001
0000
,
1000
0100
0031
0000
2100
0010
3001
0000
1020
0100
0031
0000
1002
0100
0013
0000
,
1020
0100
0031
0000
1200
0010
0301
0000
2100
0010
3001
0000
0102
1000
0010
0000
,
0100
1000
0013
0000
0120
1000
0031
0000
0210
1000
0301
0000
2100
0010
0001
0000
,
0100
0010
0001
0000
0010
0100
3001
0000
0210
1000
0301
0000
0021
0100
1000
0000
,
0001
0100
1030
0000
2001
0010
3100
0000
0021
0100
1030
0000
0012
0100
1003
0000
,
0021
0100
1030
0000
0201
0010
1300
0000
2001
0010
3100
0000
0012
1000
0100
0000
,
0010
1000
0103
0000
1200
0010
0301
0000
1020
0100
0031
0000
2010
0100
0001
0000
,
0010
0100
0001
0000
0010
0100
3001
0000
0210
1000
0301
0000
1020
0100
0001
0100
,
1000
0100
0031
0100
2010
0001
3100
0001
1020
0100
0031
0100
1002
0100
0013
0100
,
1020
0001
0130
0001
1200
0010
0301
0010
2100
0010
3001
0010
0102
1000
0010
1000
,
0100
1000
0013
1000
0201
0010
1000
0010
0001
0010
1300
0010
2100
0001
0010
0001
,
0100
0001
3010
0001
0120
1000
0001
1000
0100
1000
0031
1000
0102
1000
0100
0010
,
0100
1000
0103
0010
2100
0001
3010
0001
0120
1000
0031
1000
0201
0010
1300
0010
,
0102
1000
0013
1000
0120
0001
1030
0001
0210
1000
0301
1000
0110
0001
1100
0001
,
0110
0001
1100
0001
0110
0001
1100
0001
0110
0001
1100
0001
0110
1000
0001
1000
,
0001
0000
0000
0010
0000
0000
0100
0000
0000
0001
0000
0000
1100
0000
0000
0010
0000
0000
1001
0000
0000
0100
0000
0000
1001
0000
0000
0010
0000
0000
1100
0000
0010
0000
0001
0000
1100
0000
0000
0000
0000
0000
0010
0000
0000
0000
0000
0000
,
1100
0000
0000
0010
0001
1000
0110
0000
0000
0010
0000
0000
1100
0000
0000
0010
0000
0000
1001
0000
0000
0001
0000
0000
,
1010
0000
0000
0100
0000
0000
0011
0000
0000
1000
0000
0000
0011
0000
0000
1000
0100
0001
1010
0000
0000
0010
0000
0000
,
1010
0000
0000
0001
0000
0000
1100
0000
0000
0100
0001
0010
1100
0000
0000
0001
0000
0000
1100
0000
0000
0010
0100
0010
,
1001
0000
0000
0010
0000
0000
0101
0000
0000
0000
0000
0000
0000
0000
0000
0010
0001
1000
0110
0000
0000
0001
0000
0000
,
0110
0000
0000
1000
0100
0010
1001
0000
0000
0001
0000
0000
1100
0000
0000
0010
0000
0000
1001
0000
0000
0001
0000
0000
,
1010
0000
0000
0100
0000
0000
0011
0000
0000
1000
0000
0000
0011
0000
0000
0100
0010
1000
0101
0000
0000
0100
0000
0000
,
0101
0000
0000
0010
0000
0000
1001
0000
0000
1000
0010
0100
1001
0000
0000
0010
0000
0000
1001
0000
0000
0100
0001
0010
,
1100
0001
0010
0100
1001
0000
0011
0000
1001
0000
0101
0010
1201
0000
0300
0001
,
1200
0000
0300
0001
0110
0000
0002
0000
0013
0000
0100
0000
2000
0000
3000
0010
,
2100
3000
0001
0000
0210
0000
0000
0000
0001
0000
0300
0000
2000
0000
3000
0001
,
2100
0000
3000
0001
1010
0000
0002
0000
0103
0000
0010
0000
0201
0000
0300
0010
,
1200
0000
0301
0000
0210
1000
0310
0001
0100
1000
0100
0010
2001
0000
3000
0001
,
2100
0000
3000
0001
0110
0000
0002
0000
0013
0000
1000
0100
0002
0003
0001
0010
,
2100
3000
0001
0000
2010
0000
0000
0000
0001
0000
3000
0000
1200
0300
1000
0010
,
1002
0000
1003
0100
0021
0030
0001
1000
0201
0000
0301
1000
0101
0010
0100
0011
,
1100
0010
0101
1000
0011
0100
1001
0100
1010
0100
0011
0100
1021
0000
0100
0000
,
0031
0000
1100
0010
0102
0000
0013
0000
2100
0000
3010
0000
0021
0000
1000
0000
,
0130
0000
0000
0000
1001
0000
0100
0000
1020
0000
0000
0000
0130
0000
0000
0000
0012
0000
0000
0000
0103
0000
0000
0000
1002
0003
0000
0000
0120
0030
0000
0000
,
0201
0300
0000
0000
1020
0030
0000
0000
0210
0000
0300
0000
0001
0000
2000
0000
3100
0000
0000
0000
0210
0300
0000
0000
2001
0000
0000
0000
0100
0000
0000
0000
,
0010
3001
1002
0100
0010
0103
1020
0100
,
0031
0000
1100
0010
0102
0000
0013
0000
2100
0000
3010
0000
0021
0000
1000
0000
,
0130
0000
0000
0000
1001
0000
0100
0000
1020
0000
0000
0000
0130
0000
0000
0000
0012
0000
0000
0000
0103
0000
0000
0000
1002
0003
0000
0000
0120
0030
0000
0000
,
0201
0300
0000
0000
1020
0030
0000
0000
0210
0000
0300
0000
0001
0000
2000
0000
3100
0000
0000
0000
0210
0300
0000
0000
2001
3000
0010
0000
1100
0000
0010
0000
,
0101
1000
0011
0100
1001
0010
1100
0010
0101
0010
0100
0010
1101
0000
0100
0000
,
0010
1002
1003
0100
0011
0001
1020
0030
,
0100
2001
0001
0100
3100
0000
1001
0100
,
0010
1002
1003
0100
0110
0001
2010
3000
,
0001
2100
0100
0001
3001
0000
1100
0001
,
1010
0002
1003
0100
1110
0001
0021
0030
,
0101
2000
3001
1010
0111
0010
1002
1000
,
1003
0000
1002
0000
1000
0000
1003
0000
1120
0000
1030
0000
2010
0001
0010
0001
,
3010
0100
0012
0100
0010
1000
0113
1000
0211
1000
0301
1000
0111
0000
1000
0000
,
0011
0000
1100
0001
1000
0100
0001
1000
,
0011
0000
1001
0010
0001
0000
1000
0010
,
1001
0000
1010
0001
1000
0010
0001
1000
,
0101
0000
1220
0330
1022
0033
0100
1000
,
0101
0000
1100
0001
0100
1000
0001
0100
,
0011
0000
0101
0010
0001
0000
1000
0100
,
1001
0000
0000
0000
1100
0000
0001
0000
1000
0000
0100
0000
0010
0001
1010
0001
,
0210
0001
0310
0001
1010
0100
1002
0100
1000
0100
1003
0100
2001
0010
0100
0010
,
3001
0010
0101
1010
0102
1000
0013
0100
1020
0130
0001
0010
1200
0001
0310
0001
,
2010
0100
3010
0001
1200
0010
0301
0010
1001
0100
1020
0001
0130
0001
1010
0001
,
2100
0010
0001
0010
0100
0010
3001
0100
1010
0001
0110
0001
1200
0010
0001
0010
,
1300
0001
0110
0001
1010
0100
1001
0010
2101
3010
0100
0001
1210
0001
0010
1300
,
0010
0100
1001
0110
1002
0100
0013
1000
0120
0001
1030
0001
0210
1000
0301
0010
,
2001
0100
3010
0001
1200
0010
0301
1000
0101
0010
2001
0100
0010
0001
0010
3100
,
0010
1000
0102
1000
0010
0100
1000
0100
0010
0100
1000
0100
0013
1000
0110
0001
,
1100
0010
1001
0100
0011
1000
0010
1000
0101
0010
1000
0100
1010
0000
0000
0000
,
0001
1000
0012
1000
0213
0001
0312
0000
,
0000
0000
0013
0100
2010
0000
3200
0000
0302
0000
0000
0000
0103
0000
0000
0000
,
0000
1000
1002
0100
2013
0001
3021
0000
,
0230
0000
2301
0010
3102
0000
0203
0000
0320
0000
0000
0000
2130
0000
3020
0000
,
0032
1023
0230
1302
0123
2031
3210
0302
,
2003
3020
0230
2300
3102
0023
2130
3002
,
0023
0000
1230
0000
0302
0000
0000
0000
0000
0000
0000
0000
0103
0010
0100
0010
,
1102
0010
0103
0010
1102
0010
0103
0010
2101
0010
3100
0010
1101
0010
0100
1000
,
0102
0010
1000
0010
0100
1000
0103
0010
0001
0010
0101
0010
1100
0010
1000
0101
,
1000
0100
0011
1000
0101
0010
0100
1010
0001
0010
0101
1000
0011
1000
0101
1010
,
0100
0011
2100
0001
0010
0100
0010
0001
0100
0001
0010
0100
3001
0010
0100
1000
,
0100
0010
0001
0010
0100
1000
0100
0010
0101
0010
2001
0100
0001
3010
0100
1000
,
0102
0010
1000
0010
0100
1000
0103
0010
0001
0010
0101
0010
1100
0001
0100
1010
,
0100
0010
0101
0010
1001
0100
0010
1100
0001
0010
0101
1000
0011
1000
0101
1010
,
0100
0011
1100
0012
0100
1000
0103
0010
0001
0010
0100
1000
0001
0010
0100
1000
,
0100
0010
0001
0010
0100
1000
0100
0010
0001
0010
0100
1000
0221
0000
0000
2300
,
0000
0000
3002
0000
2003
0000
0000
0000
0000
0030
3100
0001
2020
0000
0000
3200
,
0000
0000
0302
0000
0203
0000
0300
2030
0001
0000
3120
0000
0232
0000
0000
0320
,
0003
0000
2032
0000
0203
0000
0000
3000
0002
0000
0000
0000
2300
0000
0000
3200
,
0003
0300
0012
0100
2023
0000
0030
3002
0200
0000
2303
0000
3102
0000
0000
0100
,
0000
0000
0100
0000
1000
0000
0000
1003
0020
0000
1000
0030
2001
0000
0000
3001
,
0200
0300
0021
0000
1000
0030
0002
1003
0020
0030
1200
0300
0011
0000
0101
0000
,
1001
0000
0201
0000
0301
0000
1001
0000
0101
0000
0011
0000
1012
0100
1000
0100
,
0013
0100
1001
0110
2001
0010
0100
0010
0001
0010
3100
0010
1001
0010
0100
1000
,
0101
0010
0001
0010
0100
1000
0100
0010
1001
0010
0100
1000
0001
0010
0100
1000
,
0101
0010
0001
0010
0100
1000
0101
0010
0001
0010
0100
1000
0001
0010
0100
1000
,
0101
0010
0001
0010
0100
1000
0100
0010
1001
0010
0100
1000
0001
0010
0100
1000
,
0101
0010
0001
0010
0100
1000
0101
0010
0001
0010
0100
1000
0011
1100
0000
0011
,
1100
0000
0000
0000
0000
2000
3000
0000
2000
3000
0000
0000
0101
1010
0000
0101
,
1010
0000
0000
0000
0000
2000
3000
0000
2000
3000
0000
0000
0011
1100
0000
0011
,
1100
0000
0000
0000
0000
2000
3000
0000
2000
3000
0000
0000
0101
1010
0000
0101
,
1010
0000
0000
0000
0000
2000
3000
0000
2000
3000
0000
0000
1102
0000
0003
0100
,
0020
0030
1000
0200
0301
0000
0000
0000
1010
0100
0010
0000
1002
0000
0003
1000
,
0020
0030
0100
2000
3011
0000
0000
0000
0100
0000
0000
0000
0021
0000
0030
0001
,
0200
0300
0010
2000
3101
0000
0000
0000
1010
0100
0010
0000
1200
0000
0300
0002
,
0100
0000
1003
0100
0011
0000
0010
0000
0101
0000
1010
0000
0102
0000
0003
0100
,
0020
0030
1000
0200
0301
0000
0000
0000
1010
0100
0010
0000
1002
0000
0003
1000
,
0020
0030
0100
2000
3011
0000
0000
0000
0100
0000
0000
0000
0021
0000
0030
0001
,
0200
0300
0010
2000
3101
0000
0000
0000
1010
0100
0010
0000
1200
0000
0300
0002
,
0100
0000
1003
0100
0011
0000
0010
0000
0101
0000
1010
0000
1101
0000
0000
0000
,
1000
0100
0000
0010
1001
0000
0010
0000
1100
0000
1000
0000
0011
0000
0000
0000
,
0011
1000
0100
0010
0001
0000
0000
0000
0001
0000
0000
0000
0101
0000
0000
0000
,
0001
1000
0000
0100
0011
0000
0010
0000
0101
0000
1000
0000
1011
0000
0000
1100
,
0010
0000
0101
0000
1000
0110
0001
0000
1110
0000
0111
0000
1001
0000
0000
0000
,
1000
0100
0000
0010
1001
0000
0010
0000
1100
0000
1000
0000
0011
0000
0000
0000
,
0011
1000
0100
0010
0001
0000
0000
0000
1001
0000
0000
0000
1011
0100
1000
0100
,
0011
1100
0010
0101
1010
0100
1000
0100
0011
1100
0001
0110
1001
0010
0100
1000
,
0111
1000
0001
0100
1011
0100
1000
0001
1110
0001
0010
0100
1011
0000
0000
0001
,
1010
0000
0001
0000
1010
0000
0100
0000
1001
0000
0010
0000
1000
0000
0100
0010
,
1001
0100
0010
0100
1010
0000
0010
0000
1100
0001
0100
0001
1010
0000
1000
0100
,
0011
0000
1000
0000
0110
0000
1000
0000
0101
0000
0010
0000
0001
0000
1000
0100
,
0011
1000
0100
0010
0101
1010
0101
1000
0011
0100
1001
0100
1010
0000
0000
0001
,
1010
0000
0001
0000
1010
0000
0100
0000
1001
0000
0010
0000
0001
0000
1000
0010
,
0101
1000
0010
1000
0110
0000
0010
0000
1100
0010
0101
1010
0101
0000
1010
0000
,
1010
0100
1001
0110
1001
0000
1100
0000
1100
0010
0101
1010
0101
0000
1000
0100
,
0011
0000
0000
0000
1000
0000
0100
0000
0011
0000
1100
0000
0011
0000
1100
0000
0001
0010
0100
1000
0001
0010
0100
1000
0011
0000
0000
0000
0000
0000
0000
0000
,
1000
0000
0010
0100
0011
0000
0100
0000
1010
0000
0100
0010
1001
0001
0000
0001
,
1001
0000
0010
0100
1010
0000
0001
0000
1000
0000
0100
0010
1001
0001
0000
0001
,
1001
0000
0010
0100
0011
0000
0100
0000
1001
0000
0100
0010
1001
0001
0000
0001
,
1001
0001
0010
0100
1010
1000
1001
0000
1010
0000
1000
0000
1001
0000
0010
0100
,
1001
0000
0100
0010
1100
0000
0001
0000
1100
0000
1000
0100
0011
0000
0001
0000
,
1010
0000
0100
0010
1100
0010
0100
0010
1100
0000
0100
0010
1001
0000
0010
0100
,
1010
0101
1010
0101
1010
0000
1000
0000
0110
1000
0101
1010
0101
0000
0010
0100
,
1001
0000
0000
0000
0100
0000
0010
0000
1100
0000
0001
0000
1000
0000
0001
0000
1000
0100
0010
0001
1000
0100
0010
0001
1100
0000
0000
0000
0100
0000
0010
0000
,
1100
0010
1001
0010
1100
1000
0101
0010
,
0001
0000
0100
0000
0011
0000
0000
0000
0101
0000
0010
0000
1100
0000
1000
0010
,
0101
0000
0010
0000
1001
0000
0010
0000
0101
0000
1000
0000
1100
0000
0000
0010
,
0001
0000
0000
0100
0000
0000
1011
0000
0000
0000
0000
0000
0000
0000
0000
1000
0100
0010
1101
0000
0000
0010
0000
0000
,
0101
0000
1000
0000
1100
0000
0001
0000
1010
0000
0100
0000
1001
0000
0000
0100
,
0001
0100
0011
0000
0101
1000
1100
0100
,
1010
0000
0001
0000
1010
0000
0010
0000
0101
0000
1000
0000
1001
0000
0000
0100
,
0001
0000
1000
0000
0101
0000
0001
0000
1001
0100
0011
0000
1101
0010
1100
0001
,
0110
1000
0011
1000
0101
0010
0101
0010
1100
0010
1001
0100
1001
0100
0010
0101
,
0010
0001
1100
0010
0101
1000
0010
0001
1100
0010
0101
0010
1001
0100
1001
0100
,
1010
0001
0110
1000
0101
1000
0101
0010
1100
0010
0101
0010
1001
0100
0010
0101
,
1000
0010
1001
0010
0101
1000
0100
0001
1010
0100
0011
1000
0111
1000
0100
0011
,
1100
0001
1010
0100
0011
0100
1001
0010
0100
1000
0101
1000
0011
1000
0100
0011
,
1100
0001
1010
0100
0011
0100
1001
0010
1000
0100
0011
1000
0110
0001
1000
0110
,
1001
0010
1100
0010
0101
1000
0110
0001
1010
0100
1001
0010
1100
0011
1100
0011
,
1100
0011
1100
0001
1110
0000
0000
0000
0001
0000
0000
0000
1101
0010
1100
0011
,
0100
1010
0101
0010
1100
0011
0100
1010
0101
0010
1001
0110
1001
0100
0010
0001
,
1010
0100
0010
1000
0101
0010
0100
0001
1010
0101
1010
0100
0011
1000
0110
1001
,
0010
1100
0011
1000
0110
1001
0010
1000
0011
1000
0110
1000
0011
1000
0001
0110
,
1001
0100
0010
1000
0101
1000
0010
0001
1100
0011
1100
0011
1100
0001
1010
0101
,
1000
0011
1100
0001
1010
0101
1000
0011
1100
0001
1010
0101
1010
0001
0100
0010
,
1100
0001
0010
1000
0101
1000
0010
0001
1100
0011
1100
0010
1001
0100
0011
1100
,
0001
0110
1001
0100
0011
1100
0001
0110
1001
0100
0011
1100
0011
0100
1010
0101
,
0010
1001
0110
0001
1100
0011
1100
0011
1100
0011
1100
0010
1001
0110
1000
0101
,
1000
0110
1001
0100
1001
0010
0001
0010
1001
0010
0001
0010
1100
0011
0100
0011
,
0100
1010
0101
0010
0101
1000
0001
1000
0001
1000
0001
1000
0011
1100
0001
0110
,
0001
1100
0011
0100
1001
0010
1000
0010
1100
0010
1000
0010
1100
0011
0100
1001
,
0010
0101
1010
0101
0010
1000
0100
0010
1001
0110
1001
0100
2012
0000
3000
0000
,
1100
0000
0000
0020
1000
0000
0030
0000
1103
0000
0000
0002
1000
0000
0003
0000
,
1100
0000
0000
0020
1000
0000
0030
0000
1201
0300
1000
0002
0120
0003
2030
0000
,
0011
0000
0000
0200
0001
0000
0300
0000
3011
0000
0000
2000
0001
0000
3000
0000
,
0011
0000
0000
0200
0001
0000
0000
0300
2011
3000
0100
0002
2010
0000
3000
0000
,
1100
0000
0000
0020
1000
0000
0030
0000
1103
0000
0000
0002
1000
0000
0003
0000
,
1100
0000
0000
0020
1000
0000
0030
0000
2011
3000
0100
0020
2100
0030
3002
0000
,
1100
0000
0000
0020
1000
0000
0030
0000
1103
0000
0000
0002
2100
0000
0003
0000
,
0011
0000
0000
0200
0001
0000
0301
0000
0011
0000
3001
0000
1120
0000
0000
0000
,
1100
0002
0003
0100
1000
0000
0030
0000
0112
0003
1000
0200
0011
0000
0000
0000
,
0011
2000
3000
0010
0001
0000
0000
0300
1012
0103
0000
0020
1100
0000
0000
0000
,
1100
0002
0003
0100
1000
0000
0030
0000
0112
0003
1000
0200
0011
0000
0000
0000
,
0011
2000
3000
0010
0001
0000
0300
0000
1102
0013
1000
0002
1100
0000
0000
0000
,
1100
0020
0030
0100
1000
0000
0003
0000
0121
0030
1000
0200
0011
0000
0000
0000
,
0011
2000
3000
0010
0001
0000
0000
0300
1012
0103
0000
0000
1120
0000
1000
0000
,
1100
0002
1003
0100
1000
0000
1000
0030
1202
0300
1003
0000
1011
0000
0000
0000
,
1101
0000
0000
0000
1011
0000
0000
0000
0100
0001
0100
0001
1110
0000
0000
0001
,
1000
0000
0001
0010
1100
0000
0000
0010
1000
0000
0001
0000
1010
0000
0000
0000
,
1000
0100
0001
0010
1100
0000
0000
0000
1000
0000
0001
0010
1100
0000
0010
0000
,
1001
0100
0011
1000
0101
0010
1001
0000
,
1000
0000
0000
0000
1000
0000
0010
0010
1010
0000
1000
0000
0101
0000
0000
0010
,
0001
0000
0010
0100
1001
0000
0000
0100
0001
0000
0010
0000
0101
0000
0000
0000
,
0001
1000
0010
0100
2001
0000
0000
0000
3001
0000
0010
0100
1001
0000
0020
0030
,
1100
0000
0002
0003
0110
0000
2000
3000
0011
0000
0200
0300
1002
0000
0000
0000
,
1000
0000
1003
1000
1000
1000
2001
0000
,
0001
0000
0000
0000
3000
0000
0100
0010
1001
0000
0000
0000
0010
0000
0000
0000
0101
0000
0000
0000
1000
0000
0000
0000
0011
0000
0000
0000
0000
0000
0000
0000
,
2001
0001
3001
0201
,
0301
0000
1000
0100
0011
0000
1000
0000
0110
0000
0001
0000
1020
0000
0000
0000
,
1030
0000
0001
0100
1020
0000
1030
0000
0101
0000
0010
0000
1002
0000
0000
0000
,
1000
0000
0000
0000
0003
0000
1000
0100
0011
0000
0000
0000
0010
0000
0000
0000
0101
0000
0000
0000
1000
0000
0000
0000
0011
0000
0000
0000
0000
0000
0000
0000
,
2010
0000
0000
0000
0010
0000
0000
0000
3010
0000
1000
0100
0011
0000
0001
0000
,
0001
0000
0101
0010
1001
0000
1100
0000
1001
0000
1010
0000
0101
1000
0100
1000
,
0010
0100
0010
0100
0001
0010
0001
0010
1000
0001
1000
0001
0110
0000
1010
0101
,
0010
0100
1000
0000
0011
0000
0101
1010
0000
0101
1000
0000
0011
0000
1001
0100
,
0010
1001
0000
0020
0100
0000
1030
0100
0000
0011
0000
1000
0101
0000
1100
0010
,
0001
0100
1000
0000
0101
0000
1010
0101
0000
1010
0001
0000
0110
0000
1100
0011
,
0000
0110
0000
2000
0001
0000
3110
0010
0001
1100
0010
0010
1001
0000
1010
0101
,
0010
0100
1000
0000
0011
0000
0101
1010
0000
0101
1000
0000
0011
0000
1001
0100
,
0010
1001
0000
0020
0100
0000
1030
0100
0000
1001
0000
0100
0011
0000
1100
0010
,
0001
0100
1000
0000
0011
0000
1100
0011
0000
1100
0001
0000
0110
0000
1010
0101
,
0000
0110
1000
0010
0001
0200
0001
0000
0301
0000
0001
0000
1021
0000
0030
0000
,
1100
0000
0001
0000
1010
0100
0000
2000
0001
0000
3000
0000
0011
0000
1000
0000
,
0101
0010
0000
0200
0001
0000
0000
0000
0301
0000
0000
0000
1020
0000
0030
0000
,
1001
0000
0010
0000
1001
0100
0000
0010
1000
0000
0001
0000
0210
0000
0300
0000
,
2010
0000
0010
0010
0010
3010
1002
0003
,
1100
0000
0001
0000
0110
1000
0000
0100
0010
0000
0001
0000
1020
0000
0030
0000
,
1010
0100
0000
0002
1000
0000
0000
0000
1000
0000
0003
0000
0102
0000
0103
0000
,
0110
0010
0100
0000
1001
0000
0001
1000
0011
0000
1001
0000
0111
0000
0010
0000
,
1110
0000
0010
0000
1011
0100
1000
0000
1010
0001
1000
0001
0110
1000
0101
0010
,
1001
0100
1010
0001
0110
1000
0101
0010
1001
0100
1010
0001
0110
1001
0110
1001
,
0010
1100
0011
1100
0000
0100
0010
0002
0003
0010
0100
1000
0011
1000
0101
0010
,
1001
0100
1010
0001
0110
1000
0101
0010
1001
0100
1010
0001
1100
0011
1100
0011
,
1000
0101
0010
1100
0000
0020
0030
0100
1000
0001
0000
0000
0110
1000
0011
1000
,
0110
1000
0011
1000
0101
0010
1100
0010
0101
0010
1100
0010
1001
0100
0011
0100
,
1001
0100
0011
0100
1001
0010
1100
0010
1001
0010
1100
0010
0101
1000
0011
1000
,
0101
1000
0011
1000
0101
1000
0011
1000
0101
1000
0011
1000
0110
0001
1010
0100
,
1001
0010
0000
0100
2000
0000
0000
0000
0000
3000
0001
0010
0201
1300
0011
0100
,
1010
0101
1010
0100
0001
1100
0010
0001
1000
0011
0200
1300
0011
0100
1001
0010
,
0100
0011
0100
1000
0001
1010
0101
0010
0000
1100
0021
0030
1001
0010
0101
0010
,
0100
1001
0010
1000
0010
0101
1010
0100
1000
0012
0003
0100
0011
1000
0110
0001
,
1000
0011
0100
1000
0010
0101
1001
0010
1010
0101
0100
0000
1000
0011
0100
1000
,
0110
0000
0000
0001
1010
0100
0010
1001
0100
1010
0101
0000
1000
0011
0100
1000
,
0110
0000
0000
0010
1100
0001
1000
0110
0001
1100
0011
0000
1000
0101
0010
0100
,
1001
0000
0000
0010
1100
0001
1000
0110
0001
1010
0101
0000
0010
1001
0100
0011
,
1100
0000
0000
0010
1100
0011
1010
0101
0000
0000
0000
0000
1012
0000
0003
0010
,
1100
0000
0001
0000
1020
0000
0030
0100
0011
0000
1000
0000
0201
0000
0000
0000
,
0011
0000
0000
0000
0001
0000
0010
0000
0301
0000
0000
0000
1002
0000
0003
0010
,
1100
0000
0001
0000
1020
0000
0030
0100
0011
0000
1000
0000
0201
0000
0300
0000
,
1011
0000
0001
0010
1200
0000
0310
0000
2001
0000
3000
0100
1001
0000
0020
0000
,
1100
0000
0000
0000
1030
0000
0000
0000
1012
0000
0003
0010
1200
0000
0300
0000
,
2011
3000
1200
0301
1020
0030
1002
0003
,
1100
0000
0000
0010
1020
0000
0000
0000
1100
0000
0000
0000
1000
0000
0000
0000
,
1100
0000
0000
0000
1000
0000
0100
0000
1030
0000
0000
0000
1002
0000
0003
0020
,
1001
0030
0200
0300
1020
0000
0030
0200
0011
0300
2000
3000
0201
0000
0000
0000
,
1001
0000
0000
0000
0001
0000
1000
0000
0301
0000
0000
0000
1002
0000
0003
0020
,
1001
0030
0200
0300
0021
0000
0030
0200
0011
0300
2000
3000
0201
0000
0000
0300
,
1021
0030
0001
0010
1200
0000
0010
0300
2001
0000
3000
0100
1020
0030
0002
0000
,
1100
0000
0000
0003
1000
0000
0200
0300
1021
0000
0030
0100
1002
0000
0003
0000
,
1120
0030
2001
3100
0012
0003
1020
0000
,
0131
0000
2000
3000
0201
0000
0000
0000
1001
0000
0300
0000
1101
0010
0100
0010
,
1101
0010
0100
0010
1101
0010
0100
0010
1101
0010
0100
0020
1101
0000
0000
1000
,
0000
0000
1000
0000
1030
0000
0001
0000
1001
0000
0100
0020
0001
0030
0100
0001
,
1000
0000
0101
0010
0001
0000
1010
0000
0110
0001
1010
0201
0010
0000
0000
0010
,
0000
0000
0010
0000
0310
0000
0001
0000
1001
0000
0100
0020
1000
0030
0001
1000
,
0100
0000
1001
0020
1000
0030
0100
0000
1001
0100
1010
0102
1000
0000
0000
1000
,
0000
0000
1000
0000
1003
0000
0010
0000
1010
0000
0100
0020
0031
0000
2000
3001
,
0020
0030
0201
0300
2001
3000
0010
0000
1010
0001
1100
0021
0100
0000
0000
0100
,
0000
0000
0100
0000
0100
0000
1030
0000
1001
0000
0010
0200
0001
0000
0000
0001
,
0000
0000
0001
0000
0001
0000
0310
0000
1010
0101
1010
0102
1000
0100
0010
0100
,
1000
0100
0010
0100
1000
0100
0013
0100
2010
3001
0110
1002
0103
0010
1001
0010
,
1100
0010
1001
0120
1000
0030
0101
0010
1100
0010
0101
2010
0001
0010
0100
0010
,
0001
0010
0100
0010
3001
0010
0100
0010
1001
0100
1001
0120
1030
0100
0011
0100
,
1010
0100
1001
0120
0001
0130
1000
0010
0101
0010
1001
0120
0001
0100
1000
0100
,
0001
0100
1000
0100
0031
0100
1000
0100
1010
0001
0110
1002
0010
0103
1010
0100
,
0011
0100
1010
0100
1001
0010
0100
0010
1001
0010
1100
0021
1000
0100
0001
0100
,
1000
0100
0001
0100
1030
0100
1010
0100
0011
1000
0101
2010
3101
0010
0100
0010
,
1000
0001
1000
0001
0100
0010
0100
0010
1000
0001
1000
0001
1000
0000
0000
0000
,
1020
0000
0000
0000
0000
0000
0000
0000
0000
0030
0000
0000
1000
0000
0000
0000
0000
0000
0000
0000
0000
0000
0000
0000
1002
0003
0000
0020
0030
0000
0200
0300
0000
2000
3000
0000
0111
0000
0000
0000
0000
0000
0100
0000
0000
0100
0000
0000
,
0101
0000
0010
0000
1001
0000
0001
0001
1010
0000
0100
0000
1001
0000
1001
1000
,
1001
0000
0101
0000
1001
0000
0010
0000
0100
0010
1100
0011
1100
0000
1000
1000
,
1001
0000
0100
0000
1001
0000
0001
0001
1010
0000
0100
0000
1010
0000
1010
1000
,
1010
0000
0110
0000
0011
0000
1000
0000
0010
1000
0010
1000
0101
0000
0100
0100
,
0101
0000
0010
0000
1001
0000
0001
0001
1010
0000
0100
0000
1001
0000
0000
0000
,
1010
0000
0001
0000
1020
0000
0030
0000
1200
0000
0300
0000
1010
0000
0010
0010
,
1010
0000
0100
0000
1001
0000
1000
1000
0101
0000
0010
0000
1200
0010
0001
0010
,
1000
0010
0001
0010
1001
0010
1001
0010
1001
0010
1001
0310
2001
0100
0001
0100
,
0001
3100
0011
1100
0012
1000
0013
1000
0021
1030
0001
0110
2001
3100
0001
1100
,
0021
1000
0001
1000
0001
1000
0001
1000
0001
1000
0031
1000
0210
1000
0010
1000
,
0310
1000
0101
1010
0102
0010
0103
0010
1200
0010
1300
0011
2100
0001
0100
0001
,
0100
0001
0100
0001
0100
0001
0100
0001
0100
0001
3100
0001
1200
0010
1000
0010
,
1300
0010
1001
0110
1002
0010
1003
0010
1200
0310
1000
0110
1002
0103
0010
1100
,
0012
0100
0010
0100
0010
0100
0010
0103
2010
3100
0010
1100
0012
1000
0010
1000
,
0013
1000
0010
1100
0012
1000
0013
1100
0012
1000
0010
1000
0010
1000
0013
1100
,
0012
1000
0013
1100
0012
1000
0010
1000
0013
1000
0110
0001
1120
0001
1100
0001
,
1130
0001
1100
0010
2101
0010
0101
0010
3101
0010
0101
0010
1100
0011
1100
0011
,
1100
0011
1100
0011
1100
0000
0000
0000
0001
0100
0010
1000
0M0M
0000
0000
M0M0
,
0000
0000
0M0M
0000
0000
0000
M0M0
0000
0100
0010
0100
0010
1101
0000
1000
0000
,
0101
0010
1001
0010
0101
1000
0201
0300
,
0011
0100
0001
0000
0001
0000
1000
0100
,
1010
0001
1010
0100
0011
1000
0201
0300
,
1010
0001
1000
0000
1000
0000
1010
0001
,
1000
0010
1001
0000
1010
0001
1010
0100
,
0010
1000
0110
0000
1010
0100
1010
0001
,
1000
0010
1001
0000
1010
0001
1000
0001
,
1010
0000
0100
0000
0011
0100
1001
0010
1100
0010
1001
0100
1011
0000
1000
0000
,
1100
0000
1000
0010
1001
0000
1000
0000
1100
0000
1000
0000
1010
0000
1010
0010
,
1000
0100
1000
0010
1001
0000
1000
0000
1100
0000
1000
0000
0011
0100
1001
0010
,
0101
1000
0011
1000
0011
0100
1001
0010
0101
1000
0101
0010
1100
0000
1000
0000
,
1000
1000
1001
1000
1000
1000
0101
0001
,
1001
0000
0001
0100
0011
0000
0001
0000
1001
0000
0001
0000
0101
0000
0101
0100
,
0001
1000
0001
0100
0011
0000
0001
0000
1001
0000
0001
0000
1001
0010
1100
0001
,
1010
0100
1001
0100
1001
0010
1100
0001
1010
0100
1010
0001
1100
0010
0100
0010
,
0100
0000
0000
0000
0000
0000
0000
0000
0000
0000
0000
0000
0010
0000
0000
0000
0000
0000
0000
0000
0000
0000
0000
0000
0100
0000
0000
0000
0000
0000
0000
0000
0000
0000
0000
0000
0010
0000
0000
0000
0000
0000
0000
0000
0000
0000
0000
0000
1000
0000
0000
0000
0000
0000
0100
0000
0000
0000
0000
0000
0010
0000
0000
0000
0000
0000
0001
0000
0000
0000
0000
0000
1000
0000
0000
0000
0000
0000
0100
0000
0000
0000
0000
0000
0010
0000
0000
0000
0000
0000
0001
0000
0000
0000
0000
0000
1000
0000
0000
0000
0000
0000
0100
0000
0000
0000
0000
0000
0010
0000
0000
0000
0000
0000
0001
0000
0000
0000
0000
0000
1000
0000
0000
0000
0000
0000
0100
0000
0000
0000
0000
0000
0010
0000
0000
0000
0000
0000
0001
0000
0000
0000
0000
0000
1100
0000
0000
0000
0000
0000
0000
0000
0000
0000
0000
0000
0000
0000
0000
0000
0000
0000
0000
0000
0000
0000
0000
0000
0000
0000
0000
0000
0000
0000
0000
0000
0001
0000
0000
0000
0000
0000
0000
0000
0000
0000
0000
0000
0000
0000
0000
0000
,
1100
0100
0011
1001
0000
0110
1001
0000
0011
1100
0000
0001
,
1000
0000
0001
1010
0000
0001
1100
1100
1101
1010
0000
0001
,
1100
1000
0110
1001
0000
1010
0101
0000
1001
0110
0000
0001
,
1000
0000
0001
1000
0000
0001
1100
1100
1101
1110
0000
0001
,
1110
1100
0111
1011
0000
1110
0111
0000
1011
1101
0000
0001
,
1000
0000
0001
1110
0000
0001
1100
1100
1101
1110
0000
0010
,
1101
0000
1000
0111
0000
0100
1011
0000
0111
1110
1000
1000
,
0111
0001
0001
1110
1000
1000
0110
0000
0000
1011
0000
0001
,
0110
0000
0001
1010
0000
1100
0011
0000
0101
1010
0000
0001
,
1000
0000
0010
1001
0000
0001
1110
1100
1101
1100
0000
0001
,
0110
0000
0010
1001
0000
0100
0011
0000
1001
0110
0000
0001
,
1000
0000
0010
0101
0000
0001
1110
1100
1110
1001
0000
0010
,
1100
0000
0010
0101
0000
1000
0110
0000
0011
1100
0000
0001
,
1000
0000
0010
1001
0000
0001
1110
1100
1101
1100
0000
0001
,
1010
0000
0100
0011
0000
0010
1001
0000
0101
1011
0010
0010
,
1101
1100
0101
1011
0010
0010
1101
0100
0100
1011
0000
0011
,
1100
0000
1010
0101
0000
1100
0011
0000
0101
1000
0000
1100
,
0011
0000
1001
0110
0000
1010
0101
0000
0011
1000
0000
0110
,
1001
0000
1010
0101
0000
1100
0011
0000
0101
1000
0000
1100
,
0011
0000
1010
0101
0000
0110
1001
0000
0011
1000
0000
0000
,
1010
0000
0000
1000
0000
0000
1010
0000
0010
1000
0010
0000
,
1010
0000
0010
0000
0000
0000
1010
0000
0000
0000
0010
0000
1010
0000
0010
0000
0000
0000
1100
0000
0000
0010
0000
0000
,
1102
0003
1020
0030
1101
0010
1002
0003
,
1120
0000
0000
0030
0000
0000
1100
0000
0000
0010
0000
0000
1012
0000
0000
0003
0100
0000
1020
0000
0100
0030
0000
0000
,
1001
0000
0000
0200
0000
0000
0311
0000
0000
1000
0001
0000
0201
0000
0001
0300
0000
0000
1100
0000
0000
0010
0000
0000
,
1102
0003
1020
0030
1101
0010
1002
0003
,
1120
0000
0000
0030
0000
0000
1001
0000
0000
0100
0000
0000
1021
0000
0000
0030
0001
0000
1200
0000
0001
0300
0000
0000
,
1011
0000
1000
0002
0000
0000
1103
0000
0000
0010
1000
0000
1002
0000
1000
0003
0000
0000
1101
0000
0000
0100
0000
0000
,
0010
0101
1010
0101
1001
0100
0011
0001
,
1010
0100
1001
0100
0010
0001
1010
0100
,
1010
0100
0010
0001
0010
0100
1000
0100
,
1010
0101
1010
0101
1001
0100
0011
0001
,
1010
0100
1001
0100
0010
0001
0010
0100
,
1010
0100
0010
0001
0010
0100
1001
0100
,
0010
0101
1010
0101
1001
0100
0011
0001
,
1010
0100
1001
0100
0010
0001
1010
0100
,
1010
0100
0010
0001
0010
0100
1001
0100
,
0011
1000
0110
1000
0101
0010
1001
0100
,
0001
0110
1001
0100
0010
0001
0010
0100
,
1011
0000
0000
0000
0011
0000
0100
0000
0011
0000
0000
0000
0011
0000
0000
0000
0000
0000
1000
0000
0000
0000
0000
0000
0011
0000
0000
0000
0000
0000
0100
0000
0000
0000
0000
0000
2001
0000
0000
0000
0000
0000
0000
0000
0000
3000
0000
0000
,
0010
0000
0000
0001
0100
1000
0010
1000
0101
0010
0000
1000
0010
0000
0002
0000
,
2103
0000
3000
0000
2001
0000
0000
3000
0110
0000
0000
1000
0000
0010
0100
1000
,
0011
0100
0000
0010
0000
0000
0002
0000
2003
0000
3000
0000
2010
0000
0000
3000
,
0001
0000
0000
0010
0100
1000
0010
1000
0101
0010
0000
1000
0100
0000
0002
0000
,
2013
0000
3000
0000
2100
0000
0000
3000
0001
0000
0000
0100
0000
0010
0000
1000
,
0100
0001
0000
0100
0000
0000
0002
0000
0023
0000
0230
0000
2310
0000
0000
0000
,
3001
0000
0000
0010
1000
0001
0100
1000
0101
0010
0000
1000
0010
0000
0002
0000
,
2103
0000
0000
0000
0000
0000
3000
0000
0000
0000
0000
0000
2010
0000
0001
0000
0010
0000
0000
0000
0000
0000
0000
0000
3101
0000
0000
0000
0000
0000
0000
0000
0000
1000
0000
0000
0010
0000
0000
0100
0000
0000
0000
0000
0000
0010
0000
0000
,
1001
0100
0000
0001
1000
0000
0200
0000
1320
0000
0132
0000
2013
0000
0000
0000
,
3001
0000
0000
0100
1000
0010
0000
1000
0110
0001
0000
0100
0000
0000
0020
0000
,
2030
0000
3200
0000
2300
0000
3002
0000
1003
0000
0000
0100
0000
0001
1000
0010
,
0001
0000
0000
1000
0000
0000
0100
0000
0010
0000
0001
0000
0010
0000
0100
0000
1000
0000
0001
0000
0010
0000
0100
0000
0001
0000
0010
0000
0100
0000
1000
0000
0010
0000
0100
0000
1001
0000
0000
0000
0000
0000
1000
0000
0000
0000
0000
0000
,
0001
1100
0011
0000
1101
1000
0011
1000
,
0101
0000
1011
0001
0101
1000
0001
0010
,
1101
0000
0000
1000
0000
0000
0001
1000
0010
0100
0000
0000
0001
1000
0010
0101
0000
0000
1011
0000
0000
1000
0000
0000
,
0001
1100
0011
0000
1101
1000
0001
1000
,
0101
0000
1011
0001
0001
1000
0001
0000
,
1101
0000
0000
1000
0000
0000
0001
1000
0010
0100
0000
0000
0001
1000
0010
0101
0000
0000
1011
0000
0000
1000
0000
0000
,
0010
1100
0011
0000
1101
1000
0011
1000
,
0110
0000
1101
0001
0001
1000
0001
0000
,
1011
0000
0000
1000
0000
0000
0001
1000
0010
0100
0000
0000
0001
1000
0010
0101
0000
0000
1011
0000
0000
1000
0000
0000
,
0001
1000
0101
0000
1101
1000
0111
1001
,
0011
0000
0001
0000
1101
0000
0001
0000
1001
0000
0001
0000
1010
0100
0010
0100
,
0011
0000
0000
0100
0000
0000
0010
0000
0000
0100
0000
0000
0001
0000
1000
0000
0001
0000
1010
0000
0000
0100
0000
0000
0001
0000
1000
0000
0001
0000
1010
0000
0000
0100
0000
0000
1012
0000
0000
0003
0000
0000
0110
0000
0000
0000
0000
0000
,
1001
0000
1010
0000
0101
0000
1010
0000
1102
0003
0110
0000
1012
0003
1100
0000
,
0110
0000
1001
0000
0101
0000
1010
0000
0112
0003
1100
0000
1021
0030
0101
0000
,
1010
0000
1100
0000
1010
0000
0101
0000
1021
0030
1100
0000
0121
0030
1001
0000
,
0110
0000
1010
0000
0101
0000
0011
0000
1120
0030
0101
0000
2011
3000
0101
0000
,
1010
0000
1100
0000
0101
0000
1010
0000
2101
3000
0110
0000
2011
3000
0101
0000
,
1010
0000
0101
0000
0011
0000
1010
0000
2101
3000
0011
0000
2101
3000
0110
0000
,
1010
0000
0101
0000
0011
0000
1010
0000
2101
3000
0011
0000
1120
0030
1001
0000
,
0110
0000
0101
0000
1010
0000
0101
0000
1012
0003
2110
3000
1201
0300
0011
0000
,
1010
0000
0101
0000
0110
0000
1001
0000
0211
0300
1010
0000
1201
0300
0011
0000
,
1010
0000
0101
0000
0011
0000
0110
0000
1201
0300
1010
0000
2100
3000
0001
0000
,
0010
0000
0100
0000
1000
0000
0001
0000
2100
3000
0010
0000
2100
3000
0001
0000
,
1000
0000
0010
0000
0100
0000
0001
0000
2100
3000
0010
0000
0021
0030
0100
0000
,
0010
0000
1000
0000
0001
0000
0010
0000
0120
0030
1000
0000
0021
0030
0100
0000
,
1000
0000
0100
0000
0001
0000
1000
0000
0021
0030
0100
0000
0021
0030
0100
0000
,
1000
0000
0100
0000
0010
0000
1000
0000
0120
0030
0001
0000
0012
0003
1000
0000
,
0100
0000
0010
0000
1000
0000
0100
0000
0012
0003
2100
3000
0210
0300
0001
0000
,
1000
0000
0100
0000
0010
0000
0001
0000
0210
0300
0001
0000
1200
0300
0010
0000
,
1000
0000
0010
0000
0001
0000
0100
0000
0210
0300
1000
0000
2010
3000
0001
0000
,
0010
0000
0000
0000
0000
0000
0000
0000
0100
0000
0000
0000
0000
0000
0000
0000
1000
0000
0000
0000
0000
0000
0000
0000
0001
0000
0000
0000
0000
0000
0000
0000
2100
0000
0000
0000
3000
0000
0000
0000
0010
0000
0000
0000
0000
0000
0000
0000
2200
0300
0000
0000
3000
0000
0000
0000
0002
0003
0000
0000
0000
0000
0000
0000
,
2000
0000
0000
3000
0000
0000
0000
0000
0000
0000
0000
0000
0000
0000
0000
0000
0000
0000
0000
0000
0000
0000
0000
0000
0020
0000
0000
0030
0000
0000
0000
0000
0000
0000
0000
0000
0000
0000
0000
0000
0000
0000
0000
0000
0000
0000
0000
0000
0200
0000
0000
0300
0000
0000
0000
0000
0000
0000
0000
0000
0000
0000
0000
0000
0000
0000
0000
0000
0000
0000
0000
0000
0002
0000
0000
0003
0000
0000
0000
0000
0000
0000
0000
0000
0000
0000
0000
0000
0000
0000
0000
0000
0000
0000
0000
0000
2200
0000
0000
0300
0000
0000
0000
0000
0000
0000
0000
0000
3000
0000
0000
0000
0000
0000
0000
0000
0000
0000
0000
0000
0020
0000
0000
0030
0000
0000
0000
0000
0000
0000
0000
0000
0000
0000
0000
0000
0000
0000
0000
0000
0000
0000
0000
0000
0022
0000
0000
0003
0000
0000
0000
0000
0000
0000
0000
0000
0000
0000
0000
0000
0030
0000
0000
0000
0000
0000
0000
0000
0200
0000
0000
0300
0000
0000
0000
0000
0000
0000
0000
0000
0000
0000
0000
0000
0000
0000
0000
0000
0000
0000
0000
0000
,
0020
0000
0000
0030
0000
0000
0000
0000
0000
0000
0000
0000
0000
0000
0000
0000
0000
0000
0000
0000
0000
0000
0000
0000
2000
0000
0000
3000
0000
0000
0000
0000
0000
0000
0000
0000
0000
0000
0000
0000
0000
0000
0000
0000
0000
0000
0000
0000
0002
0000
0000
0003
0000
0000
0000
0000
0000
0000
0000
0000
0000
0000
0000
0000
0000
0000
0000
0000
0000
0000
0000
0000
0020
0000
0000
0030
0000
0000
0000
0000
0000
0000
0000
0000
0000
0000
0000
0000
0000
0000
0000
0000
0000
0000
0000
0000
0220
0000
0000
0300
0000
0000
0000
0000
0000
0000
0000
0000
0000
0000
0000
0000
0030
0000
0000
0000
0000
0000
0000
0000
2000
0000
0000
3000
0000
0000
0000
0000
0000
0000
0000
0000
0000
0000
0000
0000
0000
0000
0000
0000
0000
0000
0000
0000
0022
0000
0000
0000
0003
0000
0000
0000
0000
0000
0000
0000
0000
0000
0000
0000
0030
0000
0000
0000
0000
0000
0000
0000
0200
0000
0000
0000
0300
0000
0000
0000
0000
0000
0000
0000
0000
0000
0000
0000
0000
0000
0000
0000
0000
0000
0000
0000
,
2000
0000
0000
0000
3000
0000
0000
0000
0000
0000
0000
0000
0000
0000
0000
0000
0000
0000
0000
0000
0000
0000
0000
0000
0020
0000
0000
0000
0030
0000
0000
0000
0000
0000
0000
0000
0000
0000
0000
0000
0000
0000
0000
0000
0000
0000
0000
0000
0002
0000
0000
0000
0003
0000
0000
0000
0000
0000
0000
0000
0000
0000
0000
0000
0000
0000
0000
0000
0000
0000
0000
0000
2000
0000
0000
0000
3000
0000
0000
0000
0000
0000
0000
0000
0000
0000
0000
0000
0000
0000
0000
0000
0000
0000
0000
0000
0220
0000
0000
0000
0300
0000
0000
0000
0000
0000
0000
0000
0000
0000
0000
0000
0030
0000
0000
0000
0000
0000
0000
0000
2000
0000
0000
0000
3000
0000
0000
0000
0000
0000
0000
0000
0000
0000
0000
0000
0000
0000
0000
0000
0000
0000
0000
0000
0022
0000
0000
0000
0000
0000
0003
0000
0000
0000
0000
0000
0000
0000
0000
0000
0000
0000
0000
0000
0000
0000
0000
0000
0230
0000
0000
0000
0000
0000
0300
0000
0000
0000
0000
0000
0000
0000
0000
0000
0000
0000
0000
0000
0000
0000
0000
0000
,
2000
3000
0000
0000
0200
0300
0000
0000
0020
0030
0000
0000
2000
3000
0000
0000
0220
0300
0000
0000
0032
0003
0000
0000
0202
0300
0000
0000
2003
3000
0000
0000
,
0020
0030
0000
0000
0002
0003
0000
0000
2000
3000
0000
0000
0200
0300
0000
0000
0022
0030
0000
0000
2203
0300
0000
0000
3011
0000
0000
0000
0000
0000
0000
0000
,
0000
0000
0000
0000
,
0000
0000
0000
0000
,
0000
0000
0000
0000
,
2001
0000
0100
0000
0010
3000
0201
0300
0020
0000
0000
0030
0002
0000
0000
0003
,
1020
0100
0001
0000
0000
0000
0000
0000
0000
0030
0000
0000
0002
0000
0000
0003
0000
0000
1210
0000
0000
0300
0000
0000
0002
0000
0000
0000
0000
0000
0000
0000
0000
0003
0000
0000
2000
0000
0000
0000
0000
0000
3000
0000
0000
0000
0000
0000
,
1200
0010
0001
0000
0000
0000
0000
0000
0000
0300
0000
0000
0020
0000
0000
0000
0000
0000
0000
0000
0000
0030
0000
0000
1002
0100
0010
0000
0000
0000
0000
0000
0000
0003
0000
0000
0020
0000
0000
0000
0000
0000
0000
0000
0000
0030
0000
0000
,
0201
0000
1000
0300
0012
0000
0100
0003
0020
0000
0000
0030
2000
0000
0000
3000
,
0021
0030
1200
0300
2010
3000
0201
0300
0020
0000
0000
0030
0002
0000
0000
0003
,
1020
0100
0001
0000
0000
0000
0000
0000
0000
0030
0000
0000
0200
0000
0000
0300
0000
0000
2011
0000
0000
3000
0000
0000
0200
0000
0000
0000
0000
0000
0000
0000
0000
0300
0000
0000
0002
0000
0000
0000
0000
0000
0000
0000
0000
0003
0000
0000
,
2100
0010
0001
0000
0000
0000
0000
0000
0000
3000
0000
0000
0020
0000
0000
0000
0000
0000
0000
0000
0000
0030
0000
0000
1002
0100
0010
0000
0000
0000
0000
0000
0000
0003
0000
0000
0020
0000
0000
0000
0000
0000
0000
0000
0000
0030
0000
0000
,
0201
0000
0000
0000
1300
0000
0000
0000
0120
0000
0030
0000
2001
3000
0000
0000
1020
0000
0000
0000
0130
0000
0000
0000
2010
0000
0000
0000
0001
0000
0000
0000
,
0000
0000
0000
3000
0000
0000
0000
0000
0000
0000
0000
0000
1000
0100
0010
0001
,
1120
0000
0000
0000
1100
0000
1100
1100
0000
1130
0000
0110
2000
3110
0002
0113
,
1021
0000
0000
0000
1001
0000
1001
1001
0000
1031
0000
0011
0200
0311
2000
3011
,
1210
0000
0000
0000
1010
0000
1010
1010
0000
1010
0000
1010
0000
1010
0000
1010
,
0011
0000
0000
0000
0011
0000
0011
0011
0000
0011
0000
0311
1000
0111
0010
1101
,
1120
0000
0000
0000
1100
0000
1100
1100
0000
1130
0000
0011
2000
3011
0200
0311
,
1102
0000
0000
0000
1100
0000
0110
0113
2000
0011
0000
3011
0200
0011
0000
0311
,
1120
0000
0000
0000
1100
0000
1100
1100
0000
1100
0000
1100
0000
1100
0000
1100
,
0101
0000
0000
0000
0101
0000
0101
0101
0000
0101
0000
0101
0000
0101
0000
0131
,
1010
0000
0000
0000
1010
0000
0000
0000
1010
0000
0000
0000
1010
0001
0100
0010
,
1201
0000
0000
0000
0000
0000
0000
0000
0000
1001
0000
0000
0000
0000
0300
0000
0020
0000
1130
0000
0002
0000
0003
0000
,
0200
0000
1001
0000
0000
0000
0000
0300
1012
0000
0000
0003
1120
0001
1030
0001
,
1210
0000
0000
0000
0000
0000
0011
0300
2000
0000
0000
0000
0101
0000
0000
0000
,
0000
0000
0110
0000
0000
0000
0000
0000
0011
0000
0000
0000
0110
0001
3010
0001
,
1210
0000
0000
0000
0000
0000
0001
0000
0000
0000
0000
0000
0010
0000
0000
0000
0000
0000
1300
0000
0000
0000
0000
0000
0210
0000
0000
0000
0300
0000
0001
0000
0020
0000
0000
0000
1030
0000
0000
0000
0002
0000
0010
0000
0000
0003
0000
0000
,
1200
0000
0001
0000
0010
0000
1000
0300
0021
0000
1030
0000
0210
0000
0001
0300
,
1021
0000
0000
0000
0000
0000
0000
0000
0100
0000
0100
0000
0100
0000
0100
0030
,
1002
0100
1000
0000
0010
0100
0010
0000
1000
0100
1000
0000
0010
0100
0010
0103
,
1020
0000
0001
0100
0001
0000
1000
0000
0001
0100
0001
0030
2100
3000
0012
0003
,
1020
0000
0001
0100
0001
0000
1000
0000
0001
0100
0001
0030
1200
0300
2001
3000
,
0210
0000
1000
0001
1000
0000
0010
0000
1000
0001
1000
0000
0010
0000
1000
0000
,
0010
0000
1000
0001
1000
0000
0010
0000
1000
0001
1000
0300
1010
0100
1010
0001
,
0120
0000
1000
0001
1000
0000
0100
0000
1000
0001
1030
0000
2010
3000
0201
0300
,
0012
0000
1000
0010
1000
0000
0100
0003
2010
0001
0010
3000
0201
0000
1000
0300
,
0021
0000
1000
0100
1000
0000
0001
0000
1000
0100
1000
0000
0001
0000
1000
0000
,
0001
0000
1000
0100
1000
0000
0031
0000
1010
0101
1010
0001
1100
0011
1100
0011
,
2100
0000
0000
0000
0000
0000
0001
0000
0000
0000
0000
0000
0100
0000
0000
0000
0000
0000
3001
0000
0000
0000
0000
0000
2010
0000
0000
0000
3000
0000
0001
0000
0200
0000
0000
0000
1300
0000
0000
0001
0020
0000
0100
0000
0030
0001
0000
0000
,
2100
0000
0010
0000
0100
0000
0010
3000
0102
0000
0010
0003
1020
0100
1030
0001
,
0210
0000
1000
0000
0010
0000
1000
0300
2001
0000
0100
0000
0001
0010
0001
0010
,
0100
0000
0001
0000
0100
0000
0001
0000
0100
0000
0001
0000
0010
3001
0110
1001
,
0210
0000
0000
0000
0000
0000
1000
0000
0000
0000
0000
0000
0010
0000
0000
0000
0000
0000
1300
0000
0000
0000
0000
0000
0210
0000
0000
0000
0300
0000
1000
0000
0020
0000
0000
0000
0130
0000
0000
1000
0002
0000
0100
0000
0003
1000
0000
0000
,
0210
0000
0001
0000
0010
0000
0001
0300
1020
0000
0001
0030
1200
0001
1000
0301
,
1010
0001
0010
0100
1020
0000
0000
0000
1000
0000
0000
0000
1000
0000
0000
0030
,
1002
0100
1000
0000
0010
0100
0010
0000
1000
0100
1000
0100
0010
1000
0013
1000
,
0001
0100
0010
0001
0000
1000
0100
0010
0000
1000
0100
0010
0001
0010
0100
1000
,
0001
0100
0010
0001
0000
1000
0100
0010
0000
1000
0100
0010
0001
0010
0100
1000
,
0001
0100
0010
0001
0000
1000
0100
0010
0000
1000
0100
0010
0001
0010
0100
1000
,
0001
0100
0010
0001
0000
1000
0100
0010
0000
1000
0100
0010
0001
0010
0100
1000
,
0011
0100
0010
0000
1001
0010
0001
0000
1010
0100
1000
0000
0101
0010
0100
0000
,
1010
0100
0010
0000
1001
0010
0001
0000
1010
0100
1000
0000
0101
0010
0100
0000
,
1010
0100
0010
0000
1001
0010
0001
0000
1010
0100
1000
0000
0101
0010
0100
0000
,
1010
0100
0010
0000
1001
0010
0001
0000
1110
0000
0000
0000
0111
0000
0000
0000
,
1101
0000
0100
0000
1010
0000
0100
0001
1000
0010
0000
0100
0001
0010
1000
0000
,
1100
0010
0000
0001
1000
0010
0001
0000
1101
0000
0000
0000
1110
0001
0100
1000
,
0110
0001
0000
0001
1000
0010
0100
1000
0120
0030
0001
0000
1010
0100
1000
0000
,
0101
0010
0000
0001
1000
0010
0200
0300
1011
0000
0010
0000
1101
0010
1000
0100
,
1011
0000
0100
0000
1010
0000
0100
0001
1000
0010
0000
0100
0001
0010
1000
0000
,
1100
0010
0000
0001
1000
0100
0001
0000
0111
0000
0000
0000
1101
0010
0100
1000
,
0120
0030
0001
0000
1010
0100
0000
1000
0001
0010
0000
1000
0001
0010
0100
2000
,
0001
0000
0000
0000
0001
0000
0000
3000
0011
1100
0011
0000
1100
0011
1100
0011
,
2100
0000
0000
0000
0000
0000
0000
0000
0000
3000
0000
0000
0112
0000
0000
0000
0000
0000
0000
0000
0000
0003
0000
0000
1200
0000
0000
0000
0300
0000
0000
0000
0020
0000
0000
0000
1130
0000
0000
0000
0002
0000
0000
0000
0003
0000
0000
0000
,
2010
0000
3000
0100
1012
0000
0000
0003
1020
0000
0001
0030
1200
0010
1000
0310
,
2001
0000
0000
0000
0000
0000
0000
0000
0000
3000
0000
0000
0112
0000
0000
0000
0000
0000
0000
0000
0000
0003
0000
0000
2010
0000
0000
0000
3000
0000
0000
0000
0200
0000
0000
0000
1301
0000
0000
0000
0020
0000
0000
0000
0030
0000
0000
0000
,
1002
0000
0000
0000
1100
0000
0003
0000
2001
0000
0011
0000
0010
0100
3010
0100
,
1011
0000
0000
0000
0100
0000
0000
0000
1001
0000
0000
0000
0100
0000
0000
0001
0010
0000
0000
0000
0100
0000
0000
0000
1010
0000
0000
0000
0001
0000
0000
0000
1100
0000
0000
0000
0001
0000
0000
0010
0100
0000
0000
0000
1000
0000
0000
0000
,
0101
0000
0000
0000
0010
0000
0000
0000
0101
0000
0000
0000
1000
0000
0000
0100
0010
0000
0000
0000
0001
0000
0000
0000
0110
0000
0000
0000
0001
0000
1000
0000
0010
0000
0000
0000
0100
0000
0000
0001
0010
0000
0000
0000
0100
0000
0000
0000
,
1001
0100
0010
1000
0100
0001
1000
0010
0001
1000
0100
0010
0001
0010
0100
0001
0010
1000
0001
0100
1000
0001
0010
0100
,
1001
0110
1001
0110
1001
0000
1001
0110
0000
1001
0110
0000
1000
0001
1000
0001
,
1110
0002
1003
0001
1002
0003
1200
0300
,
1020
0030
1100
0002
1003
0010
1001
1010
,
1100
0000
0020
0000
1030
0000
0010
0000
1020
0000
0030
0000
1200
0000
0300
0010
,
1002
0000
0000
0000
1010
0000
0000
0000
1103
0010
1000
0000
1001
0010
1000
0010
,
1100
0002
1003
0001
1002
0003
1200
0300
,
1020
0000
0030
0000
1100
0000
0002
0000
1003
0000
0010
0000
1001
0100
1010
0100
,
1001
0000
0010
0000
0100
1000
0110
1000
0011
0000
0000
0010
0100
1000
0110
1000
,
0011
0000
1100
0010
0101
0000
1100
0010
0101
0010
1001
0100
1010
0100
0011
0100
,
1002
0003
0100
0000
1002
0003
0100
0000
1002
0003
0100
0010
2001
3000
0010
0000
,
0201
0300
0010
0000
1100
0000
0012
0000
1000
0000
0013
1000
0101
0000
0111
0000
,
1001
0000
0000
0000
0000
0000
1010
0000
0000
0000
0000
0000
1001
0000
0000
0000
0000
0000
0110
0000
0000
0000
0000
0000
1010
0000
0001
0000
0010
0000
1100
0000
0000
0001
0000
0000
1010
0000
0000
0000
0000
0000
0101
0000
0000
0000
0000
0000
,
0112
0000
1003
0000
0101
0000
1000
0000
0110
0000
1001
0010
1100
0010
0101
0010
,
1002
0003
0100
0000
1002
0003
0100
0000
1002
0003
0010
0100
2001
3000
0010
0000
,
1200
0300
0001
0000
1010
0000
0102
0000
1003
0000
0110
0001
1010
0000
1101
0000
,
1010
0000
0110
0000
1010
0000
0110
0000
1001
0000
1100
0010
0101
0000
1010
0000
,
0102
0100
0100
0100
1000
1000
1000
1003
,
0011
0000
1100
0000
0011
0000
1100
0000
0011
0000
1100
0000
0011
0000
1100
0000
0011
0000
0000
0000
0000
0000
0000
0000
0100
0000
0000
0000
0000
0100
0000
0000
,
1012
0000
1000
0003
1100
0010
0101
1000
,
0021
0000
0000
0000
0000
0000
0000
0000
0031
0000
0000
0000
0000
1000
0000
0000
0101
0000
0000
0000
0000
0000
0000
0000
1011
0000
0000
0000
0000
1010
0000
0000
,
0122
0000
0000
0000
0033
0000
0000
0000
1110
0000
0000
0000
0000
0101
0000
0000
2021
0000
0000
0000
3030
0000
0000
0000
1110
0000
0000
0000
0000
0101
0000
0000
,
1022
0000
0000
0000
1000
0000
0000
0000
1000
0000
1000
0033
1000
0001
1000
0001
,
1020
0000
1000
0030
1001
0010
1100
0010
,
0201
0000
0000
0000
0000
0000
0000
0000
0301
0000
0000
0000
1000
0000
0000
0000
0201
0000
0000
0000
0300
0000
0000
0000
0101
0000
0000
0000
0000
0100
0000
0000
,
1002
1000
1003
1010
0201
0301
2001
3001
,
0111
0000
0000
0000
0000
0000
0000
0000
0000
0000
0000
0000
0000
0000
0000
0000
0000
0000
0000
0000
0000
0000
0000
0000
0000
0000
0000
0000
0000
0000
0100
0000
0000
0000
0000
0000
1000
0000
0000
0000
0000
0000
0001
0000
0000
0000
0000
0000
0110
0000
0000
0000
0000
0000
0000
0000
0000
0000
0000
0000
0000
0000
0000
0000
0000
0000
0000
0000
0000
0000
0000
0000
0000
0000
0000
0000
0000
0000
0100
0000
0000
0000
0000
0000
1000
0000
0000
0000
0000
0000
0001
0000
0000
0000
0000
0000
0110
0000
0000
0000
0000
0000
0000
0000
0000
0000
0000
0000
0000
0000
0000
0000
0000
0000
0000
0000
0000
0000
0000
0000
0000
0000
0000
0000
0000
0000
0000
0000
0000
0000
0000
0000
0000
0000
0000
0000
0000
0000
0000
0000
0000
0000
0000
0000
0002
0000
0000
0000
0000
0000
0000
0000
0000
0000
0000
0000
0003
0000
0000
0000
0000
0000
0000
0000
0000
0000
0000
0000
0000
0000
0000
0000
0000
0000
0000
0000
0020
0000
0000
0000
0000
0000
0000
0000
0030
0000
0000
0000
0000
0000
0000
0000
,
0201
0000
0000
0000
0000
0000
0000
0000
0000
0000
0000
0000
0300
0000
0000
0000
0000
0000
0000
0000
0000
0000
0000
0000
0011
0000
0000
0000
0000
0000
0000
0000
0000
0000
0000
0000
0000
0000
0000
0000
0000
0000
0000
0000
0000
0000
0000
0000
1200
0000
0000
0000
0000
0000
0300
0000
0000
0000
0000
0000
0000
0000
0000
0000
0000
0000
0000
0000
0000
0000
0000
0000
0001
0000
0000
0000
0000
0000
0000
0000
0200
0000
0000
0000
0010
0000
0000
0000
0300
0000
0000
0000
0000
0000
0000
0000
0001
0000
0000
0000
0000
0000
0000
0000
0000
0000
0000
0000
0010
0000
0000
0000
0000
0000
0000
0000
0000
0000
0000
0000
0100
0000
0000
0000
0000
0000
0000
0000
0000
0000
0000
0000
1000
0000
0000
0000
0000
0000
0000
0000
0000
0000
0000
0000
0001
0000
0000
0000
0000
0000
0000
0000
0000
0000
0000
0000
0010
0000
0000
0000
0000
0000
0000
0000
0000
0000
0000
0000
0101
0000
0000
0000
0000
0000
0000
0000
0000
0000
0000
0000
0010
0000
0000
0000
0000
0000
0000
0000
0000
0000
0000
0000
,
2100
0000
0101
0000
0010
0000
0100
0001
0100
0001
0010
0000
3100
0001
0100
0001
,
1020
0000
1130
0000
0021
0000
1030
0100
1001
0100
0021
0030
1000
0010
0101
0010
,
2100
0000
0110
0000
0001
0000
0100
0010
0100
0010
0001
0000
3100
0010
0100
0010
,
1201
0300
0000
2011
3000
0100
1021
0030
0000
0211
0311
1011
,
1120
0000
0000
0000
0000
0000
0000
0000
0000
0000
0000
0000
1100
0000
0000
0000
0030
0000
0000
0000
0000
0000
0000
0000
1102
0000
0000
0000
0003
0000
0000
0000
0000
0000
0000
0000
1100
0000
0000
0011
0000
0000
1100
0000
0000
0011
0000
0000
,
1200
0000
0300
0000
0000
0000
0211
0000
0300
0000
0200
0000
0311
0000
0000
2000
0000
0000
0101
3000
0000
0010
0000
0000
,
1102
0000
0000
0000
0000
0000
1100
0000
0000
0000
0000
0000
1100
0000
0000
0000
0003
0000
1100
0000
0000
0000
0000
0000
1010
0000
0000
0100
0000
0000
0001
0000
0000
0100
0000
0000
0010
0000
0000
0100
0000
0000
0001
0000
0000
0100
0000
0000
,
1011
0100
0010
1001
0100
0010
1102
0000
0000
1100
1100
1100
,
1100
0000
0000
1100
0000
0000
1100
1103
0000
1101
1010
0101
,
2011
0000
0000
0011
0000
0000
0011
3000
0000
1101
1010
0101
,
2011
0000
0000
0011
0000
0000
0011
0011
0000
0011
3011
0011
,
1101
0010
1000
0101
0010
1000
0211
0000
0000
0011
0311
0011
,
1102
0000
0000
1100
0000
0000
1100
1100
0000
1100
1103
1100
,
1011
0100
0001
1010
0100
0001
1120
0000
0000
1100
1130
1100
,
1102
0000
0000
1100
0000
0000
1100
1100
0000
1100
1103
1100
,
1011
0000
0000
1011
0000
0000
1011
0000
0000
1011
0011
0011
,
1011
0000
0000
1011
0000
0000
1011
0011
0000
1011
0011
0011
,
1101
0000
0000
1101
0000
0000
1101
0000
0000
1101
1100
1100
,
1101
0000
0000
1101
0000
0000
1101
1100
0000
1101
1100
1100
,
1111
0000
0000
0000
,
0000
0000
0000
0100
,
0000
0000
0000
1000
0100
0000
0000
0010
0100
0000
0000
1000
0100
0000
0000
0000
,
0000
0000
0000
1000
0100
0000
0000
0001
0100
0000
0000
1000
0010
0000
0000
0000
,
1000
0001
0100
1000
,
0000
0000
0100
0000
0010
0000
1001
0001
,
0110
0000
0001
1100
0011
1000
1000
0001
0110
0000
0001
1100
0011
0000
1000
0000
,
1010
0000
0001
1100
0011
1000
1000
0001
0110
0000
0001
1100
1010
0000
0001
0000
,
1100
0000
0001
0100
0011
1000
1000
0000
1010
0000
0001
0100
1001
0000
1000
0000
,
0010
0000
0000
0000
0000
0000
0000
0000
0001
0000
0000
0000
0010
0000
0000
0000
0101
0000
0000
0000
1000
0000
0000
0000
1000
0000
0000
0000
0000
0000
0000
0000
1010
0000
0000
0000
0000
0000
0000
0000
0001
0000
0000
0000
0100
0000
0000
0000
1002
0000
0000
0000
0000
0100
0000
0000
0023
0030
0000
0000
0000
0000
0000
0000
,
1020
0000
0000
0000
0000
0000
0000
0000
0000
0000
0000
0000
0000
0000
0000
0000
0000
0000
0000
0000
0000
0000
0000
0000
0130
0000
0000
0000
0000
0000
0000
0000
0000
0000
0000
0000
0000
0000
0000
0000
0000
0000
0000
0000
0000
0000
0000
0000
1002
0000
0000
0000
0000
0000
0000
0000
0000
0000
0000
0000
0000
0000
0000
0000
0000
0000
0000
0000
0000
0000
0000
0000
0013
0000
0000
0000
0000
0000
0000
0000
0000
0000
0000
0000
0000
0000
0000
0000
0000
0000
0000
0000
0000
0000
0000
0000
1200
0000
0000
0000
0000
0000
0300
0000
0000
0000
0000
0000
1000
0000
0000
0000
0000
0000
0000
0000
0000
0000
0000
0000
0012
0000
0000
0000
0000
0000
0003
0000
0000
0000
0000
0000
1000
0000
0000
0000
0000
0000
0000
0000
0000
0000
0000
0000
0101
0000
0000
0000
0010
0000
0000
0000
0001
0000
0000
0000
1000
0000
0000
0000
0000
0000
0100
0000
0000
0000
0000
0000
0020
0000
0000
0030
0000
0000
0000
0000
0000
0000
0000
0000
0000
0000
0000
0000
0000
0000
0000
0000
0000
0000
0000
0000
,
1002
0000
0000
0000
0000
0000
0000
0000
0103
0000
0000
0000
0000
0000
0000
0000
0021
0000
0000
0000
0000
0000
0000
0000
0130
0000
0000
0000
0000
0000
0000
0000
2001
0000
0000
0000
3001
0000
0000
0000
0210
0000
0000
0000
0301
0000
0000
0000
1020
0000
0000
0000
0000
0001
0000
0000
0230
0300
0000
0000
0000
0000
0000
0000
,
1002
0000
0000
0000
0000
0000
0000
0000
0000
0000
0000
0000
0000
0000
0000
0000
0000
0000
0000
0000
0000
0000
0000
0000
0103
0000
0000
0000
0000
0000
0000
0000
0000
0000
0000
0000
0000
0000
0000
0000
0000
0000
0000
0000
0000
0000
0000
0000
2001
0000
0000
0000
0000
0000
0000
0000
0000
0000
0000
0000
0000
0000
0000
0000
0000
0000
0000
0000
0000
0000
0000
0000
3010
0000
0000
0000
0000
0000
0000
0000
0000
0000
0000
0000
0000
0000
0000
0000
0000
0000
0000
0000
0000
0000
0000
0000
0201
0000
0000
0000
0000
0000
0000
0000
0000
0000
0000
0000
0001
0000
0000
0000
0000
0000
0000
0000
0000
0000
0000
0000
1300
0000
0000
0000
0000
0000
0000
0000
0000
0000
0000
0000
0001
0000
0000
0000
0000
0000
0000
0000
0000
0000
0000
0000
1100
0000
0000
0000
0010
0000
0000
0000
0001
0000
0000
0000
0010
0000
0000
0000
0000
0000
1000
0000
0000
0000
0000
0000
0200
0000
0000
0300
0000
0000
0000
0000
0000
0000
0000
0000
0000
0000
0000
0000
0000
0000
0000
0000
0000
0000
0000
0000
,
1020
0000
0000
0000
0000
0000
0000
0000
0130
0000
0000
0000
0000
0000
0000
0000
0201
0000
0000
0000
0300
0000
0000
0000
2010
0000
3000
0000
0000
0000
0000
0000
1200
0000
0300
0000
1000
0000
0000
0000
0021
0000
0000
0000
1030
0000
0000
0000
1002
0000
0000
0000
0000
0100
0000
0000
0023
0030
0000
0000
0000
0000
0000
0000
,
1200
0000
0000
0000
0000
0000
0000
0000
0000
0000
0000
0000
0000
0000
0000
0000
0000
0000
0000
0000
0000
0000
0000
0000
0310
0000
0000
0000
0000
0000
0000
0000
0000
0000
0000
0000
0000
0000
0000
0000
0000
0000
0000
0000
0000
0000
0000
0000
0102
0000
0000
0000
0000
0000
0000
0000
0000
0000
0000
0000
0003
0000
0000
0000
0000
0000
0000
0000
0000
0000
0000
0000
2010
0000
0000
0000
0000
0000
3000
0000
0000
0000
0000
0000
0000
0000
0000
0000
0000
0000
0000
0000
0000
0000
0000
0000
0201
0000
0000
0000
0000
0000
0300
0000
0000
0000
0000
0000
0001
0000
0000
0000
0000
0000
0000
0000
0000
0000
0000
0000
1020
0000
0000
0000
0000
0000
0000
0000
0000
0000
0000
0000
0031
0000
0000
0000
0000
0000
0000
0000
0000
0000
0000
0000
1100
0000
0000
0000
0010
0000
0000
0000
0001
0000
0000
0000
0010
0000
0000
0000
0000
0000
0100
0000
0000
0000
0000
0000
2000
0000
0000
3000
0000
0000
0000
0000
0000
0000
0000
0000
0000
0000
0000
0000
0000
0000
0000
0000
0000
0000
0000
0000
,
0102
0000
0000
0000
0000
0000
0000
0000
0013
0000
0000
0000
0000
0000
0000
0000
1200
0000
0000
0000
0000
0000
0000
0000
0310
0000
0000
0000
0000
0000
0000
0000
2001
0000
0000
0000
3001
0000
0000
0000
0210
0000
0000
0000
0301
0000
0000
0000
2010
0000
0000
0000
0000
0100
0000
0000
3002
0003
0000
0000
0000
0000
0000
0000
,
1200
0000
0000
0000
0000
0000
0000
0000
0000
0000
0000
0000
0000
0000
0000
0000
0000
0000
0000
0000
0000
0000
0000
0000
0301
0000
0000
0000
0000
0000
0000
0000
0000
0000
0000
0000
0000
0000
0000
0000
0000
0000
0000
0000
0000
0000
0000
0000
1020
0000
0000
0000
0000
0000
0000
0000
0000
0000
0000
0000
0000
0000
0000
0000
0000
0000
0000
0000
0000
0000
0000
0000
0130
0000
0000
0000
0000
0000
0000
0000
0000
0000
0000
0000
0000
0000
0000
0000
0000
0000
0000
0000
0000
0000
0000
0000
1002
0000
0000
0000
0000
0000
0000
0000
0000
0000
0000
0000
1000
0000
0000
0000
0000
0000
0000
0000
0000
0000
0000
0000
0103
0000
0000
0000
0000
0000
0000
0000
0000
0000
0000
0000
1000
0000
0000
0000
0000
0000
0000
0000
0000
0000
0000
0000
0011
0000
0000
0000
0100
0000
0000
0000
1000
0000
0000
0000
0100
0000
0000
0000
0000
0000
0010
0000
0000
0000
0000
0000
0002
0000
0000
0003
0000
0000
0000
0000
0000
0000
0000
0000
0000
0000
0000
0000
0000
0000
0000
0000
0000
0000
0000
0000
,
1000
0000
0000
0000
0000
0000
0000
0000
0010
0000
0000
0000
0000
0000
0000
0000
0001
0000
0000
0000
0000
0000
0000
0000
0010
0000
0000
0000
0000
0000
0000
0000
1000
0000
0000
0000
1000
0000
0000
0000
0010
0000
0000
0000
1000
0000
0000
0000
0201
0000
0000
0000
0000
1000
0000
0000
0020
0030
0000
0000
0000
0000
0000
0000
,
0001
0000
0000
0000
0000
0000
0000
0000
0000
0000
0000
0000
0000
0000
0000
0000
0000
0000
0000
0000
0000
0000
0000
0000
0010
0000
0000
0000
0000
0000
0000
0000
0000
0000
0000
0000
0000
0000
0000
0000
0000
0000
0000
0000
0000
0000
0000
0000
1000
0000
0000
0000
0000
0000
0000
0000
0000
0000
0000
0000
0000
0000
0000
0000
0000
0000
0000
0000
0000
0000
0000
0000
0010
0000
0000
0000
0000
0000
0000
0000
0000
0000
0000
0000
0000
0000
0000
0000
0000
0000
0000
0000
0000
0000
0000
0000
0001
0000
0000
0000
0000
0000
0000
0000
0000
0000
0000
0000
0001
0000
0000
0000
0000
0000
0000
0000
0000
0000
0000
0000
0310
0000
0000
0000
0000
0000
0000
0000
0000
0000
0000
0000
0001
0000
0000
0000
0000
0000
0000
0000
0000
0000
0000
0000
2100
0000
0000
0000
0010
0000
0000
0000
0001
0000
0000
0000
0100
0000
0000
0000
0000
0000
0001
0000
0000
0000
0000
0000
0020
0000
0000
0030
0000
0000
0000
0000
0000
0000
0000
0000
0000
0000
0000
0000
0000
0000
0000
0000
0000
0000
0000
0000
,
0000
0000
0000
0000
,
0000
0000
3000
0001
1000
0001
1000
0001
1000
0001
1000
0001
1000
0001
1000
0010
,
0100
0010
0100
0010
0100
0010
0100
0010
0100
0010
0100
0010
1000
0001
0100
0010
,
1000
0001
0100
0010
1000
0001
0100
0010
1000
0001
0010
0100
1000
0001
0100
0010
,
1000
0001
0100
0010
1000
0001
0100
0010
1000
0001
0010
0100
0010
0010
0010
1000
,
0010
0010
0010
1000
0010
0010
0010
1000
0001
0001
0001
1000
0100
0100
0100
0001
,
0100
0100
0100
0001
0100
0100
0100
0001
1000
1000
1000
0010
0001
1000
0010
0100
,
0001
1000
0010
0100
0001
1000
0010
0100
0001
1000
0100
0010
0001
1000
0010
0100
,
0001
1000
0010
0100
0001
1000
0010
0100
0001
1000
0100
0010
1000
1000
1000
0010
,
1000
1000
1000
0010
1000
1000
1000
0010
0100
0100
0100
0010
0001
0001
0001
0100
,
0001
0001
0001
0100
0001
0001
0001
0100
0010
0010
0010
0100
1000
0001
0100
0010
,
1000
0001
0100
0010
1000
0001
0100
0010
1000
0001
0010
0100
1000
0001
0100
0010
,
1000
0001
0100
0010
1000
0001
0100
0010
1000
0001
0010
0100
0010
0010
0010
0100
,
0010
0010
0010
0100
0010
0010
0010
0100
0001
0001
0001
0010
1000
1000
1000
0001
,
1000
1000
1000
0001
1000
1000
1000
0001
0100
0100
0100
0010
0000
0000
0000
0000
,
0000
0000
0000
0000
,
0002
0000
0000
0000
0000
0000
0000
0003
,
0020
0000
0000
0000
0000
0000
0000
0030
,
0200
0000
0000
0000
0000
0000
0000
0300
,
2000
0000
0000
0000
0000
0000
0000
3000
,
0002
0000
0000
0000
0000
0000
0000
0003
,
0020
0000
0000
0000
0000
0000
0000
0030
,
0200
0000
0000
0000
0000
0000
0000
0300
,
2000
0000
0000
0000
0000
0000
0000
3000
,
1201
0300
0100
0200
0300
0002
0003
0020
,
0030
0000
2000
3000
0020
0000
0030
0000
2000
0000
3000
0000
0001
0100
0001
0100
,
2010
0000
3000
0000
0002
0000
0000
0000
0003
0000
0000
0000
0002
0000
0000
0000
0003
0000
0000
0000
2000
0000
3000
0000
0002
0000
0003
0000
2000
3000
0000
0000
,
1100
0010
0000
0010
0100
0000
0010
0000
0102
0003
2000
3000
0200
0000
0300
0000
,
1020
0030
0010
0020
1030
0002
0003
0020
,
0130
0000
0000
0000
0000
0000
2000
0000
0000
3000
0000
0000
0020
0000
0000
0000
0000
0000
0030
0000
0000
0000
0000
0000
2001
0000
0000
0000
0000
0000
3000
0000
0000
0000
0000
0000
0010
0000
0000
0000
0000
0000
0000
0000
0200
0000
0300
0000
,
2001
0000
3000
0000
0200
0000
0000
0000
0301
0000
0000
0000
0200
0000
0000
0000
0301
0000
0000
0000
2000
0000
3000
0000
0201
0000
0300
0000
2000
3000
0000
0000
,
0110
0001
1100
0001
1010
0100
0011
0000
1100
0001
1100
0001
1100
0001
1100
0001
,
1010
0100
0010
0001
1010
0100
0010
0001
1010
0100
0010
0001
1010
0100
0010
0001
,
0110
1000
0100
0001
0110
1000
0100
0001
0110
1000
0100
0001
0110
1000
0110
0001
,
1010
0100
0010
0001
1010
0100
0010
0001
1010
0100
0010
0001
1010
0100
0010
0001
,
0110
1000
0100
0001
0110
1000
0100
0001
1010
0000
1010
0000
1100
0001
1100
0001
,
1110
0000
0100
0000
1000
0010
0000
0000
1001
0000
0000
0010
1000
0000
0100
0000
,
1000
0000
0100
0000
1000
0010
0000
0000
1001
0000
0000
0010
1000
0000
1100
0000
,
0001
0000
1000
0000
0001
0100
0000
0000
0011
0000
0000
0100
0001
0000
1000
0000
,
0001
0000
1000
0000
0001
0100
0000
0000
0011
0000
0001
0100
0001
0000
1001
0000
,
1000
0000
0100
0000
1000
0010
0000
0000
1001
0000
0000
0010
1000
0000
0100
0000
,
1000
0000
0100
0000
1000
0010
0000
0000
1001
0000
0000
0010
1000
0000
1100
0000
,
0001
0000
1000
0000
0001
0100
0000
0000
0011
0000
0000
0100
0001
0000
1000
0000
,
0001
0000
1000
0000
0001
0100
0000
0000
0011
0000
0001
0100
0001
0010
1001
0010
,
0101
0010
0100
1000
0011
0100
1000
0010
0101
1000
0100
0010
1001
0010
0100
1000
,
0110
0001
0010
0100
1001
0010
0100
0001
1010
0100
0010
0001
1100
0001
1010
0100
,
1010
0001
0100
1000
0011
0100
1000
0001
0110
1000
0100
0001
1010
0001
0100
1000
,
0110
0001
0010
1000
0101
0010
1000
0001
0110
1000
0110
0001
1100
0001
0110
1000
,
0101
0010
0100
1000
0011
0100
1000
0010
0101
1000
0100
0010
1001
0010
0100
1000
,
0110
0001
0010
1000
0101
0010
1000
0001
0110
1000
0010
0001
1100
0001
0110
1000
,
0101
0010
0100
1000
0011
0100
1000
0010
0101
1000
0100
0010
1001
0010
0100
1000
,
0110
0001
0010
1000
0101
0010
1000
0001
1010
0100
1001
0010
1001
0100
0011
0100
,
1011
0000
1000
0100
0000
0010
0000
0001
0000
1000
0000
0100
0010
0000
0010
0000
,
0001
0000
0000
0000
0000
0000
1000
0000
0000
0100
0000
0000
0000
0000
0000
0010
0000
0000
0000
0000
0000
0001
0000
0000
0000
0000
0000
1000
0000
0000
0000
0000
0000
0100
0000
0000
0010
0000
0000
0000
0000
0000
1001
0000
0100
0000
0010
0000
,
0001
0000
0000
0010
0000
0000
0100
0000
0000
0010
1000
0100
0001
1000
0100
0010
,
0001
0000
0000
0010
0000
0000
0001
0100
0010
1000
0100
0010
0001
1000
0100
0001
,
0010
0000
0000
0100
0000
0001
1000
0010
0100
1000
0100
0001
0010
1000
0100
0010
,
0001
1000
0010
0001
0010
0100
1000
0001
0100
1000
0100
0001
0010
1000
0100
0001
,
0000
0000
0101
0000
0000
1010
0000
0000
0000
1100
0011
0000
0000
1010
0101
1010
,
0101
0000
0000
0110
0000
0000
1001
0000
0000
0000
1010
0000
0000
0000
0000
0000
,
0000
0000
1001
0000
0000
0110
0000
0000
0000
0101
1010
0000
0000
1100
0011
1100
,
0011
0000
0110
0000
0000
1010
0101
1010
0101
0000
1001
0110
1000
0000
0011
0000
,
2100
0000
0001
0000
0110
0000
0001
0010
0100
0010
0001
0000
0110
0000
0001
0000
,
0100
0000
0001
0000
0110
0000
0001
0010
0100
0010
0001
0000
0110
0000
3101
0000
,
1000
0000
0001
0000
1100
0000
0001
0010
1000
0010
0001
0000
1100
0000
0001
0010
,
1000
0010
0001
0000
1100
0000
0001
0010
1100
0001
1100
0001
1100
0001
1100
0001
,
1110
0000
0000
0100
1000
0000
0001
0000
1000
0000
0100
0000
1010
0000
0010
0000
,
1010
0000
0000
0100
1000
0000
0001
0000
1000
0000
0100
0000
1001
0000
1010
0000
,
0101
0000
0000
1000
0001
0000
0010
0000
0001
0000
1000
0000
0101
0000
0100
0000
,
0101
0000
0000
1000
0001
0000
0010
0000
0001
0000
1001
0000
0101
0000
0011
0000
,
1010
0000
0000
0100
1000
0000
0001
0000
1000
0000
0100
0000
1010
0000
0001
0000
,
1100
0000
0000
0001
1000
0000
0010
0000
1000
0000
0001
0000
1010
0000
1100
0000
,
0101
0000
0000
1000
0001
0000
0010
0000
0001
0000
0100
0000
0011
0000
1000
0000
,
0011
0000
0000
0100
0001
0000
1000
0000
0001
0000
0011
0000
0101
0010
1001
0010
,
0101
0000
0000
1000
0100
0000
0001
0000
0100
0000
0010
0000
1100
0000
0010
0000
,
0110
0010
1100
0001
0100
0010
1100
0110
,
0110
0000
0000
1000
0010
0000
0001
0000
0010
0000
0100
0000
1010
0000
0100
0000
,
0110
0000
0000
1000
0010
0000
0001
0000
0100
0010
0101
0010
1100
0010
0101
0010
,
1001
0000
0000
0100
1000
0000
0010
0000
1000
0000
0100
0000
1001
0100
1010
0100
,
1001
0000
0000
0010
1000
0000
0001
0000
1000
0000
0010
0000
1001
0100
1010
0100
,
1001
0000
0000
0100
1000
0000
0010
0000
1000
0100
0000
0000
1001
0000
0010
0000
,
1101
0000
0000
0001
1100
0000
0110
0000
1001
0000
1100
0000
1010
0000
1001
0000
,
1110
0101
1000
0110
0001
1010
0001
1100
,
1000
0110
1100
1010
0101
1010
0011
1101
,
1001
0110
1000
0101
1010
0100
1001
0110
,
1000
0000
0100
0001
1010
0001
0100
0001
1100
0010
1000
0010
1000
0100
1000
0100
,
1010
0101
1000
0011
1000
0110
0001
1100
,
0010
0101
1010
0101
0011
1100
0101
1011
,
1001
0110
1000
0101
1000
1100
0011
0110
,
1000
0000
1000
0000
1001
0000
1000
0000
0011
0100
0010
0000
0010
0100
0010
0100
,
1011
0101
1000
0011
1000
0110
0001
1100
,
0010
1100
0101
0011
1001
0110
1010
1101
,
0011
1100
0010
0101
1010
0100
0011
1100
,
0010
0000
0101
1000
0011
1000
0110
1000
0011
0100
1001
0100
0001
0010
0001
0010
,
1100
0011
1000
0110
1000
0101
0010
1100
,
0010
0011
1100
0011
1010
0101
1100
1011
,
0110
0000
1000
0000
0110
0000
1000
0000
0101
0000
1100
0001
0100
0000
1110
0000
,
0011
0000
0000
1100
0000
0000
0011
0000
0000
1100
0000
0000
0011
0100
0010
0100
,
1011
0000
0000
0000
0001
1000
0001
0010
,
0000
0100
0000
1000
0000
0010
0000
0100
,
1000
0000
0100
0000
,
1000
0000
0100
0000
0010
0001
0000
0010
,
0110
1000
0000
0010
1000
0000
0000
0010
,
0000
0010
1000
0000
0010
1000
0000
0100
,
0020
0030
0000
0001
0000
0100
0020
0030
,
0001
0000
0101
0000
0001
0000
0101
0000
0001
0010
1001
0000
0201
0010
0301
0010
,
1102
0000
0013
0000
2101
0000
3010
0000
1002
0003
0120
0000
1001
0000
0100
0000
,
1000
0100
1001
0100
1000
0130
1001
1102
,
1000
0000
0103
0000
1021
0000
0130
0000
1002
0000
0013
0000
1201
0300
2011
0000
,
0001
0010
0101
0010
3001
0210
1001
0311
,
0101
0000
0000
0010
1000
0000
0100
0000
0001
0010
0000
0000
0101
0000
0000
0010
1000
0000
0100
0000
0001
0010
0000
0000
,
1100
0000
0000
0001
0010
0000
1000
0000
0001
0100
0000
0000
1010
0000
0000
0001
0100
0000
1000
0000
0001
1010
0000
0000
,
1100
0000
0000
0010
0001
0000
1000
0000
0100
0010
0000
0000
1001
0000
0010
0001
0100
0000
1010
0000
0100
0001
0010
0000
,
1001
0000
1010
0000
1001
0000
1010
0000
0100
0001
0110
0000
0100
0001
0100
0001
,
1010
0000
0000
0000
0100
0010
0000
0000
1001
0000
0000
0000
0010
0100
0000
0000
1000
0000
0000
0000
0100
0010
0000
0000
1001
0000
0000
0000
0010
0100
0000
0000
,
1000
0000
0000
0000
0001
0100
0010
0000
1001
0000
0100
0000
1000
0001
0010
0000
0100
0000
1000
0000
0100
0010
0001
0000
1010
0000
0100
0000
0010
0001
0100
0000
,
1000
0000
0000
0000
0100
0010
0000
0000
1001
0000
0000
0000
0010
0100
0000
0000
1000
0000
0000
0000
0100
0010
0000
0000
1001
0000
0000
0000
0010
0100
0000
0000
,
1000
0000
0000
0000
0001
0100
0010
0000
1001
0000
0100
0000
1000
0001
0010
0000
0100
0000
1000
0000
0100
0010
0001
0000
1010
0000
0100
0000
0010
0001
0100
0000
,
1000
0000
0000
0000
0100
0010
0000
0000
1001
0000
0000
0000
0010
0100
0000
0000
1000
0000
0000
0000
0100
0010
0000
0000
1001
0000
0000
0000
0010
0100
0000
0000
,
1000
0000
0000
0000
0001
0100
0010
0000
1001
0000
0100
0000
1000
0001
0010
0000
0100
0000
1000
0000
0100
0010
0001
0000
1010
0000
0100
0000
0010
0001
0100
0000
,
1000
0010
0100
0001
0100
0010
1000
0000
0001
0100
0010
1000
0010
0100
0001
0100
,
0000
0110
0110
0000
,
0000
0000
0000
0000
0000
0000
0000
0000
0000
0000
0000
0000
0000
0000
0000
0000
0000
1000
0000
0000
0000
0000
0000
0000
0000
0000
0000
0000
0000
0100
0000
0000
0000
0000
0000
0000
0000
0000
0000
0010
0000
0000
0000
0000
0000
0000
0000
0000
0000
0001
0000
0000
0000
0000
0000
0000
0000
0000
0000
0000
0000
0000
0000
0010
,
0000
0000
0000
0000
0000
0000
0000
0000
0000
0000
0000
0000
0000
0000
0000
0000
0000
0000
0000
1000
0000
0000
0100
0000
,
0000
0010
0000
0000
0001
0000
0000
0010
0000
0000
0001
0000
0000
0100
0000
0000
0000
0000
0000
0000
0000
0000
0000
0000
,
0000
0000
0000
0000
0000
0000
0000
0000
0000
0000
0000
0000
0000
0000
0000
0000
0000
0000
0000
0000
0000
0000
0000
0000
0000
0000
0000
0000
0000
0000
0000
0000
0000
0000
0000
0000
0000
0000
0000
0000
0000
0000
0000
0000
0000
0000
0000
0000
0000
0000
0000
0000
0000
0000
0000
0000
0000
0000
0000
0000
0000
0010
0000
0000
,
0000
0000
0000
0000
0000
0001
0000
0000
0000
0000
0000
0000
0000
0000
0000
0000
0000
0000
0000
0000
0000
0010
0000
0000
0000
0000
0000
0000
0000
0000
0000
0000
0000
0000
0000
0000
0000
0100
0000
0000
0000
0000
0000
0000
0000
0000
0000
0000
0000
0000
0000
0000
0000
0000
0000
0000
0000
0000
0000
0000
0000
0000
0000
0000
,
0000
0000
0000
0000
0000
0000
0000
0000
0000
0000
0000
0000
0000
0000
0000
0000
0000
0000
0000
0000
0000
0000
0000
0000
0000
0000
0000
0000
0000
0000
0000
0000
0000
0000
0000
0000
0000
0000
0000
0000
0000
0000
0000
0000
0000
0000
0000
0000
0000
0001
0000
0000
0000
0000
0000
0000
0000
0000
0000
0010
0000
0000
0000
0000
,
0000
0000
0000
0000
0000
0001
0000
0000
0000
0000
0000
0000
0000
0000
0000
0000
0000
0000
0000
0000
0000
0010
0000
0000
0000
0000
0000
0000
0000
0000
0000
0000
0000
0000
0000
0000
0000
0100
0000
0000
0000
0000
0000
0000
0000
0000
0000
0000
0000
0000
0000
0000
0000
0000
0000
0000
0000
0000
0000
0000
0000
0000
0000
0000
,
0000
0000
0000
0000
0000
0000
0000
0000
0000
0000
0000
0000
0000
0000
0000
0000
0000
0000
0000
0000
0000
0010
0000
0000
0000
0000
0000
0000
0000
0000
0000
0000
0000
0000
0000
0100
0000
0000
0000
0000
0000
0000
0000
0000
0000
0000
0000
0000
0000
0000
0000
0000
0000
0000
0000
0000
0000
0000
0000
0000
0000
0000
0000
0000
,
0000
0000
1000
0100
0010
0000
0001
0000
,
0010
0000
0000
0000
0000
0000
1000
0100
,
0010
0001
0010
0001
1000
0000
0000
0000
,
0000
0000
0000
0000
0000
0000
0000
0100
,
0010
0100
1000
0000
,
0000
0000
0000
0000
0000
0000
0010
0100
,
0010
0100
1000
0000
,
0002
0000
0100
0000
1000
0100
0013
0000
,
1011
0000
1100
1000
1010
0000
1000
1000
,
1000
0000
1000
1000
1000
1000
1001
1010
,
1001
0000
1100
1000
1010
0000
1000
1000
,
1000
0000
1001
1000
1010
1000
1000
1000
,
0101
0000
0011
0001
1001
0000
0001
0001
,
0001
0000
0001
0001
0001
0001
0101
1001
,
0101
0000
0011
0001
1001
0000
0001
0001
,
0001
0000
0101
0001
1001
0001
0001
0001
,
0100
0000
1100
0110
0101
0000
0110
0100
,
0101
0000
0110
0100
1100
0100
0100
0100
,
0010
0000
1010
0110
0011
0000
0110
0010
,
0011
0000
1010
0010
0011
0010
1010
0110
,
0101
0000
1010
1001
1000
0000
0100
0100
,
0100
0000
0010
0010
0001
0001
0001
0001
,
0200
0000
0000
0000
0000
0000
0000
0300
,
1011
1001
0000
0000
1011
1001
0000
0000
,
1012
0000
0100
0010
0100
0000
0010
0100
,
0010
0000
0100
0010
0100
0010
0103
0010
,
2100
0000
0010
0100
0010
0000
0100
0010
,
0100
0000
0010
0100
0010
0100
3010
0100
,
0012
0000
0100
0010
0100
0000
0010
0100
,
0010
0000
0100
0010
0100
0010
0103
0010
,
2100
0000
0010
0100
0010
0000
3100
0010
,
1000
0000
0100
0000
,
0001
0000
0010
0100
,
0010
0000
0000
1000
0000
0000
0010
0000
,
0001
0000
0001
0010
,
0100
0000
0000
1000
0000
0000
0100
0000
,
1010
0000
1000
0001
1000
0000
1010
0000
,
1001
0000
1000
0010
1001
0000
1010
0001
,
1010
1001
1010
1100
,
1010
0000
0001
1000
0010
0000
1100
0000
0000
1010
0000
0000
,
1011
1011
0000
1110
1110
0000
1011
1011
,
0000
1110
1110
1000
0011
1000
0110
1000
,
1101
0010
0101
0010
1100
0010
0101
0010
,
1100
0010
0101
0010
1100
0010
0101
0010
,
1100
0010
0101
0010
1100
0010
0101
0010
,
1101
1101
0010
1101
1101
0010
1101
1101
,
0011
0100
0001
1000
0101
0000
0011
0100
,
0001
1000
0101
0000
0011
1000
0101
0010
,
0011
0100
0010
1000
0110
0000
0011
0100
,
0010
1000
0110
0000
0011
1000
0011
1000
,
0101
0010
0100
1000
0110
0000
0101
0010
,
0100
1000
0110
1000
0101
0010
1100
0010
,
1001
0010
1000
0100
1010
0000
1001
0010
,
1000
0100
1010
0000
1001
0010
1001
0010
,
1001
0010
1000
0100
1010
0000
1001
0010
,
1000
0100
1010
0000
1001
0100
1010
0001
,
0101
0010
0100
1000
0110
0000
0101
0010
,
0100
1000
0110
0000
0101
1000
0101
1000
,
0011
0100
0010
1000
0110
0000
0011
0100
,
0010
1000
0110
1000
0011
0100
1010
0100
,
0011
0100
0001
1000
0101
0000
0011
0100
,
0001
1000
0101
1000
0011
0100
0011
0100
,
1011
1000
0010
0100
0011
0000
0110
1000
,
0110
0001
0010
1000
0010
1000
1010
0000
,
0110
0010
0100
0001
1100
0000
0110
1000
,
0110
0001
0100
0001
0100
0001
0101
0000
,
1001
1000
0001
0100
0011
0000
0101
1000
,
0101
0010
0001
1000
0001
0000
0001
0000
,
1010
0010
1000
0001
1010
0000
1010
0100
,
1001
0010
1001
0100
1000
0000
1000
0000
,
0011
0000
0101
0010
1001
0000
0011
0100
,
1001
0000
0101
0000
0011
0000
1001
0100
,
0011
0000
0000
0000
0000
0000
0110
0000
0000
0001
0000
0000
1010
0000
0000
0000
0001
0000
0010
0000
0100
0000
0000
0000
,
0011
0010
0110
1010
,
0101
0000
0000
0000
0000
0000
0110
0000
0000
1000
0000
0000
0101
0000
0000
0000
0010
0000
0100
0000
0001
0000
0000
0000
,
1100
0000
0000
0000
0000
0000
0101
0000
0000
0010
0000
0000
1100
0000
0000
0000
0010
0000
0100
0000
0001
0000
0000
0000
,
1010
0000
0001
1000
0010
0000
1001
0000
0010
1000
0001
0000
,
1110
1100
0010
1100
1110
0000
1110
1100
,
1011
0000
1001
0100
0001
0100
0101
0000
,
1001
0000
1001
0100
0001
0100
0101
0000
,
1001
0000
1001
0100
0001
0100
0101
0000
,
1001
0000
1001
0100
0001
0101
0101
0001
,
1010
0000
1010
0001
1000
0001
1001
0000
,
1010
0000
1010
0001
1000
0001
1001
0000
,
1010
0000
1010
0001
1000
0001
1001
0000
,
1010
0000
1010
0001
1100
1101
1101
1100
,
1102
0003
0010
0200
1001
0000
0010
0000
,
1000
0010
0001
0000
1310
0000
0001
0100
,
1002
0003
1000
0200
1001
0000
0010
0000
,
1000
0010
0001
0000
1310
0000
0001
0100
,
0001
0010
1000
0100
0012
0000
0003
0000
1201
0000
0000
0000
0010
0000
0000
0000
,
1000
0010
0001
0000
1310
0000
0001
0100
,
1010
0000
0001
0100
0010
1000
0100
0010
0001
0100
0010
1000
0001
0010
0100
1000
,
0011
0000
0100
0010
1001
0100
0010
0001
1100
0001
0010
0100
1001
0010
0100
0010
,
1001
0010
1101
0010
1001
0010
1101
0010
,
1001
0010
1101
0010
1001
0010
1101
0010
,
1001
0010
1101
0010
1001
0010
1101
0010
,
1001
0010
1101
0010
1001
0010
1101
0010
,
1102
1100
1100
1100
,
1103
0000
1110
0001
1110
0001
1110
0001
,
1110
0001
0110
1000
0011
1000
0101
0010
,
1001
0100
1001
0010
0101
1000
0110
0001
,
1100
1100
0011
0011
1100
0000
1100
1100
,
0011
0011
1100
0000
0011
0011
1100
0011
,
1100
1100
0011
0011
1100
0000
1100
1100
,
0011
0011
1100
0000
0011
0011
1100
0011
,
1001
0110
1001
0110
1100
0011
1100
0011
,
1100
0000
0101
1010
0101
0000
1001
0110
,
1001
0000
0000
0000
1100
0000
0011
0000
1000
0100
0010
0001
1000
0100
0010
0001
,
0010
0000
0000
0000
1000
0000
0000
0000
0010
0100
1000
0100
0010
0000
0001
0000
,
0100
0000
0000
0000
1000
0010
0100
0010
0001
0000
0000
0000
0010
0000
0000
0000
,
1000
0000
0010
0000
0100
0001
0100
0000
,
1000
0100
0010
0001
0110
0000
0000
0000
1000
0000
0000
0000
0010
0100
0001
1000
,
0100
0000
0001
0000
0010
0000
0000
0000
1000
0010
0100
0001
0010
0000
0000
0000
,
0100
0001
0010
0000
0100
0000
1000
0100
,
0001
0000
0000
0000
0010
0100
1000
0001
0100
0010
0001
0100
1000
0010
0100
0001
,
0000
0000
0000
0000
0010
0000
0000
0000
0100
0010
0001
0010
1000
0000
0100
0000
,
0010
0001
0100
0010
1000
0000
0000
0000
0001
0000
0000
0000
0010
0100
1000
0001
,
0100
0000
0010
0000
0001
0100
1000
0100
0010
0000
0000
0000
1000
0000
0000
0000
,
0010
0001
0100
1000
0020
0000
0000
0000
0000
0000
0000
0000
0000
0000
0030
0000
,
0200
0000
0000
0000
0000
0300
2000
0000
,
0000
0000
3000
0000
0010
1000
0100
0001
1010
0000
0000
0000
0001
0000
0000
0000
,
0000
0010
0100
1000
0001
0000
1000
0000
,
0100
0000
0010
0000
0001
0000
0010
0100
,
1000
0010
0100
0001
,
0100
M0M0
000M
0M00
0001
M0M0
0100
0000
,
0001
0100
1000
0100
,
0001
0000
0010
0100
1000
0000
0010
M00M
,
0100
0001
0020
0000
,
0030
2000
0000
3000
,
0M01
M000
00M0
0000
0100
0010
0001
0000
,
0010
0100
100M
00M0
0001
0000
0000
0000
,
0000
0000
0000
0000
1000
00M0
0M0M
00M0
,
1000
0000
0100
0010
M001
0000
0010
010M
,
1000
0001
0010
0000
0000
0M00
000M
M000
,
00M0
0000
0100
0000
0100
000M
00M0
0M0M
,
M0M0
0M00
M000
0000
0010
0100
0010
0000
,
M000
0M00
M0M0
0M0M
00M0
000M
0000
0000
,
0010
1000
0010
1000
0010
100M
0010
1M00
,
0010
100M
0010
1000
0010
1000
0001
01M0
,
0001
M100
0001
01M0
0001
M100
0001
01M0
,
0000
0000
M000
0000
0000
0000
0M00
0000
0000
0000
M0M0
0000
000M
0M00
0000
0000
00M0
000M
0000
0000
0000
0000
0000
0000
0000
0000
0M00
M000
000M
00M0
0000
0M00
,
0000
0000
0000
0000
0000
0000
00M0
0000
0000
0000
0000
0000
0M00
0000
0000
0000
000M
0000
0000
0000
0000
0000
0000
0000
00M0
0000
0000
0000
0000
0000
0000
0000
0000
0000
0000
0000
0000
0000
0000
0000
0000
0000
000M
0000
0000
0000
0000
0000
0000
0000
0000
0000
0000
0000
0000
0000
0000
0000
0000
0000
0000
0000
0000
0000
0000
0000
0000
0000
0000
0000
0000
0000
000M
0000
0000
0000
0000
0000
0000
0000
0000
0000
0000
0000
0000
0000
0000
0000
0000
0000
0000
0000
0000
0000
0000
0000
0000
0000
0000
0000
0000
0000
0000
0000
0000
0000
0000
0000
0000
0000
0000
0000
0000
0000
0000
0000
0000
0000
0000
0000
0000
0000
0000
0000
0000
0000
0000
0000
0000
0000
0000
0000
000M
0000
0000
0000
0000
0000
0000
0000
0000
0000
0000
0000
00M0
0000
0000
0000
0000
0000
0000
0000
0000
0000
0000
0000
MM00
0000
0000
0000
0000
0000
0000
0000
0000
0000
0000
0000
0000
0000
0000
0000
0000
0000
0000
0000
0000
0000
0000
0000
0M00
0000
0000
0000
000M
0000
0000
0000
0000
0000
0000
0000
,
0000
0000
0000
0000
0000
0000
0000
0000
00M0
0000
0000
0000
0000
0000
0000
0000
M000
0000
0000
0000
0000
0000
0000
0000
0M00
0000
0000
0000
0000
0000
0000
0000
0000
0000
0000
0000
0000
0000
0000
0000
00M0
0000
0000
0000
0000
0000
0000
0000
000M
0000
0000
0000
0000
0000
0000
0000
0000
0000
0000
0000
0000
0000
0000
0000
0000
0000
0000
0000
0000
0000
0000
0000
0000
0000
0000
0000
0000
0000
0000
0000
0000
0000
0000
0000
0000
0000
0000
0000
0000
0000
0000
0000
0000
0000
0000
0000
0000
0000
0000
0000
0000
0000
0000
0000
0000
0000
0000
0000
000M
0000
0000
0000
0000
0000
0000
0000
0000
0000
0000
0000
00M0
0000
0000
0000
0000
0000
0000
0000
000M
0000
0000
0000
0000
0000
0000
0000
0000
0000
0MM0
0000
0000
0000
0000
0000
0000
0000
0000
0000
0000
0000
0000
0000
0000
0000
0000
0000
00M0
0000
0000
0000
0M00
0000
0000
0000
0000
0000
0000
0000
0000
0000
0000
0000
M000
0000
0000
0000
0000
0000
0000
0000
0M00
0000
0000
0000
0000
0000
0000
0000
0000
0000
0000
0000
,
M000
0000
0000
M000
0000
0000
0000
0000
0000
0000
00M0
0000
0000
0000
0000
0000
00M0
0000
0000
0000
0000
00M0
0000
0000
00M0
0000
0000
00M0
0000
0000
00M0
0000
00M0
0000
00M0
0000
00M0
0000
00M0
0000
00M0
0000
00M0
0000
00M0
0000
00M0
0000
,
00M0
0000
0000
0000
0000
0000
00M0
0000
0000
0000
0000
0000
00M0
0000
0000
0000
0000
0000
00M0
0000
0000
0000
0000
0000
00M0
0000
0000
0000
0000
0000
00M0
0000
0000
0000
0000
0000
00M0
0000
0000
0000
0000
0000
00M0
0000
0000
0000
0000
0000
0M00
0000
0000
0000
0000
0000
000M
0000
00M0
0000
0000
0000
0000
0000
0000
0000
0000
0000
0M00
0000
00M0
0000
0000
0000
M000
0000
0000
0000
0000
0000
0M00
0000
0000
0000
0000
0000
M000
0000
0000
0000
0000
0000
0000
0000
0000
0000
0000
0000
M000
0000
0000
0000
0M00
0000
00M0
0000
0000
0000
0000
0000
0M00
0000
0000
0000
0000
0000
0000
0000
0000
0000
0000
0000
00M0
0000
0000
0000
0000
0000
0000
0000
000M
0000
0000
0000
0000
0000
0000
000M
0000
0000
0000
0000
0000
0000
0000
0000
00M0
0000
0000
0000
0000
0000
0000
0000
0M00
0000
0000
0000
0000
0000
0000
0000
0MM0
0000
0000
0000
0000
0000
0000
0000
00M0
0000
0000
0000
0000
0000
0000
0000
0000
0000
0000
0000
000M
0000
0000
0000
00M0
0000
0000
0000
0000
0000
0000
0000
,
0M0M
0000
0000
0000
000M
0000
0000
0000
00MM
0000
0000
0000
000M
0000
0000
0000
000M
0000
0000
0000
000M
0000
0000
0000
000M
0000
0000
00M0
0000
0000
000M
0000
0000
0000
0000
0000
000M
0000
0000
0000
0000
0000
000M
0000
0000
0000
0000
0000
000M
0000
0000
0000
0000
0000
0000
0000
000M
0000
0000
0000
0000
0000
0000
0000
000M
0000
0000
0000
0000
0000
0000
0000
000M
0000
0000
0000
0000
0000
0000
0000
0000
0000
0000
0000
000M
0000
0000
0000
0000
0000
0000
0000
0000
0000
0000
0000
0000
0000
0000
0000
0000
0000
0000
0000
0000
0000
0000
0000
000M
0000
0000
0000
0000
0000
0000
0000
0000
0000
0000
0000
0000
0000
0000
0000
0000
0000
0000
0000
0000
0000
0000
0000
0000
0000
0000
0000
0000
0000
0000
0000
0000
0000
0000
0000
0000
0000
0000
0000
0000
0000
0000
0000
0000
0000
0000
0000
0000
0000
0000
0000
0000
0000
0000
0000
0000
0000
0000
0000
0000
0000
0000
0000
0000
0000
0000
0000
0000
0000
0000
0000
0000
0000
0000
0000
0000
0000
0000
0000
0000
0000
0000
0000
,
0000
0000
0000
0000
0000
0000
0000
0000
0000
0000
0000
0000
0000
000M
000M
000M
,
000M
0000
0000
0000
0000
0000
0000
0000
000M
0000
0000
0000
0000
0000
0000
0000
000M
0000
0000
0000
0000
0000
0000
0000
000M
0000
0000
0000
0000
0000
0000
0000
000M
0000
0000
0000
0000
0000
0000
0000
000M
0000
0000
0000
0000
0000
0000
0000
00M0
0000
0000
0000
0000
0000
0000
0000
000M
0000
0000
0000
00M0
0000
0000
0000
0000
0000
0M00
0000
0000
0000
0000
0000
0000
0000
0000
0000
00M0
0000
0000
0000
0000
0000
0000
0000
0M00
0000
0000
0000
0000
0000
0000
0000
0000
0000
0000
0000
M000
0000
0000
0000
00M0
0000
0000
0000
0000
0000
0000
0000
0000
0000
0000
0000
0M00
0000
0000
0000
0000
0000
0000
0000
0000
0000
0000
0000
M000
0000
0000
0000
0000
0000
0000
0000
0000
0000
0000
0000
M000
0000
0000
0000
0000
0000
0000
0000
0000
0000
0000
0000
0000
0000
0000
0000
M000
0000
0000
0000
0000
0000
0000
0000
M000
0000
0000
0000
0000
0000
0000
0000
M000
0000
0000
0000
0000
0000
0000
0000
M000
0000
0000
0000
0000
0000
0000
0000
M000
0000
0000
0000
0000
0000
0000
0000
,
M000
0000
0000
0000
0000
0000
M000
0000
0000
0000
0000
0000
M000
0000
0000
0000
M000
0000
0000
0000
M000
0000
0000
0000
M000
0000
0000
0000
M000
0000
0000
0000
M000
0000
0000
0000
M000
0000
0000
0000
0000
0000
M000
0000
0000
0000
0000
0000
M000
0000
0000
0000
0000
0000
0000
0000
M000
0000
0000
0000
0000
0000
0000
0000
M000
0000
0000
0000
0000
0000
0000
0000
M000
0000
0000
0000
0000
0000
0000
0000
M000
0000
0000
0000
0000
0000
0000
0000
0000
0000
0000
0000
0000
0000
0000
0000
M000
0000
0000
0000
0000
0000
0000
0000
0000
0000
0000
0000
M000
0000
0000
0000
0000
0000
0000
0000
0000
0000
0000
0000
0M00
0000
0000
0000
0000
0000
0000
0000
M000
0000
0000
0000
0M00
0000
0000
0000
0000
0000
0000
0000
0000
0000
0000
0000
M0M0
0000
0000
0000
0000
0000
0M00
0000
0000
0000
0000
0000
00M0
0000
0000
0000
0000
0000
000M
0000
0M00
0000
0000
0000
0000
0000
0000
0000
0000
0000
0000
0000
0000
000M
0000
0000
00M0
0000
0000
0000
0000
0000
0000
0000
0000
0000
0000
0000
,
0M0M
0000
0000
0000
000M
00M0
0000
0000
000M
0000
00M0
0000
000M
0000
000M
0000
000M
0000
000M
0000
000M
0000
000M
0000
0200
0000
0000
0000
0000
0000
0000
0000
0000
0000
0000
0000
0000
0000
0000
0000
0000
0000
0000
0000
0000
0000
0000
0000
,
0300
0000
0000
0000
0000
0000
0000
0000
M0M0
0000
0M0M
0000
0000
0000
0000
0010
0000
0000
0000
0000
0000
0000
0000
1000
0000
0000
0000
0000
0000
0000
0000
0010
,
0000
0000
0000
0000
0000
0000
0000
0001
0000
0000
0000
0000
0000
0000
0000
0100
0000
0000
0000
0000
0000
0000
0000
0010
0000
0000
0000
0000
0000
0000
0000
1000
,
0000
0000
0000
0000
0000
0000
0000
0100
0000
0000
0000
0000
0000
0000
0000
0001
0000
0000
0000
0000
0000
0000
0000
0020
0000
0000
0000
0000
0000
0000
0000
0000
,
0000
0000
0000
0000
,
0000
0000
0000
0000
0000
0000
0000
0000
0000
0030
0000
0000
1100
0000
0001
0000
0100
0000
1010
0000
0001
0000
0010
0000
,
1100
0001
0010
1001
0100
0010
1100
0001
0100
1010
0001
0010
,
1100
0001
1010
1100
0110
0011
1001
0010
0100
1000
0001
0010
,
1001
0100
0010
1000
0100
0010
1001
0010
0100
1000
0100
0001
,
0110
1001
1100
0011
1010
0101
1100
0001
0100
1010
0001
0010
,
1100
0001
0010
1001
0100
0010
1100
0001
0100
1010
0001
0010
,
1100
0001
1010
0101
1100
0011
1001
0010
0100
1000
0001
0010
,
1100
0010
0001
1000
0100
0010
1001
0010
0100
1000
0100
0010
,
1001
0110
1100
1010
0101
0011
1001
0010
0100
1000
0001
0010
,
0100
0000
0000
0000
0000
0000
0001
0010
0100
1000
0010
0100
,
1000
0000
0000
0000
0000
0000
0001
0010
0100
0001
0010
0100
,
1000
0000
0000
0000
,
0000
0000
0000
0000
0000
0000
0001
0010
0100
1000
0001
0010
,
0100
0000
0000
0000
0000
0000
0001
0010
0100
1000
0010
0100
,
1000
0000
0000
0000
0000
0001
0010
0100
0000
0001
0010
0100
,
1000
0000
0000
0000
,
0000
0000
0000
0000
,
0000
0000
0000
0200
,
0000
0300
1001
0010
1100
0010
0101
1000
,
0011
0100
1001
0010
1100
0010
0101
1000
,
0011
0100
1001
0010
1100
0010
0101
1000
,
0011
0100
1001
0010
1100
0010
0101
1000
,
0011
0100
2010
0100
3001
0010
0101
1000
,
0110
1000
0011
0100
1001
0010
1100
0010
,
1001
0100
0011
0100
1020
0001
1030
0100
,
0011
0100
1001
0010
1100
0010
0101
1000
,
0011
1000
0120
0000
0100
0000
0100
0030
,
1001
0210
0010
0310
,
1001
0000
0120
0000
0100
0000
0100
0030
,
1001
0210
0010
0310
,
1001
0100
0010
1002
0000
0000
1000
0000
0000
1003
0000
0000
,
0110
2001
0001
3001
,
0110
1002
1000
1003
,
0110
2001
0001
3001
,
0110
0000
1000
0000
0001
0000
0120
0000
0000
0000
0000
0000
0100
0000
0000
0000
0000
0000
0100
0000
0000
0030
0000
0000
,
1001
0210
0010
0310
,
1001
0000
0120
0000
0100
0000
0100
0030
,
1001
0210
0010
0310
,
1001
0100
0010
1002
0000
0000
1000
0000
0000
1003
0000
0000
,
0110
2001
0001
3001
,
0110
1002
1000
1003
,
0110
0000
2001
0100
0001
0100
0001
0100
,
3001
0100
1011
0100
1010
0100
0011
1000
,
0011
1000
0101
0010
0101
0010
1100
0001
,
1100
0001
1010
0100
1010
0100
0011
1000
,
0011
1000
0101
0010
0101
0010
1100
0001
,
1100
0001
1010
0100
1010
0100
0011
1000
,
0011
1000
0101
0010
0101
0010
1100
0001
,
1100
0001
1010
0100
1010
0100
0011
1000
,
0011
1000
0101
0010
0101
0010
1100
0001
,
1100
0001
1010
0100
1010
0100
0011
1000
,
0011
1000
0101
0010
0101
0010
1100
0001
,
1100
0001
1010
0100
1010
0100
0011
1000
,
0011
1000
0101
0010
0101
0010
1100
0001
,
1100
0001
0010
1000
0010
1000
0100
0001
,
0010
1000
0001
0100
0001
0100
0010
1000
,
0010
1000
0100
0001
0010
1000
0001
0100
,
0001
0100
1000
0010
1000
0010
0100
0001
,
0010
1000
0100
0001
0100
0001
1000
0010
,
1000
0010
0100
0001
0010
1000
0100
0001
,
0100
0001
0010
0100
0010
0100
0001
1000
,
0100
0010
0001
1000
0001
1000
0010
0100
,
0010
0100
0001
1000
0100
0010
0001
1000
,
0001
1000
0100
0010
0100
0010
1000
0001
,
0010
0100
1000
0001
1000
0001
0010
1000
,
0010
1000
0100
0010
0001
1000
0010
0100
,
0010
0100
2001
0010
0001
0010
0100
0001
,
0100
0001
0010
0001
0010
0001
0100
0010
,
0100
0010
0001
0010
0001
0010
0100
0001
,
0100
0001
0010
0001
0010
0001
0100
0010
,
3100
0010
1002
0100
1000
0100
0010
1000
,
0010
1000
0100
1000
0100
1000
0010
0100
,
0010
0100
1000
0100
1000
0100
0010
1000
,
0010
1000
0100
1000
0100
1000
0010
0100
,
0013
0100
2001
0010
0001
0010
0100
0001
,
0100
0001
0010
0001
0010
0001
0100
0010
,
0100
0010
0001
0010
0001
0010
0100
0001
,
0100
0001
0010
0001
0010
0001
0100
0010
,
3100
0010
1002
0100
1000
0100
0010
1000
,
0010
1000
0100
1000
0100
1000
0010
0100
,
0010
0100
1000
0100
1000
0100
0010
1000
,
0013
1000
0001
0100
0001
0100
0001
0100
,
0001
0100
1012
0000
0100
1000
0110
0000
,
1000
0010
1100
0000
0010
1000
0110
0000
,
1000
0100
1010
0000
0100
1000
0110
0000
,
1000
0010
1100
0000
0010
1000
0110
0000
,
1003
0010
2101
0000
0010
0001
0110
0000
,
0001
0100
0011
0000
0100
0001
0110
0000
,
0001
0010
0101
0000
0010
0001
0110
0000
,
0001
0100
0011
0000
0100
0001
0110
0000
,
3001
0010
1102
0000
0010
1000
0110
0000
,
1000
0010
1100
0000
0010
0100
1010
0000
,
0100
0010
1100
0000
0010
1000
0110
0000
,
1003
0100
1021
0030
0100
0010
1201
0300
,
0010
0100
2011
0000
0100
0001
0110
0000
,
0001
0100
0011
0000
0100
0010
0101
0000
,
0010
0100
0011
0000
0100
0001
0110
0000
,
3001
0010
0100
0001
0100
0001
0100
0001
,
0100
0001
1100
0010
1000
0101
0010
1000
,
0101
1000
0011
0100
0001
1010
0100
0001
,
1010
0100
0011
0100
0001
1010
0100
0001
,
0010
0001
0100
0010
1000
0100
1000
0010
,
0100
0001
1100
0010
1000
0101
0010
1000
,
0101
1000
0011
0100
0001
1010
0100
0001
,
1010
0100
0011
1000
0100
1001
0010
0001
,
0100
0010
1000
0100
1000
0010
0100
0001
,
0010
0001
1100
0010
1000
0011
1000
0100
,
0011
0100
1000
0100
0010
0001
0010
0100
,
1000
0100
0010
0100
1000
0100
0010
0001
,
0010
0100
0010
0001
0010
0100
1000
0100
,
0010
0001
0020
0000
0030
2000
0000
3000
,
0020
0000
0030
1000
,
0010
0000
0200
0000
0300
0002
0000
0003
,
0200
0000
0300
1000
,
0010
0000
2000
0000
3000
0002
0000
0003
,
2000
0000
3000
0000
0002
0000
0003
2000
,
0000
3000
0200
0000
0300
0002
0000
0003
,
2000
0000
3000
0000
0200
0000
0300
0020
,
0000
0030
0020
0000
0030
0002
0000
0003
,
0002
0000
0000
0000
,
0000
0000
0000
0000
,
0000
0000
0003
1000
,
0100
0000
0002
0000
0003
0020
0000
0030
,
1000
0000
0002
0000
0003
0200
0000
0300
,
1000
0000
0002
0000
0003
0020
0000
0030
,
0100
0000
2000
0000
3000
0200
0000
0300
,
0001
0000
0020
0000
0030
0200
0000
0300
,
1000
0000
0020
0000
0030
0200
0000
0300
,
0020
0000
0000
0030
0002
0000
0000
0000
,
0000
0003
0100
0010
0100
0010
0100
0010
,
0100
0010
1102
0000
1003
0010
1000
0000
,
1020
0001
0100
0001
1030
0000
1000
0100
,
1010
0100
2001
0000
3001
0100
0001
0000
,
0201
1000
0010
1000
0001
0000
0301
0010
,
0101
0010
1002
0000
1003
0010
1000
0100
,
1020
0001
0100
0001
1030
0000
1000
0100
,
1010
0100
2001
0000
3001
0100
0001
0010
,
0001
1000
0210
0000
0301
0010
0001
0000
,
0001
0000
0202
0000
0303
1010
0000
0000
,
2020
0000
0000
0000
0000
0000
3030
0100
,
0010
0100
2002
0000
3003
0110
0000
0000
,
0220
0000
0000
0000
0000
0000
0330
1000
,
0001
1000
0022
0000
0033
1100
0000
0011
,
2200
0000
0000
0000
0000
0000
3300
0010
,
0001
0100
2020
0000
3030
0101
0000
0110
,
0000
1010
0202
0000
0303
1100
0010
1001
,
0110
0001
1000
0100
0010
0000
0001
0000
,
0020
0000
0000
0000
0030
0000
0000
0000
1000
0000
0000
0000
0110
0001
1000
0100
,
0010
1000
0010
0000
0001
0000
0100
0000
,
2000
0000
0000
0000
0010
0000
0001
0000
3010
0000
0001
0000
1000
0100
0010
0001
,
1000
0010
0100
1000
0100
0010
1000
0100
,
0010
0000
0001
0000
0010
0000
0000
0000
0100
0000
0000
0000
2001
0010
0100
0001
,
3010
0000
0001
1000
0010
0000
0100
0000
,
0001
0000
0000
0000
0110
0000
0001
0000
1010
0000
0001
0000
1000
0100
0010
0001
,
1000
0100
0010
0001
0000
0000
1100
0000
0011
0000
1100
0000
0010
0000
0101
0000
,
1010
0101
1010
0000
1001
0000
0220
0000
,
0330
0000
1100
0010
1001
0000
0110
0000
,
0011
0101
1010
2200
,
3300
0000
0000
2020
0000
3030
0100
1001
,
0110
1001
1010
0110
,
1001
0100
1010
0101
0010
0000
1001
0000
,
0101
0000
0000
0000
1000
0100
0010
0001
1000
0100
0010
0001
1000
0000
0010
0000
,
0001
0000
0200
M0M0
000M
M0M0
000M
M0M0
000M
M0M0
000M
M0M0
000M
M0M0
000M
M0M0
,
000M
M0M0
000M
M0M0
000M
M0M0
000M
M0M0
000M
M0M0
0300
0000
0010
0000
0100
0000
,
0010
0100
1011
0000
0000
0000
0001
1000
,
0001
0000
1000
0000
0001
0000
1000
0010
0001
0000
0000
0000
0100
0010
0001
1000
,
0100
0000
0010
0001
1100
0000
0000
0000
0000
0000
0000
0000
1000
0000
0001
0000
,
1000
0000
0001
0000
1000
0000
0001
0100
1000
0000
0010
0000
0100
1000
0001
0010
,
0100
0000
1000
0001
0110
0000
0000
0000
0000
0000
0000
0000
0100
0000
0001
0000
,
0100
0000
0001
0000
0100
0000
0001
1000
0100
0000
0000
0000
0010
0001
1000
0100
,
0010
0000
0001
1000
0110
0000
0000
0000
0000
0000
0000
0000
0010
0000
1000
0000
,
0010
0000
1000
0000
0010
0000
1000
0001
0010
0000
0000
0000
0100
1000
0001
0010
,
0100
0000
1000
0001
0110
0000
0000
0000
0000
0000
0000
0000
0100
0000
0010
0000
,
0100
0000
0010
0000
0100
0000
0010
1000
0100
0000
0000
0000
0010
0001
1000
0100
,
0010
0000
0001
1000
0110
0000
0000
0000
0000
0000
0000
0000
0010
0000
0100
0000
,
0010
0000
0100
0000
0010
0000
0100
0001
0010
0000
0100
0000
1000
0000
0001
0010
,
0100
0000
1000
0001
0110
0000
0000
0000
0000
0000
0000
0000
0001
0000
1000
0000
,
0001
0000
1000
0000
0001
0000
1000
0100
0001
0000
0000
0000
0010
0001
1000
0100
,
0010
0000
0001
1000
0110
0000
0000
0000
0000
0000
0000
0000
1000
0000
0001
0000
,
1000
0000
0001
0000
1000
0000
0001
0010
1000
0000
0000
0000
0100
1000
0001
0010
,
0100
0000
1000
0001
0110
0000
0000
0000
0000
0000
0000
0000
0010
0000
1000
0000
,
0010
0000
1000
0000
0010
0000
1000
0100
0010
0000
0000
0000
0001
1000
0100
0010
,
0001
0000
1000
0100
0011
0000
0000
0000
0000
0000
0000
0000
0100
0000
0001
0000
,
0100
0000
0001
0000
0100
0000
0001
0010
0100
0000
1000
0000
0001
0010
0100
1000
,
0001
0000
0010
0100
1001
0000
0000
0000
0000
0000
0000
0000
0100
0000
0010
0000
,
0100
0000
0010
0000
0100
0000
0010
1000
0100
0000
0000
0000
0010
0001
1000
0100
,
0010
0000
0001
1000
0110
0000
0000
0000
0000
0000
0000
0000
0010
0000
0100
0000
,
0010
0000
0100
0000
0010
0000
0100
0001
0010
0000
0000
0000
0100
1000
0001
0010
,
0100
0000
1000
0001
0110
0000
0000
0000
0000
0000
0000
0000
0011
0000
1100
0000
,
0011
0000
1100
0000
0011
0000
1000
0100
0010
0000
0000
0000
0001
1000
0100
0010
,
0001
0000
1000
0100
0011
0000
0000
0000
0000
0000
0000
0000
1100
0000
0011
0000
,
1100
0000
0011
0000
1100
0000
0001
0010
0100
0000
1000
0000
0001
0010
0100
1000
,
0001
0000
0010
0100
1001
0000
0000
0000
0000
0000
0000
0000
1001
0000
0110
0000
,
1001
0000
0110
0000
1001
0000
0010
0100
0001
0000
0000
0000
1000
0100
0010
0001
,
1000
0000
0100
0010
1001
0000
0000
0000
0000
0000
0000
0000
1001
0000
0110
0000
,
1001
0000
0110
0000
1001
0000
0100
0010
1000
0000
0000
0000
0001
0010
0100
1000
,
0011
0000
22MM
00MM
00MM
00MM
00MM
00MM
,
00MM
0022
0000
0000
,
3333
0000
1110
0001
0100
0010
1000
0100
,
1000
0010
0100
0001
0010
0001
0100
0010
,
1000
0100
1011
0100
0001
0010
0001
0100
,
0010
1000
0100
1000
0010
0100
0001
0010
,
0001
0100
1011
0100
1000
0010
0100
0001
,
0010
0001
0100
0010
1000
0100
1000
0010
,
0100
0001
1110
0001
0100
1000
0010
0100
,
0001
0010
1101
0010
0001
0100
0010
1000
,
0100
1000
0111
1000
0010
0001
0100
0010
,
1000
0100
1000
0010
0100
0001
0010
0001
,
0100
0010
1101
0010
0001
0100
0010
1000
,
0100
1000
0010
0100
0001
0010
0001
0100
,
0010
1000
0111
1000
0010
0001
0100
0010
,
1000
0100
1000
0010
0100
0001
0010
0001
,
0100
0010
1101
0010
0001
0100
0010
1000
,
0100
1000
0111
1000
0010
0100
0001
0010
,
0001
0100
1010
0100
1010
0100
0001
0010
,
0100
1000
0011
0100
0011
0100
1000
0001
,
0010
0100
1001
0010
1001
0010
0100
1000
,
0001
0010
1100
0001
1100
0001
0010
0100
,
1000
0010
0101
0010
0101
0010
1000
0100
,
0010
0001
1100
0010
1100
0010
0001
1000
,
0100
0010
1001
0100
1001
0100
0010
0001
,
1000
0100
0011
1000
0011
1000
0100
0010
,
0001
1000
0110
1001
0110
1001
0000
0000
,
0000
0000
1100
0011
1100
0011
0000
0000
,
0000
0000
0110
1001
0110
1001
0000
0000
,
0000
0000
0011
1100
0011
1100
0000
0000
,
0000
0000
1010
0101
1010
0101
0000
0000
,
0000
0000
1100
0011
1100
0011
0000
0000
,
0000
0000
0101
1010
0101
1010
0000
0000
,
0000
0000
0011
1100
0011
1100
0000
0000
,
0000
0000
1100
0010
1100
0010
0000
0000
,
0000
0000
0110
0001
0110
0001
0000
0000
,
0000
0000
0011
0100
0011
0100
0000
0000
,
0000
0000
0110
1000
0110
1000
0000
0000
,
0000
0000
1100
0001
1100
0001
0000
0000
,
0000
0000
0110
0001
0110
0001
0000
0000
,
0011
1000
0011
1000
0000
0000
0000
0000
,
0000
0000
0110
1000
0110
1000
0000
0000
,
0000
0000
1000
0010
1000
0010
0000
0000
,
0000
0000
0100
0010
0100
0010
0000
0000
,
0000
0000
0001
0100
0001
0100
0000
0000
,
0000
0000
0010
0100
0010
0100
0000
0000
,
0000
0000
1000
0010
1000
0010
0000
0000
,
0000
0000
1000
0001
1000
0001
0000
0000
,
0000
0000
0001
0100
0001
0100
0000
0000
,
0000
0000
0001
1000
0001
1000
0000
0000
,
0000
0000
1000
0100
0010
0001
0000
0000
,
0000
0000
0010
0001
1000
0100
0000
0000
,
0000
0000
0001
0010
0100
1000
0000
0000
,
0000
0000
0100
1000
0001
0010
0000
0000
,
0000
0000
0100
0010
0001
1000
0000
0000
,
0000
0000
0010
1001
0100
0000
0000
0000
,
0000
0000
0010
0100
1000
0001
0000
0000
,
0000
0000
0100
1000
0001
0010
0000
0000
,
0000
0011
0100
0011
,
0100
1010
0001
1010
,
0001
1100
0010
1100
,
0010
0101
1000
0101
,
1000
0110
0001
0110
,
0001
1010
0100
1010
,
0100
1001
0010
1001
,
0010
0101
1010
0101
,
1010
0000
2M02
00M0
,
0M00
00M0
0M00
00M0
,
0M00
00M0
0M00
00M0
,
0M00
00M0
0M00
00M0
,
0M00
00M0
0M00
00M0
,
0M00
00M0
0M00
00M0
,
0M00
00M0
0M00
00M0
,
0M00
00M0
0M00
00M0
,
0M00
00M0
0M00
00M0
,
0M00
00M0
0M00
00M0
,
0M00
00M0
0M00
00M0
,
0M00
00M0
0M00
00M0
,
0M00
00M0
0M00
00M0
,
0M00
00M0
0M00
00M0
,
0M00
00M0
0M00
00M0
,
0M00
00M0
0M00
00M0
,
0M00
00M0
0M00
00M0
,
0M00
00M0
0M00
00M0
,
0M00
00M0
0M00
00M0
,
0M00
00M0
0M00
00M0
,
0M00
00M0
0M00
00M0
,
0M00
00M0
0M00
00M0
,
0M00
00M0
0M00
00M0
,
0M00
00M0
0M00
00M0
,
0M00
00M0
0M00
00M0
,
0M00
00M0
0M00
00M0
,
0M00
00M0
0M00
00M0
,
0M00
00M0
0M00
00M0
,
0M00
00M0
0M00
00M0
,
0M00
00M0
0M00
00M0
,
3M03
0000
0000
0020
,
0000
0000
0000
0000
,
0000
0000
0000
0000
,
0000
0000
0000
0000
0000
0000
0000
0030
,
0000
0100
0000
0000
0000
0000
0000
0000
0000
1000
0000
0000
0000
0000
0000
0001
0000
0000
0000
0000
0000
0000
0000
0010
0000
0000
0000
0000
0000
0000
0000
0100
,
0000
0000
0000
0000
0000
0000
0000
1000
0000
0000
0000
0000
0000
0000
0000
0001
0000
0000
0000
0000
0000
0000
0000
0000
0000
0000
0000
0000
0000
0000
0000
0000
,
0000
0000
0000
0000
1100
0000
0000
0000
0000
0000
0000
0000
0000
0022
0000
0000
,
0000
0000
0000
0000
,
0000
MM00
0000
0000
0000
0000
0000
0000
0000
0000
0000
0000
0000
0000
0000
MM00
,
0000
0000
0000
0000
0000
MM00
0000
0000
,
0000
0000
0000
0000
0000
MM00
0000
0000
0000
0000
0000
0000
0000
0000
0000
0000
,
0033
0000
0000
0000
,
0000
0000
0000
0000
,
0000
0000
0000
0000
,
0000
0000
0000
0000
,
0000
0000
0000
0000
,
0000
0000
0000
0000
,
0000
0000
0000
0000
1000
0000
0000
1000
0020
0000
0000
0000
0000
0000
0000
0000
,
0000
0000
0000
0000
0000
0000
0030
0001
0100
0000
0001
0000
0010
0000
0100
0000
,
2000
0000
3000
0000
0200
0000
0300
0001
0020
0000
0000
0030
2000
0000
3000
0100
,
2000
0000
0000
3000
0002
0000
0003
0010
0200
0000
0000
0000
0000
0000
0000
0000
,
0000
0000
0300
0000
1000
0000
0000
1000
0020
0000
0000
0000
0000
0000
0000
0000
,
0000
0000
0000
0000
0000
0000
0030
0001
0100
0000
0001
0000
0010
0000
0100
0000
,
2000
0000
3000
0000
0200
0000
0300
0001
0020
0000
0000
0030
2000
0000
3000
0100
,
2000
0000
0000
3000
0002
0000
0003
0010
0200
0000
0000
0000
0000
0000
0000
0000
,
0000
0000
0300
0000
0000
0000
0000
0000
0200
0000
0000
0300
0010
0000
0002
0000
,
0000
0003
0100
0000
0010
0000
0100
0000
1000
0000
0101
0000
0101
0000
0101
0000
,
0101
0101
0101
0101
1000
0101
0101
0101
,
0101
0101
0101
0101
0010
1001
1001
1001
,
0100
0011
0011
0011
1000
0101
0101
0101
,
0101
1000
0101
0010
1100
0001
1010
0001
1200
0000
0010
0000
0010
0000
0310
0000
,
0012
0000
0013
0000
0210
0000
0310
0000
1100
0001
2210
0000
3310
0000
0212
0000
,
0313
0010
0010
0010
0120
0001
0031
1001
,
0201
0000
0301
0000
0021
0000
0031
0000
1100
0010
1101
0000
0001
0000
2021
0000
,
3031
0001
0001
0001
1020
0100
0100
0130
,
0101
0000
0120
0000
0100
0000
0130
0000
2021
3030
0100
0000
1202
0303
0010
0000
,
2102
3003
0011
0000
0110
0000
1010
0000
1200
0000
0010
0000
0010
0000
0310
0000
,
1010
0000
0012
0000
0013
0000
0010
0000
1001
0100
1011
0000
0010
0000
0212
0000
,
0313
0010
0010
0010
1200
0010
0010
0310
,
0012
0000
0013
0000
0210
0000
0310
0000
1100
0001
2210
0000
3310
0000
0212
0000
,
0313
0010
0010
0010
0120
0001
0031
1001
,
0201
0000
0301
0000
0021
0000
0031
0000
1100
0010
1101
0000
0001
0000
2021
0000
,
3031
0001
0001
0001
1020
0100
0100
0130
,
0101
0000
0120
0000
0100
0000
0130
0000
2021
3030
0100
0000
1022
0033
0100
0000
,
1202
0303
0011
0000
0110
0000
1010
0000
1200
0000
0010
0000
0010
0000
0310
0000
,
2210
3300
0212
0303
1010
0101
0010
0001
1100
0000
1001
0000
1010
0000
1100
0000
,
1001
0010
1100
0010
1001
0100
1010
0001
1210
0000
0001
0000
1000
0000
0001
0000
,
1000
0000
0001
0300
1020
0000
0031
0000
1012
0100
1000
0010
1100
0000
0110
0000
,
1000
0000
0113
0000
1201
0310
0001
0100
2001
0000
0010
0000
0001
0000
0010
0000
,
0001
0000
3010
0000
0102
0000
0013
0000
1201
0010
1000
0010
1001
0000
0011
0000
,
1001
0010
1001
0010
1301
0010
1100
0010
1002
0000
0100
0000
1000
0000
0100
0000
,
1000
0000
0103
0000
1020
0000
0130
0000
2001
0100
3010
0001
0210
1000
0310
0001
,
0120
1000
0130
0001
1010
0100
1010
0001
2100
0000
0010
0000
0100
0000
3010
0000
,
0201
0300
1020
0030
0001
0000
1001
0000
1100
0010
0101
1000
0011
1000
0101
0010
,
1100
0010
0101
1000
0101
0010
0101
1000
0201
0000
1000
0000
0001
0000
1000
0000
,
0001
0000
1300
0000
0021
0000
1030
0000
0112
1000
0100
0010
1100
0000
1010
0000
,
0100
0000
1013
0000
0211
1000
0301
0010
2001
0000
0100
0000
0001
0000
0100
0000
,
0001
0000
3100
0000
1002
0000
0013
0000
1201
0010
1000
0010
1001
0000
0011
0000
,
1001
0010
1001
0010
1301
0010
1100
0010
1002
0000
0100
0000
1000
0000
0100
0000
,
1000
0000
0103
0000
1020
0000
0130
0000
2001
0100
3010
0001
0210
1000
0310
0001
,
0120
1000
0130
0001
1010
0100
1010
0001
0110
0000
0110
0000
1100
0000
1100
0000
,
1001
1001
0011
0011
0110
0000
0110
1100
,
0000
0000
0000
0000
0000
0000
1000
0100
1011
0100
0010
0001
1100
0010
0101
0010
,
1000
0100
1001
0010
0100
1000
0101
0010
0100
1000
0010
0100
0001
0010
0001
0100
,
1000
0010
1100
0001
0110
1000
0011
0100
1001
0010
0100
0001
1100
0010
0101
0010
,
1000
0100
1001
0010
0100
0010
0101
0010
1000
0100
1010
0100
0001
0010
0001
1000
,
0100
1000
0010
0100
0001
0010
1001
0110
1001
0100
0010
0001
1100
0010
0101
0010
,
1000
0100
0011
1000
0100
0010
1001
0010
0100
1000
0010
0100
0001
0010
0001
1000
,
0100
1000
0011
0100
1010
0100
0011
0100
1010
0001
0100
0001
1100
0010
1001
0010
,
0100
1000
0011
0100
0010
0001
1100
0010
0100
1000
0101
0010
0001
0100
0001
1000
,
0100
0010
0001
1000
0001
1000
0100
0010
1002
0003
0120
0030
1002
0003
0210
0000
,
1300
0000
0000
0000
0102
0000
0003
0000
1020
0030
0000
0000
0210
0000
0000
0000
0301
0000
0000
0000
2010
0000
0000
0000
0001
0000
0000
0000
0010
0000
0000
0000
,
3001
0000
0010
0000
0101
1000
0110
0001
1020
0030
0201
0300
1020
0030
0102
0003
,
0010
0000
0000
0000
2001
3000
0000
0000
1200
0000
0300
0000
0021
0000
0030
0000
1001
0000
0100
0000
0010
0000
0001
0000
1100
0000
0001
0000
0010
0000
0100
0000
,
1001
0100
0011
0100
1001
0100
1010
0001
1020
0030
0201
0300
1020
0030
2001
3000
,
0010
0000
0102
0003
1020
0030
0201
0000
0310
0000
2001
0000
0010
0000
0001
0000
,
3010
0000
0001
0000
1010
0100
1010
0001
0120
0030
2001
3000
0210
0300
1002
0003
,
0010
0000
0201
0300
1020
0030
0102
0003
1000
0000
1200
0300
1020
0030
1002
0003
,
1200
0300
1002
0003
1020
0030
1200
0300
2001
0000
0001
0000
0100
0000
0010
0000
,
0001
0000
0001
0000
3100
0000
0010
0000
1201
0000
0300
0000
0102
0003
1020
0030
,
0201
0300
2010
3000
1002
0003
0120
0030
1000
0000
0001
0000
1000
0000
0001
0000
,
1000
0000
0000
0000
0000
0000
0001
0000
0000
0000
1000
0000
0100
0000
0010
0000
0001
0000
0000
0000
0000
0000
0000
0000
1011
0000
0000
0000
0000
0000
0000
0000
0000
0000
0000
0000
0100
0000
0000
0000
0000
0000
0000
0000
0000
0010
0000
0000
,
0001
0000
1000
0000
0100
0000
0010
0000
0001
0000
0000
0000
0100
0000
0000
0001
,
1000
0000
0000
0000
0010
0000
0000
0000
1000
0000
0000
0000
0100
0000
0000
0010
,
0001
0000
1000
0000
0100
0000
0010
0000
0001
0000
0000
0000
0100
0000
0000
0001
,
0010
0000
0100
0000
1000
0000
0100
0000
0010
0000
0000
0000
0100
0000
0000
0010
,
0001
0000
0010
0000
0100
0000
0001
0000
0100
0000
0000
0000
1000
0000
0000
0100
,
0010
0000
0000
0000
1000
0000
0000
0000
0010
0000
0000
0000
0001
0000
0000
0010
,
0010
0100
1000
0100
1011
0000
0000
0000
,
1101
0000
0010
0000
0100
0000
1000
0000
1101
0000
0010
0000
0110
0000
1000
0101
,
1010
0001
1100
0000
0110
0000
0011
0000
1001
0000
0100
0000
0110
0000
1000
0011
,
1100
0010
1000
0000
0111
0000
0010
0000
1101
0000
0010
0000
0110
0000
1000
0110
,
1001
0010
1100
0000
0110
0000
0011
0000
1101
0000
0010
0000
0111
0000
1100
0001
,
1010
0001
1100
0000
0111
0000
1010
0000
0101
0000
0000
0000
1001
0000
0000
0100
,
0011
0000
0100
0000
1001
0010
0101
0010
1001
0000
0000
0000
1100
0000
0000
0010
,
1001
0000
1000
0000
1100
0010
1000
0110
1001
0000
1000
0000
1001
0000
1000
0001
,
1001
0000
0000
0000
0000
0000
0000
0000
1010
0000
0000
0000
0000
0000
0000
0000
1100
0000
0000
0000
0000
0000
0000
0000
0110
0000
0000
0000
0000
0000
0000
0000
1011
0000
0000
0000
0100
0000
0000
0000
0010
0000
0000
0000
0001
0000
0000
0000
0000
0000
0000
0000
0000
0000
0000
0000
0010
0001
0000
0000
0000
0000
0000
0000
,
1000
0100
0000
0000
0000
0000
0000
0000
0000
0000
0000
0000
0000
0000
0000
0000
MMMM
0000
0000
0000
0000
0000
0000
0000
0000
0000
0000
0000
0000
0000
0000
0000
2101
0000
0000
0000
0010
0000
0000
0000
3001
0000
0000
0000
0010
0000
0000
0000
1200
0000
0000
0000
0010
0000
0000
0000
0301
0000
0000
0000
1010
0000
0000
0000
,
0101
1000
0110
1000
0011
0100
1001
0010
1002
0100
0013
1000
0201
0010
1300
0011
,
2100
0010
3001
0100
1020
0100
1031
0100
2001
0010
3100
0010
0201
0310
1000
0110
,
1001
0100
1010
0001
0110
1000
0101
1000
0021
0100
1030
0100
0012
0100
1003
0110
,
1001
0100
0011
1000
0110
1000
0101
0010
1002
0100
0013
0100
2001
3010
0100
1010
,
0101
0010
1001
0100
1010
0100
0011
0100
1002
0100
0013
1000
0201
0310
1000
0110
,
1002
0100
0013
0100
2001
0010
3101
0010
1200
0010
0301
0010
1002
0100
0013
1100
,
0011
0100
1010
0001
1100
0001
1010
0100
0021
1000
0001
1000
0001
1000
0031
1000
,
0101
0000
0010
0000
1100
0011
1100
0011
2100
0010
3001
0010
1200
0310
0001
0110
,
1001
0100
1010
0100
1001
0010
0101
0010
1002
0100
0013
0100
2001
0010
3100
0011
,
2100
0010
3001
0010
1002
0100
1013
0100
2001
0010
3100
0010
0201
0310
1000
0110
,
1001
0100
0011
1000
0110
1000
0011
0100
1020
0100
0031
0100
1002
0013
0100
0011
,
1100
0010
1001
0100
1010
0100
0011
1000
0021
0100
1030
0100
2001
3010
0100
1010
,
0101
0010
1001
0100
1010
0100
0011
0100
1002
0100
0013
0100
2001
3010
0100
1010
,
0102
1000
0103
0010
2100
3010
0001
1100
0012
0100
1003
0100
0012
0103
1000
0101
,
0010
0100
1010
0001
1100
0010
0101
0010
1002
0103
1010
0001
1100
0001
1010
0100
,
1010
0001
0100
1000
0011
0100
0011
0100
2010
0001
3010
0001
1200
0310
0001
0110
,
1002
0010
1000
0010
1003
0010
1100
0011
1100
0001
0100
0001
1100
0001
0100
0011
,
1100
0010
1000
0010
1001
0010
1000
0110
1001
0100
0001
0100
0011
1000
0010
1000
,
0110
0001
0100
0001
1100
0010
1000
0010
2100
0010
0001
0010
0100
0010
3001
0010
,
2101
0010
0101
0010
0101
0010
3101
0010
1000
0000
1000
0000
1000
0000
1000
0000
,
1000
0000
0000
0000
0001
1000
0001
1000
,
0010
0100
0010
0100
0010
0100
0010
0100
1012
0000
0103
0000
1001
0000
0110
0000
,
1020
0000
0101
1000
0100
0000
1031
0000
0100
0000
0001
0000
2010
0000
3001
0000
,
1200
0310
1002
1103
1020
0101
1030
0110
,
0201
0000
1010
0001
0010
0000
0301
0000
1000
0000
0101
0000
1000
0000
0010
0000
,
2001
3000
0011
2000
3001
0000
0101
0000
1210
0000
0301
0000
2010
3000
0201
0000
,
1300
0000
0120
0001
1030
0000
0102
0000
1003
0000
0110
1000
0011
1000
0101
0010
,
2001
3100
1021
1130
1020
0101
1030
0011
,
1002
0000
0100
0000
1020
0030
0103
0000
2001
3000
0101
0000
2001
0000
3101
0000
,
1002
0100
1013
0100
0011
1000
0101
0010
1102
0000
0013
0000
1001
0000
0110
0000
,
1200
0000
0311
1000
0110
1000
0101
0010
1200
0300
0010
0100
2001
0000
3010
0000
,
1200
0000
0310
0000
1002
0000
1103
0000
1020
0030
0101
0010
1100
0010
0101
0000
,
2012
0003
0100
0020
0031
0000
3010
0000
1000
0000
0101
0000
1000
0000
0010
0000
,
1002
0000
1103
0020
1030
0000
2101
3000
0211
0000
1000
0000
0301
0000
0010
0000
,
1200
0000
0310
0000
1002
0003
0120
0000
1001
0030
2100
3000
0012
0000
0103
0000
,
1002
0000
0103
0000
1020
0030
1001
0000
1112
0000
0010
0000
1100
0000
0010
0000
,
1000
0010
1100
0010
1110
1010
1100
1010
,
1000
0000
1010
0000
1100
0000
1013
0000
0011
0100
0001
0100
0001
0010
0100
1000
,
0011
0100
0001
0100
0001
0010
0100
1000
0011
0100
0001
0100
0001
0010
0100
1000
,
0011
0100
0001
0100
0001
0010
0100
1000
0102
0003
1000
0000
0102
0003
0010
0000
,
0102
0003
0000
0000
1002
0003
0000
0000
0102
0003
0000
0000
0012
0003
0000
0000
1000
0000
0000
0000
0102
0000
0003
0000
1000
0000
0000
0000
0102
0000
0003
0000
,
1000
0001
0100
0001
1010
0101
1010
0101
0010
0000
0000
1001
0100
0010
0101
1000
,
0010
0000
0000
1001
0010
0100
0011
0100
1001
0000
1010
0000
1100
0011
0000
0101
,
1000
0100
0010
0001
0100
0010
0100
0010
1101
0000
0000
0000
0000
0000
0000
0000
;

//---------------dance-single - Index----------------
#NOTES:
     dance-single:
     Index:
     Hard:
     15:
     1.000,1.000,0.165,0.874,1.000,10895.000,239.000,1266.000,432.000,19.000:

0000
0000
0000
0000
1000
0000
0000
1000
2002
0000
0000
0000
0000
0000
0000
0000
0000
0000
3003
0000
1000
0000
0100
0000
0020
0000
0031
0000
0010
0000
0100
0000
,
0120
0000
0000
0000
0000
0000
0000
0000
0000
0000
0000
0000
0000
0000
0000
0000
0000
0000
0000
0000
0000
0000
0000
0000
0031
0000
0000
0000
0000
0000
0000
0000
0000
0000
0000
0000
0000
0000
0000
0000
0000
0000
0000
0000
0000
0000
0000
0000
1000
0000
0000
0000
0000
0000
0001
0000
0000
0000
0000
0000
1000
0000
0000
0000
0000
0000
0001
0000
0000
0000
0000
0000
2000
0000
0000
0000
0000
0000
0000
0000
0000
0000
0000
0000
0000
0000
0000
0000
0000
0000
0000
0000
0000
0000
0000
0000
0002
0000
0000
0000
0000
0000
0000
0000
0003
0000
0000
0000
0000
0000
0000
0000
0002
0000
0000
0000
0000
0000
0000
0000
0003
0000
0000
0000
0000
0000
0000
0000
0002
0000
0000
0000
0000
0000
0000
0000
0003
0000
0000
0000
0000
0000
0000
0000
0002
0000
0000
0000
0000
0000
3010
0000
0003
0000
0000
0000
0100
0000
0000
0000
0000
0000
1000
0000
0000
0000
0000
0000
0001
0000
0000
0000
0000
0000
0100
0000
0000
0000
0000
0000
0010
0000
0000
0000
0000
0000
1000
0000
0000
0000
0000
0000
,
0010
0100
0001
0010
0100
1000
0001
0100
0010
0100
0001
1000
0010
0100
0010
1000
0001
0100
0010
1000
0100
1000
0010
0100
0002
0013
0001
0100
0010
1000
0100
0010
,
0002
0103
0001
0010
0100
1000
0010
1000
0200
0310
0001
0100
0020
1030
0001
0010
0200
1300
0002
0103
0020
1030
0100
0010
1MM1
0000
0000
0000
0000
0000
0000
0000
,
0000
0000
0000
0000
,
0000
0000
0000
0000
,
0000
0000
0000
0000
0000
0000
0000
0000
0000
0000
0000
0000
1000
0001
1000
0000
,
0001
1000
0000
0001
1000
0001
1000
0000
0001
1000
0000
0001
1000
0001
1000
0000
,
0001
1000
0000
0001
1000
0001
1000
0000
0002
0013
0000
0100
2000
3001
1000
0000
,
1000
0001
0000
1000
0020
1030
0001
0000
1000
0001
0000
1000
0020
1030
0001
0000
,
0002
1003
0000
1000
0200
0310
0001
0000
0002
0103
0000
1000
0200
0310
0001
0000
,
0001
0100
0000
0010
1000
0010
0100
0000
0001
0100
0000
0010
1000
0010
0100
0000
,
0001
0100
0000
1000
0100
0010
0001
0000
1000
0100
0000
1000
0010
1000
0001
0000
,
0001
1000
0000
0001
1000
0001
1000
0000
0001
1000
0000
0001
1000
0001
1000
0000
,
0001
1000
0000
0001
0100
0001
0100
0000
0001
0010
0100
1000
0001
0000
0001
0000
,
1000
0010
0100
0000
0001
0000
0010
0000
1000
0001
0100
0000
0010
0000
0001
0000
,
1000
0010
0100
0000
0001
0000
0010
0000
1000
0001
0100
0000
0010
0000
0001
0000
,
1000
0001
0010
0000
1000
0000
0001
0000
1000
0001
0100
0000
1000
0000
0001
0000
,
1000
0001
0100
0000
0001
0000
0010
0000
1000
0001
0010
0000
0100
0000
0010
0000
,
1000
0001
1000
0000
0010
0000
0100
0000
1000
0010
1000
0000
0001
0000
0010
0000
,
1000
0001
0100
0000
0001
0000
1000
0000
0001
1000
0100
0000
0001
0000
0010
0000
,
0100
0010
0001
0000
1000
0000
0010
0000
0100
0001
0010
0000
1000
0100
0000
0100
,
0010
0010
0001
0000
1000
0000
0001
0200
,
0301
0000
1000
0010
0100
0001
0010
0100
1000
0010
1000
0100
0010
0001
0100
0010
,
1000
0100
0010
0001
1000
0000
0000
0000
1001
0000
0000
0000
0010
0000
2000
0000
,
3001
0000
1000
0100
0010
0001
0010
0001
1000
0010
0100
0001
1000
0001
0100
0010
,
1000
0001
1000
0000
0001
0000
0000
0000
1001
0000
0000
0000
1000
0000
0200
0000
,
0301
0000
0100
0010
1000
0001
1000
0001
0010
0100
1000
0010
0100
0001
0010
0001
,
1000
0010
0100
0001
0100
0000
0000
0000
0011
0000
0000
0000
0010
0000
2000
0000
,
3001
0000
0010
0001
1000
0010
0100
0010
1000
0100
0010
0001
1000
0010
0100
0001
,
0010
0100
1000
0010
1000
0000
0001
0000
1001
0000
1000
0000
0010
0000
0220
0000
,
0330
0000
1000
0100
0010
0001
0000
1000
0010
0100
0001
0100
0010
0000
2020
0000
,
3030
1000
0001
0100
0000
0000
0001
0010
0100
1000
0100
0010
0001
0000
0202
0000
,
0303
0010
1000
0100
0010
0001
0000
0010
0100
1000
0010
0100
1001
0000
0000
1010
,
0000
0000
0110
0000
0000
0101
0000
1010
0000
0001
0011
0000
1000
0000
2002
0000
,
3003
0000
1000
0010
0100
0001
0000
0010
0100
1000
0010
0100
0001
0000
0220
0000
,
0330
1000
0100
0010
0000
0000
0001
0010
0100
1000
0100
0010
0001
0000
2002
0000
,
3003
0001
1000
0100
0010
0001
0000
1000
0100
1000
0010
0100
0001
0010
0000
0001
,
0010
0100
0000
1000
0100
0010
0001
1000
0001
0100
0010
1000
0100
0000
0001
0000
,
0010
0000
0000
0000
0100
0000
0000
0000
1000
0000
0100
0000
0010
0000
0001
0000
1000
0000
0000
0000
0010
0000
0000
0000
0200
0300
0000
0000
0001
0000
0000
0000
,
2000
3000
0000
0000
0001
0000
0000
0000
0200
0300
0000
0000
0001
0000
0000
0000
1001
0000
0000
0000
0000
0000
0000
0000
0002
0003
0000
0000
0020
0030
0000
0000
,
0200
0300
0000
0000
2000
3000
0000
0000
0001
0000
0100
0000
0001
0000
1000
0000
0002
0003
0000
0000
1000
0000
0100
0000
0020
0000
0030
0000
0001
0000
0000
0000
,
2000
0000
3000
0000
0001
0000
0000
0000
0020
0030
0000
0000
0000
0000
0000
0000
1002
0000
0003
0000
0000
0000
0000
0000
0200
0000
0300
0000
0001
0000
0000
0000
,
0010
0000
0100
0000
1000
0001
1000
0100
0020
0030
0000
0000
2000
3000
0001
0000
,
0010
0000
0100
0000
0001
0100
0010
1000
0002
0003
0000
0000
0200
0300
0001
0000
,
1000
0000
0010
0000
0100
0010
1000
0001
0200
0300
0000
0000
2000
3000
0010
0000
,
2000
0000
3000
0000
0001
0000
0000
0000
0020
0030
0000
0000
0100
0000
0000
0000
2000
0000
3000
0000
0010
0000
0000
0000
1001
0000
0000
0000
0010
0000
0000
0000
,
0100
0000
0000
0000
1000
0000
0000
0000
1000
0000
0001
0000
0010
0000
0100
0000
1000
0000
0000
0000
0010
0000
0000
0000
0200
0300
0000
0000
0001
0000
0000
0000
,
2000
3000
0000
0000
0010
0000
0000
0000
0200
0300
0000
0000
1000
0000
0000
0000
0100
0000
0000
0000
0000
0000
0000
0000
1002
0003
0000
0000
0020
0030
0000
0000
,
0200
0300
0000
0000
2000
3000
0000
0000
0001
0000
0010
0000
0100
0000
1000
0000
0002
0003
0000
0000
0001
0000
1000
0000
0200
0000
0300
0000
0010
0000
0000
0000
,
2000
0000
3000
0000
0001
0000
0000
0000
0200
0300
0000
0000
0000
0000
0000
0000
2001
0000
3000
0000
0000
0000
0000
0000
0001
0000
0000
0000
0010
0000
0000
0000
,
0010
0010
0010
0010
0010
0010
0100
1000
,
1000
1000
1000
1000
1000
1000
0010
0100
,
0100
0000
0100
0000
0100
0000
0100
0000
0100
0000
0100
0000
2001
3000
0100
0000
,
0012
0003
0100
0000
2010
3000
0001
0000
0102
0003
0010
0000
2020
0030
3000
0000
,
0200
0300
0000
0000
0000
0000
0001
0000
0200
0000
0300
0000
0000
0000
0000
0000
1000
0000
0000
0000
0100
0000
0000
0000
0020
0000
0000
0000
0030
0000
0000
0000
,
0200
0300
0000
0000
0000
0000
1000
0000
0200
0300
0000
0000
0000
0000
0000
0000
0100
0000
0000
0000
0010
0000
0000
0000
2001
0000
0000
0000
3000
0000
0000
0000
,
0020
0030
0000
0000
0000
0000
0001
0000
0020
0030
0000
0000
0000
0000
0000
0000
1000
0000
0000
0000
0010
0000
0000
0000
1002
0000
0000
0000
0003
0000
0000
0000
,
2000
0000
3000
0000
0000
0000
0010
0000
0200
0000
0300
0000
0002
0003
0000
0000
1000
0000
0000
0000
0200
0000
0300
0000
2000
0000
0000
0000
3000
0000
0000
0000
,
0020
0030
0000
0000
0000
0000
0001
0000
0020
0000
0030
0000
0000
0000
0000
0000
1000
0000
0000
0000
0100
0000
0000
0000
0002
0000
0000
0000
0003
0000
0000
0000
,
0200
0300
0000
0000
0000
0000
1000
0000
0200
0300
0000
0000
0000
0000
0000
0000
0010
0000
0000
0000
0001
0000
0000
0000
2000
0000
0000
0000
3000
0000
0000
0000
,
0020
0030
0000
0000
0000
0000
0001
0000
0020
0030
0000
0000
0000
0000
0000
0000
0010
0000
0000
0000
0001
0000
0000
0000
2001
0000
0000
0000
3000
0000
0000
0000
,
0002
0003
0000
0100
0002
0003
0200
0300
2000
0000
3000
0000
0100
0010
0001
1000
,
0001
0100
0001
0010
0100
1000
0001
0100
0010
0100
0001
1000
0010
0100
0010
1000
,
0100
0010
0001
0010
0100
1000
0010
1000
0001
0100
0001
1000
0100
0010
0100
1000
,
0001
0010
0100
0010
0001
1000
0010
0100
0001
1000
0100
1000
0010
0100
0001
0010
,
0001
0100
0010
1000
0100
0010
0001
1000
0001
0010
0100
1000
0010
0100
0001
0100
,
0010
1000
0001
0010
0100
1000
0001
0100
0001
0010
0100
1000
0001
1000
0010
1000
,
0100
0010
0001
0100
0001
0010
0100
1000
0010
1000
0100
0000
1001
0000
0101
0000
,
0110
1001
0011
0110
1100
0101
2002
0003
,
0000
0000
0000
0000
3202
0300
1013
0000
0110
0000
1001
0000
0002
1003
0001
0100
,
0010
0100
0001
1000
0200
0310
0001
1000
0002
0103
0001
0010
0200
1300
0001
0100
,
0020
0130
0001
1000
0020
0130
0010
1000
0200
0310
0001
0010
0200
1300
0010
1000
,
0001
0100
0001
1000
0200
0310
0100
1000
0001
0010
0100
0010
0002
1003
0010
0100
,
0001
1000
0100
1000
0020
0130
0001
0010
0001
0100
0010
1000
0200
0310
0001
1000
,
0001
0010
0100
1000
0020
0130
0001
0100
0020
1030
0001
0010
0200
1300
0001
0100
,
0002
0013
0100
1000
0002
1003
0010
1000
0200
0310
0001
0000
1001
0000
0110
0000
,
1001
1010
1001
1100
0110
0011
2002
0003
,
3000
0000
0000
0000
0000
0000
1100
0000
0000
0110
0000
0000
0011
0000
0000
1000
0010
1000
0010
0000
0000
0100
0000
0000
,
1000
0000
0000
0010
0100
0010
0100
0000
0000
0001
0000
0000
1000
0000
0000
0100
0000
0000
0010
0000
0000
0001
0000
0000
,
1000
0000
0000
0010
0000
0000
0100
0000
0000
0001
0000
0000
1000
0000
0000
1000
0100
0010
0001
0000
0000
0010
0000
0000
,
1000
0000
0000
0001
0000
0000
1000
0000
0000
1000
0001
1000
0001
0000
0000
0001
0000
0000
1000
0000
0000
0010
0100
0010
,
0100
0000
0000
1000
0000
0000
1001
0000
0000
0000
0000
0000
0000
0000
0000
1000
0001
1000
0100
0000
0000
0001
0000
0000
,
0010
0000
0000
0100
1000
0100
0010
0000
0000
0001
0000
0000
1000
0000
0000
0010
0000
0000
0100
0000
0000
0001
0000
0000
,
0010
0000
0000
0100
0000
0000
1000
0000
0000
0001
0000
0000
1000
0000
0000
0100
0010
0100
0010
0000
0000
1000
0000
0000
,
0100
0000
0000
0010
0000
0000
0001
0000
0000
1000
0010
0100
0001
0000
0000
0010
0000
0000
0100
0000
0000
1000
0100
0010
,
0001
1000
0001
0010
0100
0000
0010
0000
0001
0000
1000
0010
0200
0000
0300
0001
,
2000
0000
3000
0001
0010
0000
0002
0000
0013
0000
0100
0000
2000
0000
3000
0010
,
2000
3000
0001
0000
0200
0000
0000
0000
0001
0000
0300
0000
2000
0000
3000
0001
,
2000
0000
3000
0001
0010
0000
0002
0000
0103
0000
0010
0000
2000
0000
3000
0010
,
0200
0000
0301
0000
2000
3100
0010
0001
1000
0010
0100
0001
2000
0000
3000
0001
,
2000
0000
3000
0001
0010
0000
0002
0000
0013
0000
0100
1000
0002
0003
0001
0010
,
2000
3000
0001
0000
2000
0000
0000
0000
0001
0000
3000
0000
1010
0000
0110
0000
,
0101
0000
1001
0000
0011
0000
0110
0000
1001
0000
1010
0000
0010
0100
1000
0010
,
0100
0001
0100
0010
1000
0010
0100
0001
0010
0100
1000
0100
0020
0000
0100
0000
,
0031
0000
0010
1000
0002
0000
0013
0000
2000
0000
3001
0000
0020
0000
1000
0000
,
0130
0000
0000
0000
1000
0000
0100
0000
0020
0000
0000
0000
0130
0000
0000
0000
0002
0000
0000
0000
0103
0000
0000
0000
0002
0003
0000
0000
0020
0030
0000
0000
,
0200
0300
0000
0000
2000
3000
0000
0000
0200
0000
0300
0000
1000
0000
0002
0000
0013
0000
0000
0000
0200
0300
0000
0000
2000
0000
0000
0000
0100
0000
0000
0000
,
0010
3001
1002
0100
0010
0103
0020
0100
,
0031
0000
0001
1000
0002
0000
1003
0000
0200
0000
0310
0000
0002
0000
1000
0000
,
0103
0000
0000
0000
0001
0000
0100
0000
0020
0000
0000
0000
0130
0000
0000
0000
2000
0000
0000
0000
3100
0000
0000
0000
0002
0003
0000
0000
0020
0030
0000
0000
,
0200
0300
0000
0000
2000
3000
0000
0000
0200
0000
0300
0000
0001
0000
2000
0000
3100
0000
0000
0000
0020
0030
0000
0000
2000
3000
0001
0000
0010
0000
0100
0000
,
1000
0010
0100
0001
1000
0100
0010
0001
0100
0001
0010
0100
1000
0000
0100
0000
,
0010
0002
1003
0100
0001
0100
0020
0030
,
0100
2000
0001
0100
3100
0000
1000
0100
,
0010
0002
1003
0100
0010
0001
2000
3000
,
0001
2000
0100
0001
3001
0000
1000
0001
,
0100
0002
1003
0100
0010
0001
0020
0030
,
0100
2000
3001
0100
0010
1000
0002
1000
,
1003
0000
0002
0000
1000
0000
1003
0000
0020
0000
1030
0000
0100
0010
0001
1000
,
0001
0100
0010
1000
0010
0100
0001
0100
0010
1000
0100
0010
0001
0000
1000
0000
,
1001
0000
1000
0001
1000
0100
0001
1000
,
0001
0000
0001
0010
0001
0000
1000
0010
,
1000
0000
0100
0001
1000
0010
0100
0001
,
1000
0000
0220
0330
0022
0033
0100
1000
,
0001
0000
1000
0001
0100
1000
0001
0100
,
0010
0000
1000
0001
0010
0000
1000
0001
,
1000
0000
0000
0000
0100
0000
0001
0000
1000
0000
0100
0000
0010
0001
0100
0010
,
0100
0001
1000
0010
0100
0010
1000
0001
0010
0100
1000
0001
1000
0100
0010
0001
,
0100
0001
0010
0100
1000
0010
0100
0001
1000
0100
1000
0010
0100
0001
0100
0010
,
1000
0100
0010
0001
0010
0100
1000
0001
0100
0010
1000
0010
0100
0001
0100
0010
,
1000
0100
0010
0001
0100
0010
1000
0001
0100
0001
0010
0100
1000
0001
0100
0010
,
0100
0001
1000
0010
0100
0010
1000
0001
0100
0001
0010
0100
1000
0001
0010
0001
,
0100
0010
0100
0001
1000
0001
0100
0010
1000
0100
0010
0001
1000
0010
0100
0001
,
0100
0010
1000
0001
0100
0010
1000
0001
0010
0100
1000
0001
0010
0100
1000
0001
,
0100
0010
1000
0010
0100
0001
0010
0001
0100
0010
1000
0100
1000
0001
0010
0100
,
1000
0001
0100
0010
1000
0100
0010
0001
0100
0001
0010
0100
1000
0000
0001
0000
,
1000
0000
0002
1000
0203
0010
0302
0000
,
0000
0000
0013
0100
2000
0000
3200
0000
0302
0000
0000
0000
1003
0000
0000
0000
,
0000
1000
0002
0100
2003
0001
3020
0000
,
0230
0000
2300
0001
3020
0000
0230
0000
0320
0000
0000
0000
2030
0000
3020
0000
,
0032
2003
3200
0302
0023
2030
3200
0302
,
2003
3020
0230
2300
3002
0023
2030
3002
,
0023
0000
0230
0000
2300
0000
0000
0000
0000
0000
0000
0000
3001
1000
0010
0100
,
0001
0100
0010
1000
0100
0010
1000
0001
0010
0100
1000
0001
1000
0100
0010
0001
,
0100
0001
0010
0100
1000
0010
0100
0001
1000
0100
1000
0010
0100
0001
0100
0010
,
1000
0100
0010
0001
0010
0100
1000
0001
0100
0010
1000
0010
0100
0001
0100
0010
,
1000
0100
0010
0001
0100
0010
1000
0001
0100
0001
0010
0100
1000
0001
0100
0010
,
0100
0001
1000
0010
0100
0010
1000
0001
0100
0001
0010
0100
1000
0001
0010
0001
,
0100
0010
0100
0001
1000
0001
0100
0010
1000
0100
0010
0001
1000
0010
0100
0001
,
0100
0010
1000
0001
0100
0010
1000
0001
0010
0100
1000
0001
0010
0100
1000
0001
,
0100
0010
1000
0010
0100
0001
0010
0001
0100
0010
1000
0100
1000
0001
0010
0100
,
1000
0001
0100
0010
1000
0100
0010
0001
0100
0001
1000
0100
0020
0000
0000
2000
,
0000
0000
3002
0000
2003
0000
0000
0000
0000
0030
3100
0001
0020
0000
0000
2000
,
0000
0000
3002
0000
0203
0000
0300
2030
0001
0000
3020
0000
0032
0000
0000
0200
,
0003
0000
2300
0000
0200
0000
0000
3000
0002
0000
0000
0000
2300
0000
0000
3200
,
0003
0300
0002
0100
0023
0000
0030
0200
0020
0000
2330
0000
3002
0000
0000
0100
,
0000
0000
0100
0000
1000
0000
0000
1003
0020
0000
1000
0030
2000
0000
0000
3001
,
0200
0300
0020
0000
1000
0030
0002
1003
0020
0030
0200
0300
0011
0000
0110
0000
,
1001
0000
0201
0000
1310
0000
1001
0000
0101
0000
0110
0000
1000
0100
0010
0001
,
0100
0010
1000
0001
0100
0001
1000
0010
1000
0100
0010
0100
1000
0001
0100
0010
,
0100
1000
0001
0100
0010
0100
0001
1000
0100
0010
0001
0100
0001
0010
0100
1000
,
0010
0100
0010
1000
0001
0100
0010
0100
0001
1000
0100
0010
0001
1000
0001
0010
,
0100
1000
0010
0100
0001
0010
0001
0100
0010
1000
0100
1000
0001
0010
0100
1000
,
0100
0010
0001
0100
0010
1000
0010
0100
0001
1000
0100
0010
0001
1000
0000
0001
,
1000
0000
0000
0000
0000
2000
3000
0000
2000
3000
0000
0000
0100
1000
0000
0001
,
0010
0000
0000
0000
0000
2000
3000
0000
2000
3000
0000
0000
0010
0100
0000
0001
,
0100
0000
0000
0000
0000
2000
3000
0000
2000
3000
0000
0000
0002
2003
3010
0100
,
0002
0023
0130
1000
0001
0200
0301
1000
0200
0310
0001
0100
1002
0000
0003
0100
,
0020
0030
1000
0002
0103
0000
0000
0000
1000
0100
0010
0000
0002
0000
0003
1000
,
0020
0030
0100
2000
3001
0000
0000
0000
0100
0000
0000
0000
1020
0000
0030
0001
,
0200
0300
0010
2000
3001
0000
0000
0000
1000
0001
0010
0000
0200
0000
0300
0002
,
0100
0000
1003
0100
0010
0000
0001
0000
0100
0000
0010
0000
2001
0000
3000
0100
,
0020
0030
1000
0002
0103
0000
0000
0000
1000
0100
0010
0000
0002
0000
0003
1000
,
0020
0030
0100
2000
3001
0000
0000
0000
0100
0000
0000
0000
0021
0000
0030
0001
,
0200
0300
0010
2000
3001
0000
0000
0000
0001
0100
0010
0000
2000
0000
3000
0002
,
0100
0000
0013
1000
0001
0000
0010
0000
0100
0000
1000
0000
1001
0000
0000
0000
,
1000
0100
0000
0010
0001
0000
0010
0000
0100
0000
1000
0000
0001
0000
0000
0000
,
0001
1000
0100
0010
0001
0000
0000
0000
1000
0000
0000
0000
0101
0000
0000
0000
,
0001
1000
0000
0100
0010
0000
0001
0000
0100
0000
0010
0000
1000
0000
0000
1000
,
0010
0000
0100
0000
1000
0001
0010
0000
1000
0000
0001
0000
1001
0000
0000
0000
,
0001
0100
0000
0010
0100
0000
1000
0000
0010
0000
1000
0000
0001
0000
0000
0000
,
0001
1000
0100
0010
0001
0000
0000
0000
1001
0000
0000
0000
1100
0000
0110
0000
,
0101
0000
0110
0000
1001
0000
0011
0000
1100
0000
1010
0000
0001
0010
0100
1000
,
0001
1000
0010
0100
0010
1000
0001
0100
0010
0100
0001
1000
0010
0000
0000
1000
,
0001
0000
0001
0000
0010
0000
0100
0000
1000
0000
0010
0000
1000
0000
0100
0010
,
0001
0100
0010
1000
0010
0000
0100
0000
1000
0001
0100
0001
0010
0000
1000
0001
,
0010
0000
1000
0000
0001
0000
0010
0000
0100
0000
1000
0000
0001
0000
1000
0010
,
0100
0001
1000
0100
0010
0001
0100
0010
1000
0100
0010
0001
1000
0000
0000
0001
,
1000
0000
0001
0000
1000
0000
0100
0000
0010
0000
0001
0000
1000
0000
0100
0010
,
0001
1000
0010
1000
0001
0000
0010
0000
1000
0010
0100
0001
0100
0000
0010
0000
,
1000
0100
0010
0001
1000
0000
0010
0000
0100
1000
0010
0100
0001
0000
1000
0001
,
1000
0000
0000
0000
0000
0000
0001
0000
0000
1000
0000
0000
0001
0000
0000
0010
0000
0000
0100
0000
0000
1000
0000
0000
0001
0000
1000
0000
0001
0000
0100
0000
0001
0000
0100
0000
0001
0000
0000
0000
0000
0000
0000
0000
0000
0000
0000
0000
,
1000
0000
0010
0100
0001
0000
0100
0000
0010
0000
1000
0010
1000
0001
0000
0001
,
1000
0000
0010
0100
1000
0000
0001
0000
1000
0000
1000
0010
0100
0001
0000
0001
,
0100
0000
1000
0001
0010
0000
0100
0000
1000
0000
0100
0010
1000
0001
0000
0001
,
1000
0001
0010
0100
1000
0001
0100
0000
0010
0000
0100
0000
1001
0000
0010
0100
,
0001
0000
0100
0010
1000
0000
0001
0000
1000
0000
0001
0100
0010
0000
0001
0000
,
1000
0000
0010
0100
0001
0010
0100
1000
0001
0000
0010
1000
0001
0000
1000
0100
,
0010
0001
0010
0100
1000
0000
1000
0000
0100
1000
0100
0010
0001
0000
0010
0100
,
1000
0000
0000
0000
0000
0000
0100
0000
0000
0010
0000
0000
1000
0000
0000
0001
0000
0000
1000
0000
0000
0001
0000
0000
1000
0000
0001
0000
1000
0000
0010
0000
1000
0000
0010
0000
1000
0000
0000
0000
0000
0000
0001
0000
0000
1000
0000
0000
,
0100
0010
0001
0010
0100
1000
0001
0010
,
0001
0000
0100
0000
0010
0000
0000
0000
0100
0000
1000
0000
0001
0000
1000
0010
,
0100
0000
0001
0000
1000
0000
0010
0000
0100
0000
0001
0000
1001
0000
0000
0010
,
0001
0000
0000
0100
0000
0000
1001
0000
0000
0000
0000
0000
0000
0000
0000
1000
0001
1000
0001
0000
0000
0010
0000
0000
,
0100
0000
1000
0000
0001
0000
0100
0000
0010
0000
1000
0000
0001
0000
0000
0100
,
0010
0001
1000
0000
0001
1000
0001
0100
,
0010
0000
1000
0000
0100
0000
0010
0000
0001
0000
1000
0000
1001
0000
0000
0100
,
0001
1000
0100
0010
0011
0110
1001
1000
,
0100
0000
0010
0000
0001
0000
0100
0000
0010
0000
0001
0000
1100
0000
0000
0110
,
0000
1001
0001
0000
0100
1000
0100
0010
,
0001
0000
0100
0000
0001
0000
1000
0000
0100
0000
0010
0000
1001
0000
0000
0011
,
0000
0000
0110
0000
1000
0000
0000
0000
1001
0000
1100
0000
1000
0000
0100
0010
,
0001
0000
1000
0000
0010
0000
0100
0000
0001
0000
1100
0000
0110
0000
0001
1000
,
0001
0010
1000
0100
0000
1001
0110
1100
,
0110
0000
0011
0000
1001
0000
0101
0000
0110
0000
1100
0000
1000
0100
0010
0001
,
1000
0001
0100
0010
1000
0000
0000
0000
0001
0000
0000
0000
0001
0100
0001
1000
,
0100
1000
0010
0100
0001
0100
0010
1000
0010
0100
0001
0010
0100
1000
0001
0010
,
0100
1000
0010
1000
0001
0100
0010
1000
0100
0010
0001
0010
0100
1000
0001
0010
,
0001
0100
0010
1000
0100
1000
0001
0100
0001
1000
0100
0010
0001
0100
0010
1000
,
0001
0010
0100
1000
0001
1000
0100
0010
0001
0100
0010
1000
0010
0100
0001
0010
,
0001
0100
0010
1000
0100
0010
0001
0100
0001
0010
0100
1000
0001
0010
0001
0100
,
0010
1000
0100
0010
0001
0010
0100
1000
0001
0100
0001
1000
0100
1000
0010
0100
,
0001
0100
0010
1000
0010
0100
0001
0010
0100
1000
0001
0010
0100
1000
0010
1000
,
0001
0100
0010
1000
0100
0010
0001
0010
0100
1000
0001
0010
0001
0100
0010
1000
,
0100
1000
0001
0100
0001
1000
0100
0010
0001
0100
0010
1000
0001
0010
0100
1000
,
0001
1000
0100
0010
0001
0100
0010
1000
0010
0100
0001
0010
0001
0100
0010
1000
,
0100
0010
0001
0100
0001
0010
0100
1000
0001
0010
0001
0100
0010
1000
0100
0010
,
0001
1000
0100
1000
0001
0100
0010
1000
0100
0010
0001
1000
0002
0000
0000
0000
,
1000
0000
0000
0020
1000
0000
0030
0000
0103
0000
0000
0002
1000
0000
0003
0000
,
0100
0000
0000
0020
1000
0000
0030
0000
0002
0003
1000
0002
0020
0003
2030
0000
,
0001
0000
0000
0200
0001
0000
0300
0000
3001
0000
0000
2000
0001
0000
3000
0000
,
0010
0000
0000
0200
1000
0000
0000
0300
0020
0030
0100
0002
2000
0000
3000
0000
,
1000
0000
0000
0020
1000
0000
0030
0000
0103
0000
0000
0002
1000
0000
0003
0000
,
0100
0000
0000
0020
1000
0000
0030
0000
2000
3000
0100
0020
2000
0030
3002
0000
,
1000
0000
0000
0020
1000
0000
0030
0000
0103
0000
0000
0002
2000
0000
0003
0000
,
0001
0000
0000
0200
0001
0000
0310
0000
0001
0000
3100
0000
0020
0000
0000
0000
,
1000
0002
0003
0100
1000
0000
0030
0000
0002
0003
1000
0200
0010
0000
0000
0000
,
0001
2000
3000
0001
0010
0000
0000
0300
0002
0103
0000
0020
1000
0000
0000
0000
,
0100
0002
0003
1000
0001
0000
0030
0000
0002
0003
1000
0200
0010
0000
0000
0000
,
0001
2000
3000
0001
1000
0000
0300
0000
0020
0031
1000
0002
1000
0000
0000
0000
,
1000
0020
0030
0100
1000
0000
0003
0000
2000
3000
0010
0200
0001
0000
0000
0000
,
0001
2000
3000
0001
0010
0000
0000
0300
0002
0103
0000
0000
0020
0000
0100
0000
,
1000
0002
1003
0100
1000
0000
0100
0030
0202
0300
1003
0000
1001
0000
0000
0000
,
0101
0000
0000
0000
1001
0000
0000
0000
1000
0001
0010
0001
1000
0000
0000
0001
,
1000
0000
0001
0010
0100
0000
0000
0010
1000
0000
0001
0000
1000
0000
0000
0000
,
1000
0100
0010
0001
0100
0000
0000
0000
1000
0000
0001
0010
0100
0000
0010
0000
,
1000
0100
0010
0001
0100
0010
1000
0000
,
0001
0000
0000
0000
1000
0000
0001
1000
0010
0000
1000
0000
0001
0000
0000
1000
,
0001
0000
0010
0100
1000
0000
0000
0100
0001
0000
1000
0000
0010
0000
0000
0000
,
0100
0001
1000
0100
2000
0000
0000
0000
3001
0000
0010
0100
0001
0000
2000
3000
,
0001
0000
0200
0300
0010
0000
2000
3000
0001
0000
2000
3000
0002
0000
0000
0000
,
1000
0000
0013
0010
0100
0100
2001
0000
,
0001
0000
0000
0000
3000
0000
0100
0010
0001
0000
0000
0000
0010
0000
0000
0000
0100
0000
0000
0000
1000
0000
0000
0000
0001
0000
0000
0000
0000
0000
0000
0000
,
2000
0010
3001
0200
,
0310
0000
1000
0001
0010
0000
1000
0000
0100
0000
0010
0000
0002
0000
0000
0000
,
1003
0000
0001
0100
0020
0000
1030
0000
0100
0000
0010
0000
0002
0000
0000
0000
,
1000
0000
0000
0000
0003
0000
1000
0001
1000
0000
0000
0000
0001
0000
0000
0000
0100
0000
0000
0000
0010
0000
0000
0000
1000
0000
0000
0000
0000
0000
0000
0000
,
0002
0000
0000
0000
0100
0000
0000
0000
0013
0000
1000
0100
0010
0000
0001
0000
,
1000
0000
0001
1000
0001
0000
1000
0000
0100
0000
0010
0000
0001
1000
0100
1000
,
0010
1000
0010
0100
0001
0010
0001
1000
0010
0100
0001
1000
0010
0000
1000
0001
,
0010
0100
1000
0000
0010
0000
0001
0010
0000
0100
1000
0000
0010
0000
1000
0100
,
0010
0001
0000
0020
0100
0000
1030
0100
0000
0010
0000
1000
0001
0000
0100
0010
,
0001
1000
0001
0000
0100
0000
0010
0100
0000
1000
0001
0000
0010
0000
0100
0001
,
0000
0010
0000
2000
0001
0000
3100
0010
0001
1000
0100
0010
0001
0000
0010
0001
,
0010
0100
1000
0000
0010
0000
0001
1000
0000
0010
1000
0000
0001
0000
1000
0100
,
0010
0001
0000
0020
0100
0000
1030
0100
0000
0010
0000
0001
1000
0000
0100
0010
,
0001
1000
0001
0000
0010
0000
0100
1000
0000
1000
0001
0000
0010
0000
1000
0100
,
0000
0010
0001
1000
0001
0200
0001
0000
0310
0000
1000
0000
0020
0000
0030
0000
,
0100
0000
0001
0000
0010
0100
0000
2000
0001
0000
3000
0000
0001
0000
1000
0000
,
0001
0010
0000
0200
1000
0000
0000
0000
0310
0000
0000
0000
0002
0000
0003
0000
,
1000
0000
0010
0000
1000
0100
0000
0001
1000
0000
0001
0000
0200
0000
0300
0000
,
2000
0000
0010
0100
0001
3010
1002
0003
,
1000
0000
0001
0000
1000
0100
0000
0100
0010
0000
0001
0000
0020
0000
0030
0000
,
0100
1000
0000
0002
1000
0000
0000
0000
0010
0000
0003
0000
1002
0000
0103
0000
,
0001
0010
0100
0000
1000
0000
0001
1000
0001
0000
0100
0000
0010
0000
1000
0000
,
0001
0000
0100
0000
0001
1000
0010
0000
0001
1000
0001
0000
0010
0100
1000
0010
,
1000
0100
0010
0001
0100
0010
1000
0010
0100
0001
0100
1000
0001
0010
0100
1000
,
0001
1000
0100
0010
0000
0100
0010
0002
0003
0010
0100
1000
0001
1000
0100
0010
,
0001
0100
0010
1000
0001
1000
0100
0010
0001
0100
0001
1000
0010
0100
0010
1000
,
0001
0100
0010
1000
0000
0020
0030
0100
1000
0001
0000
0000
1000
0100
0010
0001
,
0100
0010
1000
0001
0100
0001
1000
0100
1000
0001
1000
0010
0100
0001
0010
0100
,
1000
0001
0100
0010
1000
0010
0100
0001
0010
0100
1000
0100
0010
0001
1000
0100
,
1000
0010
0100
0001
0100
0010
1000
0100
0010
0001
1000
0100
0010
0100
1000
0001
,
0100
0010
0000
0100
2000
0000
0000
0000
0000
3000
0001
0010
0200
1300
0010
0100
,
0001
1000
0100
0010
0001
1000
0001
0100
0010
1000
0200
1300
0010
0100
0001
0010
,
0001
1000
0010
1000
0001
1000
0001
0010
0000
1000
0020
0030
1000
0010
0100
0001
,
0100
0010
1000
0001
0010
0001
1000
0100
1000
0002
0003
0100
0010
0001
0010
0100
,
1000
0001
0010
0001
0100
0010
1000
0100
1000
0001
0100
0000
1000
0001
0010
0100
,
1000
0000
0000
0001
0010
0100
0010
0001
1000
0001
0100
0000
0001
0010
0100
1000
,
0010
0000
0000
0010
1000
0001
1000
0100
0010
0001
0100
0000
1000
0100
0010
0100
,
1000
0000
0000
0010
1000
0001
1000
0100
0010
0001
0100
0000
0010
1000
0100
0010
,
0001
0000
0000
0010
1000
0001
1000
0100
0000
0000
0000
0000
1002
0000
0003
1000
,
0010
0000
0001
0000
0020
0000
0030
0100
0001
0000
1000
0000
0200
0000
0000
0000
,
0001
0000
0000
0000
1000
0000
0001
0000
1300
0000
0000
0000
1002
0000
0003
0001
,
1000
0000
0001
0000
0020
0000
0030
0100
1000
0000
0001
0000
0200
0000
0300
0000
,
1000
0000
0001
0010
0200
0000
1300
0000
0002
0000
0003
0100
0001
0000
0020
0000
,
1000
0000
0000
0000
0130
0000
0000
0000
0012
0000
0003
0010
0200
0000
0300
0000
,
2000
3000
0200
0310
0002
0003
2000
3000
,
0100
0000
0000
1000
0020
0000
0000
0000
0100
0000
0000
0000
0001
0000
0000
0000
,
1000
0000
0000
0000
1000
0000
0001
0000
1030
0000
0000
0000
0002
0000
0003
0020
,
1000
0030
0200
0300
0020
0000
0030
0200
0001
0300
2000
3000
0200
0000
0000
0000
,
0010
0000
0000
0000
0001
0000
1000
0000
0301
0000
0000
0000
1002
0000
0003
2000
,
0010
3000
0200
0300
0020
0000
0030
0002
0100
0003
0020
0030
0200
0000
0000
0300
,
2000
3000
0001
0010
0200
0000
0010
0300
2000
0000
3000
0100
0020
0030
0002
0000
,
1000
0000
0000
0003
1000
0000
0200
0300
0020
0000
0030
0001
2000
0000
3000
0000
,
0020
0030
2000
3100
0002
0003
0020
0000
,
0130
0000
2000
3000
0200
0000
0000
0000
0001
0000
0300
0000
0010
1000
0001
0100
,
0001
0010
0100
1000
0001
1000
0010
0100
0001
1000
0100
0020
0001
0000
0000
1000
,
0000
0000
1000
0000
1030
0000
0001
0000
1001
0000
0100
0020
0001
0030
0100
0001
,
1000
0000
0100
0010
0001
0000
1000
0000
0010
0001
1000
0002
0010
0000
0000
1000
,
0000
0000
0100
0000
0013
0000
0001
0000
1001
0000
0100
0020
1000
0030
0001
1000
,
0001
0000
1000
0020
1000
0030
0100
0000
1000
0100
0010
0002
0010
0000
0000
1000
,
0000
0000
0010
0000
0103
0000
1000
0000
0100
0000
0010
0200
1300
0000
0020
0031
,
0020
0030
0200
0300
2000
3000
0010
0000
1000
0001
0100
0020
0100
0000
0000
1000
,
0000
0000
0001
0000
0100
0000
1030
0000
0001
0000
0010
0200
1000
0000
0000
0001
,
0000
0000
1000
0000
0001
0000
0310
0000
1000
0100
0010
0002
1003
0010
0100
0001
,
1000
0010
1000
0100
0010
0001
0100
0001
2000
3001
0010
0200
1300
0001
0100
0010
,
1000
0001
0010
0002
0103
0010
1000
0100
0010
0001
0100
0020
1030
0010
0100
0001
,
0010
0001
0100
0010
1000
0010
0100
0001
1000
0100
0010
0002
1003
0010
0100
0001
,
0010
0001
1000
0020
0130
0001
1000
0100
0010
0001
1000
0020
0130
0001
0010
0100
,
1000
0100
0010
0001
0100
0001
0010
0100
1000
0010
1000
0002
0013
0100
1000
0010
,
0100
0010
1000
0001
0100
0010
0100
0001
0010
0100
1000
0020
0130
0001
0010
0100
,
1000
0010
1000
0001
1000
0100
0010
0001
1000
0001
0100
0020
1030
0010
0100
0010
,
1000
0100
0010
0001
0100
0010
1000
0010
0100
0001
0100
0010
1000
0000
0000
0000
,
1020
0000
0000
0000
0000
0000
0000
0000
0000
0030
0000
0000
1000
0000
0000
0000
0000
0000
0000
0000
0000
0000
0000
0000
0002
0003
0000
0020
0030
0000
0200
0300
0000
2000
3000
0000
0001
0000
0000
0000
0000
0000
1000
0000
0000
0100
0000
0000
,
0010
0000
0001
0000
1000
0000
0001
0010
0100
0000
1000
0000
0001
0000
1000
0001
,
1000
0000
0001
0000
1001
0000
0000
0000
0000
0000
0001
1000
0010
0000
1000
0010
,
1000
0000
0001
0000
1000
0000
0001
0100
0010
0000
1000
0000
0010
0000
0100
1000
,
0010
0000
0001
0000
0101
0000
0000
0000
0000
0000
0000
0000
1000
0000
0100
0010
,
0001
0000
0100
0000
0010
0000
1000
0001
0010
0000
0100
0000
1000
0000
0000
0000
,
1000
0000
0001
0000
0020
0000
0030
0000
0200
0000
0300
0000
1000
0000
0100
0001
,
1000
0000
0100
0000
0010
0000
0001
1000
0100
0000
0010
0000
2000
3100
0010
0001
,
0100
0010
1000
0010
0100
0001
0010
0100
1000
0001
0100
0010
2000
3100
0010
0001
,
1000
0010
0200
0302
2003
3010
0100
0001
0020
0130
1000
0010
2000
3100
0010
0002
,
0203
0301
1000
0001
0100
0001
1000
0100
0010
0001
1000
0010
0200
0301
0010
0001
,
0100
0010
2000
3020
0230
0301
0100
0010
2000
3100
0010
0002
2003
3010
0100
0001
,
0010
0100
1000
0001
1000
0010
0100
0001
0010
0100
1000
0001
0200
0301
0010
0100
,
1000
0010
0200
0302
2003
3010
1000
0100
0020
0031
1000
0010
0200
0301
0010
0200
,
2300
3010
0100
0001
0010
0001
0100
0001
0200
0310
1000
0200
0320
0031
1000
0010
,
0100
0001
1000
0002
0203
0310
1000
0200
0320
0031
0100
0001
0010
0100
1000
0002
,
2003
3010
0100
0002
0023
0130
1000
0001
0100
0010
2000
3020
0230
0301
0010
0100
,
1000
0100
0020
0032
2003
3010
0100
0001
1000
0100
0020
0032
2003
3010
0100
0001
,
0010
0000
0100
0000
2000
0000
3002
0000
0203
0000
0310
0000
1000
0000
0000
0000
0004
0003
0040
0030
0400
0300
4000
3000
0M0M
0000
0000
0000
0000
0000
M0M0
0000
,
0000
0000
0M0M
0000
0000
0000
M0M0
0000
1000
0100
0010
0001
1000
0000
0010
0000
,
0100
0010
1000
0001
0100
0010
2000
3000
,
0001
0100
0001
0000
0010
0000
1000
0100
,
0010
0001
1000
0100
0010
1000
0002
0003
,
0010
0001
1000
0000
0100
0000
0010
0001
,
1000
0010
1000
0000
0010
0001
0010
1000
,
0001
1000
0010
0000
1000
0100
0010
0001
,
1000
0010
1000
0000
0010
0001
0100
0001
,
1000
0000
0100
0000
0010
0100
0001
1000
0100
0010
0001
0100
0010
0000
1000
0000
,
0100
0000
0001
0010
0001
0000
0100
0000
0010
0000
1000
0000
0010
0000
1000
0010
,
1000
0100
0010
0001
1000
0000
0010
0000
0100
0000
0001
0000
0010
0100
1000
0010
,
0100
0001
0010
0100
1000
0010
0100
0001
0100
0010
1000
0010
0100
0000
0001
0000
,
0010
0100
1000
0010
1000
0100
1001
0010
,
1000
0000
0001
0100
0001
0000
1000
0000
0010
0000
0100
0000
1000
0000
0001
0010
,
0100
1000
0010
0100
0001
0000
1000
0000
0010
0000
0100
0000
0001
0010
0100
1000
,
0010
0100
0001
1000
0010
1000
0100
0010
0001
0100
0001
1000
0100
0010
0001
1000
,
0010
0000
0000
1000
0000
0000
0100
0000
0000
0010
0000
0000
0001
0000
0010
0000
0100
0000
1000
0000
0100
0000
0010
0000
0001
0000
0100
0000
0001
0000
1000
0000
0010
0000
1000
0000
0001
0000
0000
0000
0000
0000
0000
0000
0001
0000
0000
0000
,
0100
0010
1000
0001
0000
0001
0010
0000
0010
0100
0000
0100
,
1000
0000
1000
0010
0000
0100
0010
0001
1000
0001
0000
0001
,
0010
0100
1000
0001
0000
0001
0100
0000
0100
0010
0000
0010
,
1000
0000
1000
0001
0000
0001
0100
0001
1000
0100
0000
0001
,
0010
0100
1000
0001
0000
1000
0001
0000
0001
1000
0000
1000
,
0010
0000
0010
0100
0000
0100
1000
0100
0010
0001
0000
0010
,
1000
0000
1000
0100
0000
0100
0010
0000
0010
0001
1000
0010
,
0100
0001
1000
0100
0010
0001
1000
0000
0000
1001
0000
0001
,
0010
0000
0010
0100
0000
0100
1000
0000
1000
0001
0000
0001
,
0100
0000
0100
0010
0000
0010
1000
0100
0010
0001
0000
0001
,
1000
0000
1000
0010
0000
0010
0100
0000
0100
0001
0000
0001
,
1000
0000
1000
0010
0000
0001
0010
0100
1000
0001
0000
0001
,
0100
0000
0100
0010
0000
0010
1000
0000
1000
0010
0000
0010
,
0100
0000
0100
0001
0000
0001
0010
0100
1000
0001
0000
0001
,
0010
0000
0010
0100
0000
0100
1000
0000
1000
0001
0010
0001
,
1000
0100
0010
0001
1000
0010
0100
0001
0100
0010
0000
1000
,
0100
0000
0100
0010
0000
0010
0001
0000
0001
1000
0000
1000
,
0010
0000
0010
0100
0000
0100
0001
0000
0001
0010
0000
0010
,
0100
0000
0100
1000
0000
1000
0001
0000
0001
0100
0000
0100
,
0010
0000
0010
1000
0000
0001
1000
0000
0100
0010
0000
0000
,
1001
0000
0000
0001
0000
0000
0110
0000
1000
0100
0010
0000
,
0001
0000
0010
0000
0000
0000
0100
0000
0000
0000
1000
0000
0010
0000
0100
0000
0000
0000
0001
0000
0000
0100
0000
0000
,
0002
0003
0020
0030
0100
0010
2000
3000
,
0020
0000
0000
0030
0000
0000
0100
0000
0000
0010
0000
0000
0002
0000
0000
0003
0010
0000
0200
0000
1000
0300
0000
0000
,
0001
0000
0000
0200
0000
0000
0310
0000
0000
1000
0001
0000
0200
0000
0001
0300
0000
0000
1000
0000
0000
0100
0000
0000
,
0020
0030
0002
0003
0100
0010
2000
3000
,
0020
0000
0000
0030
0000
0000
0100
0000
0000
0001
0000
0000
2000
0000
0000
3000
0001
0000
0200
0000
0001
0300
0000
0000
,
1000
0000
0001
0020
0000
0000
0130
0000
0000
1000
0100
0000
0010
0000
0001
0000
0000
0000
2001
0000
0000
3100
0000
0000
,
0010
0002
0023
0230
2300
3001
0020
0031
,
2000
3010
1000
0100
0010
0001
0200
0310
,
1000
0100
0001
1000
0010
0001
0010
0100
,
2000
3002
0023
0230
2300
3100
0002
1003
,
0020
0130
0002
1003
0010
0001
0010
0100
,
0002
1003
0010
0001
0010
0100
2000
3001
,
0010
0200
2300
3200
0320
0031
2000
3001
,
0020
1030
0010
0001
1000
0001
0020
0130
,
0001
1000
0001
0100
0010
0001
2000
3100
,
0020
0031
0200
0310
2000
3001
2000
3100
,
0020
0031
2000
3001
0100
0001
0010
0100
,
1000
0000
0000
0000
0100
0000
0010
0000
0001
0000
0000
0000
1000
0000
0000
0000
0000
0000
0100
0000
0000
0000
0000
0000
0010
0000
0000
0000
0000
0000
0001
0000
0000
0000
0000
0000
2000
0000
0000
0000
0000
0000
0000
0000
0000
3000
0000
0000
,
0010
0000
0000
0001
0100
0010
1000
0100
0010
0001
0000
0001
1000
0000
0002
0000
,
2003
0000
3000
0000
0002
0000
0000
0000
0103
0000
0000
0010
0000
1000
0100
0010
,
0001
0100
0000
0010
0000
0000
0002
0000
2003
0000
3000
0000
0020
0000
0000
0030
,
0100
0000
0000
0001
0010
0100
1000
0010
0100
0001
0000
0001
1000
0000
0002
0000
,
2003
0000
3000
0000
0200
0000
0000
0300
0010
0000
0000
0001
0000
0010
0000
0100
,
1000
0001
0000
0100
0000
0000
0002
0000
0023
0000
0230
0000
2300
0000
0000
0000
,
3001
0000
0000
0010
1000
0001
0010
0100
1000
0001
0000
1000
0001
0000
0002
0000
,
2003
0000
0000
0000
0000
0000
3000
0000
0000
0000
0000
0000
2000
0000
0100
0000
0010
0000
0000
0000
0000
0000
0000
0000
3001
0000
0000
0000
0000
0000
0000
0000
0000
1000
0000
0000
0010
0000
0000
0100
0000
0000
0000
0000
0000
0010
0000
0000
,
0100
0001
0000
0001
1000
0000
0200
0000
0320
0000
0032
0000
2003
0000
0000
0000
,
3001
0000
0000
0100
1000
0010
0000
1000
0100
0010
0000
0001
0000
0000
0020
0000
,
2030
0000
3200
0000
2300
0000
3002
0000
1003
0000
0000
1000
0000
0100
0010
0001
,
0010
0000
0000
0100
0000
0000
1000
0000
0100
0000
0010
0000
0001
0000
0010
0000
0100
0000
1000
0000
0010
0000
1000
0000
0001
0000
0100
0000
0001
0000
0010
0000
0100
0000
1000
0000
0001
0000
0000
0000
0000
0000
1000
0000
0000
0000
0000
0000
,
0001
0100
0010
0000
0001
1000
0010
1000
,
0001
0000
1000
0100
0001
1000
0001
0010
,
1000
0000
0000
0001
0000
0000
1000
0001
1000
0001
0000
0000
0001
0010
0100
1000
0000
0000
1001
0000
0000
1000
0000
0000
,
0100
0010
0001
0000
0001
1000
0010
1000
,
0001
0000
0001
0010
0001
1000
0001
0000
,
0010
0000
0000
0100
0000
0000
1000
0001
1000
0001
0000
0000
1000
0001
1000
0001
0000
0000
1001
0000
0000
0100
0000
0000
,
0010
1000
0001
0000
0001
0010
1000
0010
,
0001
0000
1000
0010
0001
1000
0001
0000
,
0001
0000
0000
1000
0000
0000
0010
0100
0010
0100
0000
0000
0010
0100
0010
0100
0000
0000
1000
0000
0000
0010
0000
0000
,
0100
1000
0001
0000
0001
1000
0001
1000
,
0010
0000
0100
0000
1000
0000
0001
0000
0010
0000
0100
0000
1000
0100
0010
0001
,
1000
0000
0000
0010
0000
0000
0100
0000
0000
0001
0000
0000
1000
0000
0001
0000
1000
0000
0001
0000
0000
0100
0000
0000
0010
0000
0100
0000
0010
0000
0100
0000
0000
0001
0000
0000
1002
0000
0000
0003
0000
0000
0010
0000
0000
0000
0000
0000
,
1000
0000
0010
0000
0100
0000
1000
0000
0002
0003
0100
0000
0002
0003
1000
0000
,
0010
0000
0100
0000
0001
0000
1000
0000
0002
0003
0100
0000
0020
0030
0001
0000
,
1000
0000
0010
0000
1000
0000
0100
0000
0020
0030
1000
0000
0020
0030
0001
0000
,
0010
0000
1000
0000
0100
0000
0001
0000
0020
0030
0001
0000
2000
3000
0001
0000
,
0010
0000
1000
0000
0001
0000
0010
0000
2000
3000
0100
0000
2000
3000
0001
0000
,
0010
0000
0100
0000
1000
0000
0010
0000
2000
3000
0001
0000
2000
3000
0010
0000
,
1000
0000
0100
0000
0010
0000
0001
0000
2000
3000
0001
0000
0020
0030
1000
0000
,
0010
0000
0100
0000
1000
0000
0010
0000
0002
0003
2000
3000
0200
0300
0010
0000
,
0001
0000
0100
0000
0010
0000
1000
0000
0200
0300
0001
0000
0200
0300
0010
0000
,
1000
0000
0100
0000
0010
0000
0001
0000
0200
0300
0010
0000
2000
3000
0001
0000
,
0010
0000
0100
0000
1000
0000
0001
0000
2000
3000
0010
0000
2000
3000
0001
0000
,
1000
0000
0010
0000
0100
0000
0001
0000
2000
3000
0001
0000
0020
0030
0100
0000
,
0010
0000
1000
0000
0001
0000
0100
0000
0020
0030
1000
0000
0020
0030
0100
0000
,
1000
0000
0100
0000
0001
0000
1000
0000
0020
0030
0100
0000
0020
0030
0100
0000
,
1000
0000
0100
0000
0010
0000
1000
0000
0020
0030
0100
0000
0002
0003
1000
0000
,
0100
0000
0010
0000
1000
0000
0100
0000
0002
0003
2000
3000
0200
0300
0001
0000
,
1000
0000
0100
0000
0010
0000
0001
0000
0200
0300
0001
0000
0200
0300
0010
0000
,
1000
0000
0010
0000
0001
0000
1000
0000
0200
0300
0001
0000
2000
3000
0001
0000
,
0010
0000
0000
0000
0000
0000
0000
0000
0100
0000
0000
0000
0000
0000
0000
0000
1000
0000
0000
0000
0000
0000
0000
0000
0001
0000
0000
0000
0000
0000
0000
0000
2000
0000
0000
0000
3000
0000
0000
0000
0010
0000
0000
0000
0000
0000
0000
0000
2000
0000
0000
0000
3000
0000
0000
0000
0002
0003
0000
0000
0000
0000
0000
0000
,
2000
3000
0000
0000
0000
0000
0000
0000
0020
0030
0000
0000
0000
0000
0000
0000
0200
0300
0000
0000
0000
0000
0000
0000
0002
0003
0000
0000
0000
0000
0000
0000
2000
0000
0000
0000
3000
0000
0000
0000
0020
0030
0000
0000
0000
0000
0000
0000
2000
0000
0000
0000
0000
0000
0000
0000
3200
0300
0000
0000
0000
0000
0000
0000
,
0020
0000
0000
0030
0000
0000
0000
0000
0000
0000
0000
0000
0000
0000
0000
0000
0000
0000
0000
0000
0000
0000
0000
0000
2000
0000
0000
3000
0000
0000
0000
0000
0000
0000
0000
0000
0000
0000
0000
0000
0000
0000
0000
0000
0000
0000
0000
0000
0002
0000
0000
0003
0000
0000
0000
0000
0000
0000
0000
0000
0000
0000
0000
0000
0000
0000
0000
0000
0000
0000
0000
0000
0020
0000
0000
0030
0000
0000
0000
0000
0000
0000
0000
0000
0000
0000
0000
0000
0000
0000
0000
0000
0000
0000
0000
0000
0200
0000
0000
0000
0000
0000
0000
0000
0000
0000
0000
0000
0000
0000
0000
0000
0000
0000
0000
0000
0000
0000
0000
0000
2300
0000
0000
3000
0000
0000
0000
0000
0000
0000
0000
0000
0000
0000
0000
0000
0000
0000
0000
0000
0000
0000
0000
0000
0020
0000
0000
0000
0000
0000
0000
0000
0000
0000
0000
0000
0000
0000
0000
0000
0030
0000
0000
0000
0000
0000
0000
0000
0200
0000
0000
0000
0300
0000
0000
0000
0000
0000
0000
0000
0000
0000
0000
0000
0000
0000
0000
0000
0000
0000
0000
0000
,
2000
0000
0000
0000
3000
0000
0000
0000
0000
0000
0000
0000
0000
0000
0000
0000
0000
0000
0000
0000
0000
0000
0000
0000
0020
0000
0000
0000
0030
0000
0000
0000
0000
0000
0000
0000
0000
0000
0000
0000
0000
0000
0000
0000
0000
0000
0000
0000
0002
0000
0000
0000
0003
0000
0000
0000
0000
0000
0000
0000
0000
0000
0000
0000
0000
0000
0000
0000
0000
0000
0000
0000
2000
0000
0000
0000
3000
0000
0000
0000
0000
0000
0000
0000
0000
0000
0000
0000
0000
0000
0000
0000
0000
0000
0000
0000
0020
0000
0000
0000
0000
0000
0000
0000
0000
0000
0000
0000
0000
0000
0000
0000
0030
0000
0000
0000
0000
0000
0000
0000
2000
0000
0000
0000
3000
0000
0000
0000
0000
0000
0000
0000
0000
0000
0000
0000
0000
0000
0000
0000
0000
0000
0000
0000
0020
0000
0000
0000
0000
0000
0000
0000
0000
0000
0000
0000
0000
0000
0000
0000
0000
0000
0000
0000
0000
0000
0000
0000
0230
0000
0000
0000
0000
0000
0300
0000
0000
0000
0000
0000
0000
0000
0000
0000
0000
0000
0000
0000
0000
0000
0000
0000
,
2000
3000
0000
0000
0200
0300
0000
0000
0020
0030
0000
0000
2000
3000
0000
0000
0020
0000
0000
0000
0032
0003
0000
0000
0200
0000
0000
0000
2300
3000
0000
0000
,
0020
0030
0000
0000
0002
0003
0000
0000
2000
3000
0000
0000
0200
0300
0000
0000
0002
0000
0000
0000
2003
0000
0000
0000
3MM1
0000
0000
0000
0000
0000
0000
0000
,
0000
0000
0000
0000
,
0000
0000
0000
0000
,
0000
0000
0000
0000
,
2001
0000
0100
0000
0010
3000
0200
0300
0020
0000
0000
0030
0002
0000
0000
0003
,
2000
0010
0100
0000
0000
0000
0000
0000
0000
0000
0000
0000
3002
0000
0000
0003
0000
0000
0200
0000
0000
0300
0000
0000
0002
0000
0000
0000
0000
0000
0000
0000
0000
0003
0000
0000
2000
0000
0000
0000
0000
0000
3000
0000
0000
0000
0000
0000
,
0200
0010
0001
0000
0000
0000
0000
0000
0000
0300
0000
0000
0020
0000
0000
0000
0000
0000
0000
0000
0000
0030
0000
0000
0002
0100
0010
0000
0000
0000
0000
0000
0000
0003
0000
0000
0020
0000
0000
0000
0000
0000
0000
0000
0000
0030
0000
0000
,
0200
0000
1000
0300
0002
0000
0100
0003
0020
0000
0000
0030
2000
0000
0000
3000
,
0020
0030
0200
0300
2000
3000
0200
0300
0020
0000
0000
0030
0002
0000
0000
0003
,
2000
0001
0100
0000
0000
0000
0000
0000
0000
3000
0000
0000
0200
0000
0000
0300
0000
0000
0002
0000
0000
0003
0000
0000
2000
0000
0000
0000
0000
0000
0000
0000
0000
3000
0000
0000
0002
0000
0000
0000
0000
0000
0000
0000
0000
0003
0000
0000
,
2000
0010
0100
0000
0000
0000
0000
0000
0000
3000
0000
0000
0020
0000
0000
0000
0000
0000
0000
0000
0000
0030
0000
0000
0002
0100
0010
0000
0000
0000
0000
0000
0000
0003
0000
0000
0020
0000
0000
0000
0000
0000
0000
0000
0000
0030
0000
0000
,
0200
0000
0000
0000
1300
0000
0000
0000
0020
0000
0030
0000
2000
3000
0000
0000
0020
0000
0000
0000
0130
0000
0000
0000
2000
0000
0000
0000
0001
0000
0000
0000
,
0000
0000
0000
3000
0000
0000
0000
0000
0000
0000
0000
0000
1000
0100
0010
0001
,
1002
0000
0000
0000
1000
0000
1000
1000
0000
1003
0000
0010
2000
3100
0020
0031
,
1002
0000
0000
0000
1000
0000
1000
1000
0000
1003
0000
0001
0200
0310
2000
3010
,
0201
0000
0000
0000
0010
0000
0010
0010
0000
0010
0000
0010
0000
0010
0000
0010
,
0010
0000
0000
0000
0001
0000
0001
0001
0000
0001
0000
0301
1000
0100
0010
0001
,
1002
0000
0000
0000
1000
0000
1000
1000
0000
1003
0000
0001
2000
3010
0200
0301
,
1002
0000
0000
0000
0010
0000
0010
0013
2000
0001
0000
3001
0200
0001
0000
0301
,
1002
0000
0000
0000
0100
0000
0100
0100
0000
0100
0000
0100
0000
0100
0000
0100
,
0100
0000
0000
0000
1000
0000
1000
1000
0000
1000
0000
1000
0000
1000
0000
1003
,
1001
0000
0000
0000
1100
0000
0000
0000
0110
0000
0000
0000
1000
0100
0010
0001
,
0200
0000
0000
0000
0000
0000
0000
0000
0000
0001
0000
0000
0000
0000
0300
0000
0020
0000
1030
0000
0002
0000
0003
0000
,
0200
0000
0001
0000
0000
0000
0000
0300
0002
0000
0000
0003
0010
0001
1000
0001
,
0200
0000
0000
0000
0000
0000
0001
0300
2000
0000
0000
0000
0001
0000
0000
0000
,
0000
0000
0010
0000
0000
0000
0000
0000
0001
0000
0000
0000
3001
0010
0100
1000
,
0200
0000
0000
0000
0000
0000
0001
0000
0000
0000
0000
0000
0010
0000
0000
0000
0000
0000
1300
0000
0000
0000
0000
0000
0200
0000
0000
0000
0300
0000
1000
0000
0020
0000
0000
0000
1030
0000
0000
0000
0002
0000
0010
0000
0000
0003
0000
0000
,
0200
0000
0001
0000
0010
0000
1000
0300
0020
0000
1030
0000
0200
0000
0001
0300
,
0020
0000
0000
0000
0000
0000
0000
0000
0100
0000
0100
0000
0100
0000
0100
0030
,
1000
0100
1000
0000
0010
0100
0010
0000
0001
1000
0001
0000
1000
0100
0010
0001
,
0010
0000
0001
0100
0001
0000
1000
0000
0001
0100
0001
0000
2000
3000
0002
0003
,
2000
3000
0001
0100
0001
0000
1000
0000
0001
0100
0001
0000
0200
0300
2000
3000
,
0020
0030
1000
0001
1000
0000
0010
0000
1000
0001
1000
0000
0010
0000
1000
0000
,
0100
0000
1000
0001
1000
0000
0010
0000
0001
1000
0001
0000
1000
0100
0010
0001
,
0010
0000
1000
0001
1000
0000
0001
0000
0010
0100
0010
0000
2000
3000
0200
0300
,
0002
0003
1000
0010
1000
0000
0100
0000
2000
3001
0010
0000
0200
0000
0000
0300
,
0002
0003
0010
0100
1000
0000
0001
0000
0010
0100
1000
0000
0010
0000
0100
0000
,
0001
0000
1000
0010
1000
0000
0001
0000
0010
0100
1000
0001
1000
0010
0100
0001
,
2000
0000
0000
3000
0000
0000
0001
0000
0000
0000
0000
0000
0100
0000
0000
0000
0000
0000
0001
0000
0000
0000
0000
0000
2000
0000
0000
0000
3000
0000
0001
0000
0020
0000
0000
0000
0130
0000
0000
1000
0020
0000
0100
0000
0030
0001
0000
0000
,
2000
0000
3001
0000
1000
0000
0010
0000
0002
0000
1003
0000
0020
0130
1000
0001
,
0200
0000
1300
0000
0010
0000
0001
0000
2000
0000
3100
0000
0001
0010
0001
0010
,
0100
0000
0001
0000
1000
0000
0001
0000
0100
0000
0001
0000
0010
0001
0010
0100
,
2000
0000
0000
0000
0000
0000
3100
0000
0000
0000
0000
0000
0010
0000
0000
0000
0000
0000
0001
0000
0000
0000
0000
0000
0200
0000
0000
0000
0300
0000
1000
0000
0020
0000
0000
0000
0130
0000
0000
1000
0002
0000
0100
0000
0003
1000
0000
0000
,
0200
0000
0301
0000
0010
0000
0100
0000
2000
0000
3001
0000
0020
0031
1000
0010
,
0100
0001
0010
0100
0020
0000
0000
0000
1000
0000
0000
0000
1000
0000
0000
0030
,
2000
3001
1000
0000
0010
0100
0010
0000
1000
0100
0010
0001
1000
0010
0100
0001
,
0010
0100
1000
0001
0000
1000
0100
0010
0000
1000
0100
0010
0001
0010
0100
1000
,
0001
1000
0010
0100
0000
1000
0100
0010
0000
1000
0100
0010
0001
0010
0100
1000
,
0001
1000
0010
0100
0000
1000
0100
0010
0000
1000
0100
0010
0001
0010
0100
1000
,
0001
1000
0010
0100
0000
1000
0100
0010
0000
1000
0100
0010
0001
0010
0100
1000
,
0001
0100
0010
0000
0001
0010
0001
0000
1000
0100
1000
0000
0001
0010
0100
0000
,
1000
0100
0010
0000
0001
0010
0001
0000
0010
0100
1000
0000
0100
0010
0100
0000
,
1000
0100
0010
0000
1000
0001
0100
0000
1000
0001
0010
0000
0001
0010
0100
0000
,
1000
0100
0010
0000
1000
0001
0100
0000
1001
0000
0000
0000
0110
0000
0000
0000
,
1001
0000
1000
0000
0100
0000
0010
0001
1000
0010
0000
0100
0001
0010
1000
0000
,
0100
0010
0000
0001
1000
0010
0001
0000
1001
0000
0000
0000
1000
0001
0010
0100
,
1000
0001
0000
0001
1000
0010
0100
1000
0200
0300
0010
0000
0001
1000
0010
0000
,
1000
0001
0000
0001
1000
0010
0200
0300
0001
0000
1000
0000
0001
0010
0100
1000
,
0001
0000
0100
0000
0010
0000
1000
0001
1000
0010
0000
0100
0001
1000
0010
0000
,
1000
0010
0000
0100
0001
0100
0010
0000
1001
0000
0000
0000
0001
0010
0100
1000
,
0020
0030
0100
0000
0001
0100
0000
1000
0001
0010
0000
1000
0001
0010
0100
2000
,
0001
0000
0000
0000
0001
0000
0000
3000
0001
1000
0001
0000
1000
0010
0100
0001
,
2000
0000
0000
0000
0000
0000
0000
0000
0000
3000
0000
0000
0002
0000
0000
0000
0000
0000
0000
0000
0000
0003
0000
0000
0200
0000
0000
0000
0300
0000
0000
0000
0020
0000
0000
0000
1030
0000
0000
0000
0002
0000
0000
0000
0003
0000
0000
0000
,
2000
0000
3000
0100
0002
0000
0000
0003
0020
0000
0001
0030
2000
3100
0010
0001
,
2000
0000
0000
0000
0000
0000
0000
0000
0000
3000
0000
0000
0002
0000
0000
0000
0000
0000
0000
0000
0000
0003
0000
0000
2000
0000
0000
0000
3000
0000
0000
0000
0200
0000
0000
0000
1300
0000
0000
0000
0020
0000
0000
0000
0030
0000
0000
0000
,
0002
0000
0000
0000
1000
0000
0003
0000
2000
0000
0001
0000
3010
0100
0001
1000
,
0001
0000
0000
0000
0100
0000
0000
0000
0001
0000
0000
0000
1000
0000
0000
1000
0001
0000
0000
0000
0100
0000
0000
0000
0010
0000
0000
0000
1000
0000
0000
0000
0100
0000
0000
0000
0010
0000
0000
0001
0010
0000
0000
0000
1000
0000
0000
0000
,
0001
0000
0000
0000
0010
0000
0000
0000
0001
0000
0000
0000
1000
0000
0000
0100
0010
0000
0000
0000
0001
0000
0000
0000
0010
0000
0000
0000
0001
0000
1000
0000
0010
0000
0000
0000
0100
0000
0000
0001
0010
0000
0000
0000
0100
0000
0000
0000
,
1000
0100
0010
0001
0100
0010
1000
0001
0100
0010
1000
0100
0010
0001
1000
0010
,
1000
0001
0100
0010
1000
0000
0100
0001
0000
0001
0100
0000
0001
0100
0001
1000
,
0010
0002
1003
0001
0020
0030
0200
0300
,
0020
0030
1000
0002
1003
0010
0001
1000
,
0100
0000
0002
0000
1003
0000
0100
0000
0020
0000
0030
0000
0200
0000
0300
0010
,
0002
0000
0000
0000
1000
0000
0000
0000
1003
0010
1000
0000
0100
0010
0001
1000
,
0100
0002
1003
0001
2000
3000
0200
0300
,
0020
0000
0030
0000
0100
0000
0002
0000
1003
0000
0010
0000
1000
0001
0010
0100
,
1000
0000
0010
0000
0100
1000
0010
1000
0001
0000
0000
0010
0100
1000
0010
1000
,
0001
0000
1000
0010
0100
0000
1000
0010
0100
0001
0010
0100
1000
0001
0100
0010
,
2000
3000
0100
0000
0002
0003
1000
0000
0020
0030
0100
0010
2000
3000
0010
0000
,
0002
0003
1000
0000
0100
0000
0002
0000
1000
0000
0013
1000
0001
0000
0010
0000
,
0100
0000
0000
0000
0000
0000
1000
0000
0000
0000
0000
0000
0001
0000
0000
0000
0000
0000
0100
0000
0000
0000
0000
0000
1000
0000
0001
0000
1000
0000
0001
0000
0000
1000
0000
0000
0010
0000
0000
0000
0000
0000
0100
0000
0000
0000
0000
0000
,
2000
0000
3001
0000
0100
0000
0010
0000
1000
0000
0001
0010
0100
1000
0001
0100
,
0002
0003
1000
0000
0020
0030
1000
0000
0002
0003
0010
0100
2000
3000
0010
0000
,
0200
0300
0001
0000
1000
0000
0002
0000
0103
0000
0010
0001
1000
0000
0001
0000
,
1000
0000
0100
0000
0010
0000
0001
0000
1000
0000
0100
0010
0001
0000
1000
0000
,
0002
0010
0100
1000
0100
0010
0100
1003
,
0001
0000
0100
0000
0010
0000
1000
0000
0100
0000
0010
0000
0001
0000
1000
0000
0001
0000
0000
0000
0000
0000
0000
0000
0100
0000
0000
0000
0000
0100
0000
0000
,
0002
0000
1000
0003
0100
0010
0001
1000
,
0020
0000
0000
0000
0000
0000
0000
0000
0031
0000
0000
0000
0000
1000
0000
0000
0001
0000
0000
0000
0000
0000
0000
0000
0010
0000
0000
0000
0000
1000
0000
0000
,
0020
0000
0000
0000
0030
0000
0000
0000
1000
0000
0000
0000
0000
0100
0000
0000
0020
0000
0000
0000
0030
0000
0000
0000
0001
0000
0000
0000
0000
0100
0000
0000
,
0020
0000
0000
0000
0100
0000
0000
0000
0001
0000
0100
0030
1000
0100
0010
0001
,
0020
0000
1000
0030
0001
0010
0100
1000
,
0200
0000
0000
0000
0000
0000
0000
0000
0301
0000
0000
0000
1000
0000
0000
0000
0200
0000
0000
0000
0300
0000
0000
0000
0001
0000
0000
0000
0000
0100
0000
0000
,
0002
1000
1003
0010
0200
0310
2000
3001
,
0100
0000
0000
0000
0000
0000
0000
0000
0000
0000
0000
0000
0000
0000
0000
0000
0000
0000
0000
0000
0000
0000
0000
0000
0000
0000
0000
0000
0000
0000
1000
0000
0000
0000
0000
0000
0100
0000
0000
0000
0000
0000
0010
0000
0000
0000
0000
0000
0001
0000
0000
0000
0000
0000
0000
0000
0000
0000
0000
0000
0000
0000
0000
0000
0000
0000
0000
0000
0000
0000
0000
0000
0000
0000
0000
0000
0000
0000
0001
0000
0000
0000
0000
0000
0010
0000
0000
0000
0000
0000
0100
0000
0000
0000
0000
0000
1000
0000
0000
0000
0000
0000
0000
0000
0000
0000
0000
0000
0000
0000
0000
0000
0000
0000
0000
0000
0000
0000
0000
0000
0000
0000
0000
0000
0000
0000
0000
0000
0000
0000
0000
0000
0000
0000
0000
0000
0000
0000
0000
0000
0000
0000
0000
0000
0002
0000
0000
0000
0000
0000
0000
0000
0000
0000
0000
0000
0003
0000
0000
0000
0000
0000
0000
0000
0000
0000
0000
0000
0000
0000
0000
0000
0000
0000
0000
0000
0020
0000
0000
0000
0000
0000
0000
0000
0030
0000
0000
0000
0000
0000
0000
0000
,
0200
0000
0000
0000
0000
0000
0000
0000
0000
0000
0000
0000
0300
0000
0000
0000
0000
0000
0000
0000
0000
0000
0000
0000
1000
0000
0000
0000
0000
0000
0000
0000
0000
0000
0000
0000
0000
0000
0000
0000
0000
0000
0000
0000
0000
0000
0000
0000
0200
0000
0000
0000
0000
0000
0300
0000
0000
0000
0000
0000
0000
0000
0000
0000
0000
0000
0000
0000
0000
0000
0000
0000
0001
0000
0000
0000
0000
0000
0000
0000
0200
0000
0000
0000
0010
0000
0000
0000
0300
0000
0000
0000
0000
0000
0000
0000
1000
0000
0000
0000
0000
0000
0000
0000
0000
0000
0000
0000
0010
0000
0000
0000
0000
0000
0000
0000
0000
0000
0000
0000
0100
0000
0000
0000
0000
0000
0000
0000
0000
0000
0000
0000
0001
0000
0000
0000
0000
0000
0000
0000
0000
0000
0000
0000
0010
0000
0000
0000
0000
0000
0000
0000
0000
0000
0000
0000
0100
0000
0000
0000
0000
0000
0000
0000
0000
0000
0000
0000
1000
0000
0000
0000
0000
0000
0000
0000
0000
0000
0000
0000
0001
0000
0000
0000
0000
0000
0000
0000
0000
0000
0000
0000
,
2000
0000
3001
0000
0010
0000
0100
1000
0100
0010
0001
0000
1000
0001
0100
0001
,
0020
0000
1030
0000
0002
0000
1003
0100
0010
0001
0020
0030
1000
0010
0100
0001
,
2000
0000
3100
0000
0010
0000
0001
1000
0001
0100
0010
0000
1000
0010
0100
0001
,
0200
0300
0000
2000
3000
0100
0020
0030
0000
2000
3001
0100
,
0020
0000
0000
0000
0000
0000
0000
0000
0000
0000
0000
0000
1000
0000
0000
0000
0030
0000
0000
0000
0000
0000
0000
0000
1002
0000
0000
0000
0003
0000
0000
0000
0000
0000
0000
0000
1000
0000
0000
0010
0000
0000
0100
0000
0000
0001
0000
0000
,
0200
0000
0300
0000
0000
0000
2000
0000
3000
0000
0200
0000
0310
0000
0000
2000
0000
0000
0100
3000
0000
0010
0000
0000
,
0002
0000
0000
0000
0000
0000
0010
0000
0000
0000
0000
0000
1000
0000
0000
0000
0003
0000
0100
0000
0000
0000
0000
0000
0010
0000
0000
0100
0000
0000
1000
0000
0000
0100
0000
0000
0010
0000
0000
0001
0000
0000
0100
0000
0000
0001
0000
0000
,
0010
1000
0100
0010
0001
1000
0002
0000
0000
1000
0100
0010
,
0100
0000
0000
1000
0000
0000
1000
0103
0000
0001
0010
0100
,
2000
0000
0000
0001
0000
0000
0010
3000
0000
0100
0010
0001
,
2000
0000
0000
0001
0000
0000
0001
0010
0000
0001
3010
0001
,
0010
0100
1000
0100
0010
0001
0200
0000
0000
0001
0310
0100
,
1002
0000
0000
1000
0000
0000
1000
0100
0000
0010
0103
1000
,
0001
0100
0001
0010
0100
1000
0020
0000
0000
1000
0031
0100
,
0002
0000
0000
0010
0000
0000
1000
0010
0000
1000
0013
1000
,
1001
0000
0000
0011
0000
0000
1010
0000
0000
0001
0010
0100
,
1001
0000
0000
0110
0000
0000
1000
0100
0000
0010
0001
0100
,
1001
0000
0000
1010
0000
0000
0101
0000
0000
1000
0100
0010
,
1001
0000
0000
0011
0000
0000
0001
0100
0000
0010
0100
0001
,
1001
0000
0000
0000
,
0000
0000
0000
0100
,
0000
0000
0000
1000
0100
0000
0000
0010
0100
0000
0000
1000
0100
0000
0000
0000
,
0000
0000
0000
1000
0100
0000
0000
0001
0100
0000
0000
1000
0010
0000
0000
0000
,
1000
0001
0100
1000
,
0000
0000
0100
0000
0010
0000
1001
0001
,
0100
0000
0001
1000
0001
0100
0010
1000
0001
0000
0001
0100
0010
0000
1000
0000
,
1010
0000
0001
1000
0001
0010
0100
1000
0001
0000
0010
0100
1000
0000
0001
0000
,
1001
0000
0001
0100
0010
1000
0001
0000
1000
0000
0001
0100
0001
0000
1000
0000
,
0010
0000
0000
0000
0000
0000
0000
0000
0001
0000
0000
0000
0010
0000
0000
0000
0100
0000
0000
0000
1000
0000
0000
0000
0010
0000
0000
0000
0000
0000
0000
0000
1000
0000
0000
0000
0000
0000
0000
0000
0001
0000
0000
0000
0000
0000
0000
0000
0002
0000
0000
0000
0000
0100
0000
0000
0023
0030
0000
0000
0000
0000
0000
0000
,
2000
0000
0000
0000
0000
0000
0000
0000
0000
0000
0000
0000
0000
0000
0000
0000
0000
0000
0000
0000
0000
0000
0000
0000
3100
0000
0000
0000
0000
0000
0000
0000
0000
0000
0000
0000
0000
0000
0000
0000
0000
0000
0000
0000
0000
0000
0000
0000
0020
0000
0000
0000
0000
0000
0000
0000
0000
0000
0000
0000
0000
0000
0000
0000
0000
0000
0000
0000
0000
0000
0000
0000
0031
0000
0000
0000
0000
0000
0000
0000
0000
0000
0000
0000
0000
0000
0000
0000
0000
0000
0000
0000
0000
0000
0000
0000
0200
0000
0000
0000
0000
0000
0300
0000
0000
0000
0000
0000
1000
0000
0000
0000
0000
0000
0000
0000
0000
0000
0000
0000
0002
0000
0000
0000
0000
0000
0003
0000
0000
0000
0000
0000
1000
0000
0000
0000
0000
0000
0000
0000
0000
0000
0000
0000
0100
0000
0000
0000
0010
0000
0000
0000
0001
0000
0000
0000
0010
0000
0000
0000
0000
0000
0100
0000
0000
0000
0000
0000
2000
0000
0000
3000
0000
0000
0000
0000
0000
0000
0000
0000
0000
0000
0000
0000
0000
0000
0000
0000
0000
0000
0000
0000
,
0002
0000
0000
0000
0000
0000
0000
0000
0103
0000
0000
0000
0000
0000
0000
0000
0020
0000
0000
0000
0000
0000
0000
0000
0031
0000
0000
0000
0000
0000
0000
0000
2000
0000
0000
0000
3001
0000
0000
0000
0200
0000
0000
0000
0301
0000
0000
0000
2000
0000
0000
0000
0000
0001
0000
0000
3200
0300
0000
0000
0000
0000
0000
0000
,
0002
0000
0000
0000
0000
0000
0000
0000
0000
0000
0000
0000
0000
0000
0000
0000
0000
0000
0000
0000
0000
0000
0000
0000
0103
0000
0000
0000
0000
0000
0000
0000
0000
0000
0000
0000
0000
0000
0000
0000
0000
0000
0000
0000
0000
0000
0000
0000
2000
0000
0000
0000
0000
0000
0000
0000
0000
0000
0000
0000
0000
0000
0000
0000
0000
0000
0000
0000
0000
0000
0000
0000
3010
0000
0000
0000
0000
0000
0000
0000
0000
0000
0000
0000
0000
0000
0000
0000
0000
0000
0000
0000
0000
0000
0000
0000
0200
0000
0000
0000
0000
0000
0000
0000
0000
0000
0000
0000
0001
0000
0000
0000
0000
0000
0000
0000
0000
0000
0000
0000
1300
0000
0000
0000
0000
0000
0000
0000
0000
0000
0000
0000
0001
0000
0000
0000
0000
0000
0000
0000
0000
0000
0000
0000
0001
0000
0000
0000
1000
0000
0000
0000
0001
0000
0000
0000
0010
0000
0000
0000
0000
0000
0100
0000
0000
0000
0000
0000
2000
0000
0000
3000
0000
0000
0000
0000
0000
0000
0000
0000
0000
0000
0000
0000
0000
0000
0000
0000
0000
0000
0000
0000
,
0020
0000
0000
0000
0000
0000
0000
0000
0130
0000
0000
0000
0000
0000
0000
0000
0002
0000
0000
0000
0003
0000
0000
0000
2000
0000
3000
0000
0000
0000
0000
0000
0200
0000
0300
0000
1000
0000
0000
0000
0002
0000
0000
0000
1003
0000
0000
0000
0002
0000
0000
0000
0000
0100
0000
0000
0023
0030
0000
0000
0000
0000
0000
0000
,
2000
0000
0000
0000
0000
0000
0000
0000
0000
0000
0000
0000
0000
0000
0000
0000
0000
0000
0000
0000
0000
0000
0000
0000
3010
0000
0000
0000
0000
0000
0000
0000
0000
0000
0000
0000
0000
0000
0000
0000
0000
0000
0000
0000
0000
0000
0000
0000
0200
0000
0000
0000
0000
0000
0000
0000
0000
0000
0000
0000
0300
0000
0000
0000
0000
0000
0000
0000
0000
0000
0000
0000
0002
0000
0000
0000
0000
0000
0000
0000
0000
0000
0000
0000
0003
0000
0000
0000
0000
0000
0000
0000
0000
0000
0000
0000
0200
0000
0000
0000
0000
0000
0300
0000
0000
0000
0000
0000
0001
0000
0000
0000
0000
0000
0000
0000
0000
0000
0000
0000
2000
0000
0000
0000
0000
0000
0000
0000
0000
0000
0000
0000
3001
0000
0000
0000
0000
0000
0000
0000
0000
0000
0000
0000
1000
0000
0000
0000
0001
0000
0000
0000
1000
0000
0000
0000
0001
0000
0000
0000
0000
0000
1000
0000
0000
0000
0000
0000
0002
0000
0000
0003
0000
0000
0000
0000
0000
0000
0000
0000
0000
0000
0000
0000
0000
0000
0000
0000
0000
0000
0000
0000
,
2000
0000
0000
0000
0000
0000
0000
0000
3010
0000
0000
0000
0000
0000
0000
0000
0200
0000
0000
0000
0000
0000
0000
0000
0301
0000
0000
0000
0000
0000
0000
0000
2000
0000
0000
0000
3001
0000
0000
0000
0200
0000
0000
0000
0301
0000
0000
0000
2000
0000
0000
0000
0000
0100
0000
0000
3002
0003
0000
0000
0000
0000
0000
0000
,
0200
0000
0000
0000
0000
0000
0000
0000
0000
0000
0000
0000
0000
0000
0000
0000
0000
0000
0000
0000
0000
0000
0000
0000
0301
0000
0000
0000
0000
0000
0000
0000
0000
0000
0000
0000
0000
0000
0000
0000
0000
0000
0000
0000
0000
0000
0000
0000
0020
0000
0000
0000
0000
0000
0000
0000
0000
0000
0000
0000
0000
0000
0000
0000
0000
0000
0000
0000
0000
0000
0000
0000
0130
0000
0000
0000
0000
0000
0000
0000
0000
0000
0000
0000
0000
0000
0000
0000
0000
0000
0000
0000
0000
0000
0000
0000
0002
0000
0000
0000
0000
0000
0000
0000
0000
0000
0000
0000
1000
0000
0000
0000
0000
0000
0000
0000
0000
0000
0000
0000
0103
0000
0000
0000
0000
0000
0000
0000
0000
0000
0000
0000
1000
0000
0000
0000
0000
0000
0000
0000
0000
0000
0000
0000
0010
0000
0000
0000
0100
0000
0000
0000
1000
0000
0000
0000
0100
0000
0000
0000
0000
0000
0010
0000
0000
0000
0000
0000
0002
0000
0000
0003
0000
0000
0000
0000
0000
0000
0000
0000
0000
0000
0000
0000
0000
0000
0000
0000
0000
0000
0000
0000
,
1000
0000
0000
0000
0000
0000
0000
0000
0010
0000
0000
0000
0000
0000
0000
0000
0001
0000
0000
0000
0000
0000
0000
0000
0010
0000
0000
0000
0000
0000
0000
0000
0001
0000
0000
0000
1000
0000
0000
0000
0010
0000
0000
0000
1000
0000
0000
0000
0200
0000
0000
0000
0000
1000
0000
0000
0020
0030
0000
0000
0000
0000
0000
0000
,
0001
0000
0000
0000
0000
0000
0000
0000
0000
0000
0000
0000
0000
0000
0000
0000
0000
0000
0000
0000
0000
0000
0000
0000
1000
0000
0000
0000
0000
0000
0000
0000
0000
0000
0000
0000
0000
0000
0000
0000
0000
0000
0000
0000
0000
0000
0000
0000
0010
0000
0000
0000
0000
0000
0000
0000
0000
0000
0000
0000
0000
0000
0000
0000
0000
0000
0000
0000
0000
0000
0000
0000
1000
0000
0000
0000
0000
0000
0000
0000
0000
0000
0000
0000
0000
0000
0000
0000
0000
0000
0000
0000
0000
0000
0000
0000
0001
0000
0000
0000
0000
0000
0000
0000
0000
0000
0000
0000
1000
0000
0000
0000
0000
0000
0000
0000
0000
0000
0000
0000
0310
0000
0000
0000
0000
0000
0000
0000
0000
0000
0000
0000
0001
0000
0000
0000
0000
0000
0000
0000
0000
0000
0000
0000
2000
0000
0000
0000
0001
0000
0000
0000
0100
0000
0000
0000
0001
0000
0000
0000
0000
0000
0100
0000
0000
0000
0000
0000
0020
0000
0000
0030
0000
0000
0000
0000
0000
0000
0000
0000
0000
0000
0000
0000
0000
0000
0000
0000
0000
0000
0000
0000
,
0000
0000
0000
0000
,
0000
0000
3000
0001
0010
0100
1000
0100
0010
0001
0010
0100
1000
0100
0010
0001
,
0100
0001
1000
0010
1000
0001
0100
0001
1000
0010
1000
0001
0100
0010
1000
0001
,
1000
0010
0100
0010
1000
0001
0100
0010
1000
0001
0010
0100
1000
0001
0100
0010
,
1000
0001
0100
0010
1000
0001
0100
0010
1000
0001
0010
0100
1000
0001
1000
0010
,
0100
0001
0010
0100
1000
0010
1000
0100
0010
0001
0100
0010
1000
0001
0100
0001
,
1000
0010
0100
0001
0010
0100
1000
0001
1000
0100
0010
0001
1000
0010
1000
0100
,
0010
0001
0010
0100
1000
0001
1000
0010
0100
0001
1000
0100
0010
0001
0010
0100
,
1000
0001
0100
0010
1000
0001
0010
0100
1000
0100
0010
0001
1000
0010
1000
0001
,
0100
0001
1000
0010
0100
0010
1000
0001
0100
0010
1000
0001
0010
0100
1000
0001
,
0100
0010
1000
0001
0100
0010
1000
0001
0100
0010
1000
0001
0010
0100
1000
0001
,
1000
0010
0100
0001
0010
0100
1000
0010
1000
0100
0010
0001
0100
0010
1000
0001
,
0100
0001
1000
0010
0100
0001
0010
0100
1000
0001
1000
0100
0010
0001
1000
0010
,
1000
0100
0010
1000
0001
1000
0010
0100
0010
1000
0001
0100
0010
1000
0001
0010
,
0100
1000
0001
0100
0020
0000
0000
0000
0000
0000
0000
0000
0000
0000
0000
0000
,
0000
0000
0000
0000
0000
0000
0000
0030
,
0002
0000
0000
0000
0000
0000
0000
0003
,
0020
0000
0000
0000
0000
0000
0000
0030
,
0200
0000
0000
0000
0000
0000
0000
0300
,
2000
0000
0000
0000
0000
0000
0000
3000
,
0002
0000
0000
0000
0000
0000
0000
0003
,
0020
0000
0000
0000
0000
0000
0000
0030
,
0200
0000
0000
0000
0000
0000
0000
0300
,
2000
0000
0000
0000
0000
0000
0000
3000
,
2001
3000
0001
0200
0300
0002
0003
0020
,
0030
0000
2000
3000
0020
0000
0030
0000
2000
0000
3000
0000
0010
0100
1000
0001
,
2000
0000
3000
0000
0002
0000
0000
0000
0003
0000
0000
0000
0002
0000
0000
0000
0003
0000
0000
0000
2000
0000
3000
0000
0002
0000
0003
0000
2000
3000
0000
0000
,
0100
0010
0000
0010
0100
0000
0001
0000
0020
0030
0200
0300
2000
0000
3000
0000
,
0020
0030
0100
0020
1030
0002
0003
0020
,
0130
0000
0000
0000
0000
0000
2000
0000
0000
3000
0000
0000
0020
0000
0000
0000
0000
0000
0030
0000
0000
0000
0000
0000
2000
0000
0000
0000
0000
0000
3000
0000
0000
0000
0000
0000
0010
0000
0000
0000
0000
0000
0000
0000
0200
0000
0300
0000
,
2000
0000
3000
0000
0020
0000
0000
0000
1030
0000
0000
0000
0002
0000
0000
0000
0013
0000
0000
0000
0200
0000
0300
0000
2000
0000
3000
0000
0002
0003
0000
0000
,
0110
0000
1100
0000
1010
0000
0101
0000
1000
0001
1000
0001
1000
0001
1000
0001
,
1000
0100
0010
0001
0100
0010
1000
0001
1000
0100
0010
0001
1000
0010
0100
0001
,
0010
0100
1000
0001
1000
0010
0100
0001
0010
0100
1000
0001
0100
0010
1000
0010
,
0100
0001
0010
0100
1000
0001
0100
0001
1000
0100
0010
0001
1000
0010
0100
0010
,
0001
1000
0010
0100
0010
1000
0001
0100
0010
0000
1000
0000
0100
0010
0001
1000
,
0010
0000
0100
0000
1000
0010
0000
0000
0100
0000
0000
0010
1000
0000
0001
0000
,
1000
0000
0010
0000
1000
0010
0000
0000
0001
0000
0000
0010
1000
0000
0100
0000
,
0001
0000
1000
0000
0001
0100
0000
0000
0001
0000
0000
0100
0001
0000
1000
0000
,
0100
0000
1000
0000
0001
0100
0000
0000
1000
0000
0100
0010
0001
0000
0010
0000
,
1000
0000
0001
0000
1000
0010
0000
0000
0100
0000
0000
0001
1000
0000
0001
0000
,
0010
0000
0100
0000
1000
0010
0000
0000
0001
0000
0000
0010
0100
0000
1000
0000
,
0001
0000
1000
0000
0001
0100
0000
0000
0001
0000
0000
0100
0001
0000
0100
0000
,
0010
0000
1000
0000
0001
0100
0000
0000
1000
0000
0001
1000
0001
1000
0001
1000
,
0100
0010
0001
0100
0010
1000
0001
0010
0001
0100
0010
1000
0001
0100
0010
0100
,
0001
1000
0010
0100
0010
1000
0001
0100
0010
1000
0100
0010
0001
0100
0010
1000
,
0010
0100
0001
1000
0100
1000
0010
0100
0001
1000
0010
1000
0100
0010
0001
0100
,
0010
1000
0100
0010
0001
1000
0001
0010
0100
1000
0010
1000
0001
1000
0100
0010
,
0001
0100
0010
1000
0001
0100
0010
1000
0001
0010
0001
0100
0010
1000
0010
0100
,
0001
0100
0010
1000
0100
0010
0001
0010
0100
1000
0001
0100
0010
1000
0001
0100
,
0010
1000
0100
0010
0001
0100
0001
0010
0100
1000
0010
1000
0100
0010
0001
1000
,
0100
1000
0010
0100
0001
0100
0010
1000
0100
0010
0001
1000
0010
0100
0001
1000
,
0001
0000
1000
0100
0000
0010
0000
0001
0000
1000
0000
0100
0010
0000
0010
0000
,
0001
0000
0000
0000
0000
0000
1000
0000
0000
0100
0000
0000
0000
0000
0000
0010
0000
0000
0000
0000
0000
0001
0000
0000
0000
0000
0000
1000
0000
0000
0000
0000
0000
0100
0000
0000
0010
0000
0000
0000
0000
0000
1000
0000
0100
0000
0010
0000
,
0001
0000
0000
0010
0000
0000
0100
0000
0000
1000
0100
0010
0001
1000
0100
0010
,
0001
0000
0000
0010
0000
0000
0001
0100
0010
1000
0100
0010
0001
1000
0001
0100
,
0010
0000
0000
0100
0000
0001
0010
0100
1000
0100
0010
0001
0010
0100
1000
0001
,
1000
0010
0100
0001
0010
0100
1000
0001
1000
0010
0100
0001
0010
0100
1000
0001
,
0000
0000
1001
0000
0000
1010
0000
0000
0000
1000
0010
0000
0000
1000
0100
0010
,
0001
0000
0000
0010
0000
0000
0001
0000
0000
0000
1000
0000
0000
0000
0000
0000
,
0000
0000
1001
0000
0000
0110
0000
0000
0000
0001
1000
0000
0000
0100
0010
1000
,
0001
0000
0010
0000
0000
1000
0100
0010
0001
0000
1000
0001
1000
0000
0001
0000
,
2000
0000
3001
0000
0010
0000
1000
0010
0100
0001
1000
0000
0100
0000
0010
0000
,
0001
0000
1000
0000
0100
0000
0010
0001
1000
0100
0010
0000
0001
0000
0100
0000
,
0010
0000
1000
0000
0100
0000
0010
0001
1000
0001
0100
0000
1000
0000
0001
0010
,
0100
1000
0001
0000
1000
0000
0001
0010
0100
1000
0010
0100
0001
1000
0001
0010
,
0200
0000
0300
0100
1000
0000
0002
0000
1003
0000
0200
0000
0320
0000
0032
0000
,
2003
0000
3000
0100
1000
0000
0002
0000
1003
0000
0200
0000
2300
0000
3020
0000
,
0230
0000
0300
1000
0001
0000
0020
0000
0031
0000
2000
0000
3002
0000
0203
0000
,
0320
0000
0030
1000
0001
0000
0020
0000
0031
0000
2000
0000
3200
0000
0320
0000
,
0032
0000
0003
0001
1000
0000
0002
0000
1003
0000
0200
0000
0320
0000
0032
0000
,
2003
0000
3000
0001
1000
0000
0020
0000
1030
0000
0002
0000
2003
0000
3200
0000
,
0320
0000
0030
1000
0001
0000
0020
0000
0031
0000
0200
0000
0320
0000
2030
0000
,
3002
0000
0003
0100
0001
0000
2000
0000
3001
0000
0020
0000
0230
0301
2000
3010
,
0200
0300
0000
1000
0100
0000
0001
0000
0100
0000
0010
0000
1000
0000
0001
0000
,
0100
0010
1000
0001
0100
0010
1000
0001
,
0100
0000
0000
1000
0001
0000
1000
0000
0001
0000
0010
0000
0100
0000
1000
0000
,
0001
0000
0000
1000
0010
0000
0001
0000
1000
0010
0100
0001
1000
0001
0010
0100
,
1000
0000
0000
0001
1000
0000
0010
0000
1000
0000
0100
0000
1000
0100
0010
0001
,
0100
0000
0000
0010
1000
0000
0001
0000
1000
0000
0010
0000
1000
0001
0010
0100
,
1000
0000
0000
0001
1000
0000
0010
0000
1000
0100
0000
0000
0001
0000
0010
0000
,
1001
0000
0000
0001
1000
0000
0110
0000
1001
0000
1100
0000
1010
0000
1001
0000
,
0110
0001
1000
0010
0001
1000
0001
0100
,
0001
0100
1000
0010
0100
1000
0001
1000
,
0001
0010
0100
1000
0010
0100
0001
0010
,
0100
0000
1000
0001
1000
0001
0100
0010
0001
0010
0100
1000
0001
0100
0010
1000
,
0001
0010
0100
1000
0001
0100
0001
1000
,
0010
0100
1000
0100
0010
0001
0100
0010
,
1000
0001
1000
0100
0010
0001
1000
0100
,
1000
0000
0001
0000
1001
0000
1000
0000
0001
0100
0010
0000
1000
0100
0010
0001
,
1000
0001
1000
0010
1000
0100
0010
0001
,
1000
0010
0100
0001
1000
0010
1000
0100
,
0010
0001
1000
0001
1000
0100
0001
1000
,
0010
0000
0001
0010
0100
1000
0010
1000
0001
0100
0001
1000
0100
0010
0001
1000
,
0001
0010
1000
0001
1000
0001
0010
1000
,
0010
0000
0001
0000
1000
0000
0001
0000
0010
0000
0100
0000
1000
0000
0002
0003
,
0010
0000
2000
3000
0001
0000
0100
0000
0002
0003
2000
3001
0100
0000
2000
3000
,
0002
0003
0000
0100
0000
0000
0010
0000
0000
1000
0000
0000
0001
0010
0100
1000
,
0001
1000
0100
0010
0001
1000
0001
0010
,
0100
1000
0001
1000
0100
0010
0001
1000
,
0010
0100
0001
0010
0100
1000
0001
0100
,
0010
1000
0100
0001
0010
0001
1000
0010
,
0001
1000
0100
0010
1000
0001
1000
0010
,
0001
0010
1000
0100
0010
1000
0001
0100
,
0020
0000
1030
0000
0100
0000
0020
0030
0001
0000
0200
0300
0020
0000
1030
0000
,
0001
0000
0100
0000
0010
0000
1000
0000
0001
1000
0001
0000
0200
0310
0001
1000
,
0002
0000
0013
0000
2000
0000
3010
0000
0002
0003
0020
0000
1030
0000
0001
0000
,
0010
0100
1000
0001
1000
0010
0100
0002
,
1003
0000
0100
0000
0020
0000
0130
0000
0002
0000
0013
0000
0200
0300
2000
0000
,
3001
0010
0100
1000
0001
0200
0301
0010
,
0100
0000
0000
1000
0100
0000
0010
0000
0001
0010
0000
0000
0100
0000
0000
1000
0001
0000
0010
0000
0100
1000
0000
0000
,
1000
0000
0000
0001
0010
0000
0100
0000
1000
0100
0000
0000
0001
0000
0000
0100
0010
0000
1000
0000
0001
0010
0000
0000
,
1000
0000
0000
0100
0010
0000
0001
0000
0100
0010
0000
0000
1000
0000
0100
0010
0001
0000
1000
0000
0001
1000
0001
0000
,
1000
0000
0100
0000
0010
0000
0001
0000
1000
0001
0100
0000
0010
0001
0100
0001
,
1000
0000
0000
0000
0100
0010
0000
0000
0001
0000
0000
0000
0010
0100
0000
0000
1000
0000
0000
0000
0100
0010
0000
0000
0001
0000
0000
0000
0010
0100
0000
0000
,
1000
0000
0000
0000
0001
0100
0010
0000
1000
0000
0100
0000
0010
0001
0010
0000
0100
0000
1000
0000
0100
0010
0001
0000
0010
0000
0100
0000
1000
0001
0100
0000
,
0010
0000
0000
0000
0001
0010
0000
0000
0100
0000
0000
0000
1000
0100
0000
0000
0010
0000
0000
0000
0001
0010
0000
0000
0100
0000
0000
0000
1000
0001
0000
0000
,
0010
0000
0000
0000
1000
0001
1000
0000
0001
0000
0010
0000
0100
1000
0001
0000
0010
0000
0100
0000
1000
0001
1000
0000
0010
0000
0100
0000
1000
0001
0100
0000
,
1000
0000
0000
0000
0100
0010
0000
0000
0001
0000
0000
0000
0010
0100
0000
0000
1000
0000
0000
0000
0100
0010
0000
0000
0001
0000
0000
0000
0010
0100
0000
0000
,
1000
0000
0000
0000
0100
0010
0001
0000
0010
0000
0100
0000
1000
0001
0010
0000
0100
0000
1000
0000
0100
0010
0001
0000
0010
0000
0100
0000
1000
0001
0100
0000
,
1000
0010
0100
0001
0100
0010
1000
0000
0001
0100
0010
1000
0010
0100
0001
0100
,
0000
0000
2000
3000
2000
3000
0000
0000
,
0000
0000
0000
0000
0000
0000
0000
0000
0000
0000
0000
0000
0000
0000
0000
0000
0000
1000
0000
0000
0000
0000
0000
0000
0000
0000
0000
0000
0000
0100
0000
0000
0000
0000
0000
0000
0000
0000
0000
0010
0000
0000
0000
0000
0000
0000
0000
0000
0000
0001
0000
0000
0000
0000
0000
0000
0000
0000
0000
0000
0000
0000
0000
0010
,
0000
0000
0000
0000
0000
0000
0000
0000
0000
0000
0000
0000
0000
0000
0000
0000
0000
0000
0000
1000
0000
0000
0100
0000
,
0000
0010
0000
0000
0001
0000
0000
0010
0000
0000
0001
0000
0000
0100
0000
0000
0000
0000
0000
0000
0000
0000
0000
0000
,
0000
0000
0000
0000
0000
0000
0000
0000
0000
0000
0000
0000
0000
0000
0000
0000
0000
0000
0000
0000
0000
0000
0000
0000
0000
0000
0000
0000
0000
0000
0000
0000
0000
0000
0000
0000
0000
0000
0000
0000
0000
0000
0000
0000
0000
0000
0000
0000
0000
0000
0000
0000
0000
0000
0000
0000
0000
0000
0000
0000
0000
0010
0000
0000
,
0000
0000
0000
0000
0000
0001
0000
0000
0000
0000
0000
0000
0000
0000
0000
0000
0000
0000
0000
0000
0000
0010
0000
0000
0000
0000
0000
0000
0000
0000
0000
0000
0000
0000
0000
0000
0000
0100
0000
0000
0000
0000
0000
0000
0000
0000
0000
0000
0000
0000
0000
0000
0000
0000
0000
0000
0000
0000
0000
0000
0000
0000
0000
0000
,
0000
0000
0000
0000
0000
0000
0000
0000
0000
0000
0000
0000
0000
0000
0000
0000
0000
0000
0000
0000
0000
0000
0000
0000
0000
0000
0000
0000
0000
0000
0000
0000
0000
0000
0000
0000
0000
0000
0000
0000
0000
0000
0000
0000
0000
0000
0000
0000
0000
0001
0000
0000
0000
0000
0000
0000
0000
0000
0000
0010
0000
0000
0000
0000
,
0000
0000
0000
0000
0000
0001
0000
0000
0000
0000
0000
0000
0000
0000
0000
0000
0000
0000
0000
0000
0000
0010
0000
0000
0000
0000
0000
0000
0000
0000
0000
0000
0000
0000
0000
0000
0000
0100
0000
0000
0000
0000
0000
0000
0000
0000
0000
0000
0000
0000
0000
0000
0000
0000
0000
0000
0000
0000
0000
0000
0000
0000
0000
0000
,
0000
0000
0000
0000
0000
0000
0000
0000
0000
0000
0000
0000
0000
0000
0000
0000
0000
0000
0000
0000
0000
0010
0000
0000
0000
0000
0000
0000
0000
0000
0000
0000
0000
0000
0000
0100
0000
0000
0000
0000
0000
0000
0000
0000
0000
0000
0000
0000
0000
0000
0000
0000
0000
0000
0000
0000
0000
0000
0000
0000
0000
0000
0000
0000
,
0000
0000
1000
0100
0010
0000
0001
0000
,
0010
0000
0000
0000
0000
0000
1000
0100
,
0010
0001
0010
0001
1000
0000
0000
0000
,
0000
0000
0000
0000
0000
0000
0000
0100
,
0010
0100
1000
0000
,
0000
0000
0000
0000
0000
0000
0010
0100
,
0010
0100
1000
0000
,
0002
0000
1000
0000
1003
0001
1000
0000
,
1001
0000
1000
0100
0010
0000
0001
1000
,
0001
0000
0010
0100
0010
1000
0100
0010
,
0001
0000
1000
0001
0010
0000
1000
0010
,
1000
0000
0001
1000
0010
1000
0100
1000
,
0001
0000
0010
0001
1000
0000
0100
0001
,
1000
0000
1000
0001
1000
0010
0100
0010
,
1000
0000
0010
0001
1000
0000
0100
0010
,
0001
0000
0010
1000
0001
0100
0010
1000
,
0001
0000
1000
0010
0100
0000
1000
0001
,
0100
0000
0001
0010
0100
1000
0100
0001
,
0010
0000
1000
0001
0010
0000
1000
0001
,
0010
0000
1000
0100
0010
0001
1000
0010
,
0100
0000
0010
0001
1000
0000
1000
0100
,
0010
0000
0001
0010
0100
1000
0001
0010
,
0200
0000
0000
0000
0000
0000
0000
0300
,
0001
1000
0000
0000
1000
0001
0000
0000
,
1001
0000
0001
0010
0100
0000
1000
0100
,
0010
0000
0001
1000
0100
0001
0100
0010
,
1000
0000
0001
0100
0010
0000
1000
0001
,
0100
0000
0010
1000
0001
0100
0010
1000
,
0002
0000
0000
0000
,
0000
0000
0000
0000
0000
0000
0000
0003
,
2000
0000
0000
0000
0000
0000
0000
3000
,
1000
0000
0100
0000
,
0001
0000
0010
0100
,
0010
0000
0000
1000
0000
0000
0010
0000
,
0001
0000
0001
0010
,
0100
0000
0000
1000
0000
0000
0100
0000
,
0010
0000
1000
0001
1000
0000
0010
0000
,
0100
0000
0001
0100
0001
0000
1000
0001
,
1000
0010
0100
0001
,
0010
0000
0100
1000
0100
0000
0001
0000
0000
1000
0000
0000
,
1001
1001
0000
1100
1100
0000
0101
0101
,
0000
1001
1001
1000
0100
0010
0001
1000
,
0001
0010
0001
1000
0100
0010
0001
0100
,
0010
1000
0001
0010
0100
1000
0100
0010
,
0001
1000
0100
0010
1000
0001
0100
0010
,
1000
0001
0010
0100
0001
0010
0100
1000
,
0001
0100
0001
1000
0001
0000
0010
0100
,
0001
1000
0100
0000
0010
1000
0100
0010
,
0001
0100
0010
1000
0001
0000
1000
0100
,
0010
0001
0100
0000
0001
0100
0001
1000
,
0001
0010
0100
1000
0010
0000
1000
0010
,
1000
0001
1000
0100
0010
0001
1000
0001
,
0010
0100
1000
0100
0010
0000
0001
0010
,
0100
1000
0010
0000
0001
0010
0100
1000
,
0010
0100
0001
1000
0010
0000
0001
0010
,
0100
1000
0100
0000
0001
0100
0010
1000
,
0001
0010
0100
1000
0001
0000
0001
0010
,
0100
1000
0010
0000
0001
1000
0100
1000
,
0010
0100
0001
1000
0100
0000
0001
0010
,
0100
1000
0001
1000
0100
0010
0001
1000
,
0001
0100
0010
1000
0001
0000
0010
0100
,
0001
1000
0100
1000
0010
0100
0001
0010
,
0100
1000
0010
0100
0001
0000
0100
1000
,
0100
0001
0010
1000
0001
0010
0100
0000
,
1000
0010
0100
0001
1000
0000
0010
1000
,
0100
0010
0001
1000
0010
0100
0001
0000
,
0001
1000
0001
0100
0010
0000
0001
1000
,
0100
0010
0001
1000
0001
0000
0001
0000
,
1000
0010
1000
0001
0010
0000
0010
0100
,
1000
0010
0100
0001
1000
0000
0100
0000
,
0010
0000
0001
1000
0100
0000
0001
0010
,
0100
0000
1000
0000
0001
0000
1000
0100
,
0010
0000
0000
0000
0000
0000
0001
0000
0000
0010
0000
0000
0100
0000
0000
0000
1000
0000
0100
0000
0010
0000
0000
0000
,
0001
0010
0100
1000
,
0001
0000
0000
0000
0000
0000
0010
0000
0000
1000
0000
0000
0001
0000
0000
0000
0010
0000
0100
0000
1000
0000
0000
0000
,
0001
0000
0000
0000
0000
0000
0001
0000
0000
0010
0000
0000
0100
0000
0000
0000
1000
0000
0100
0000
0010
0000
0000
0000
,
0001
0000
1000
0010
0100
0000
0001
0000
0010
0100
1000
0000
,
0001
0100
0010
1000
0100
0010
0001
0100
,
0010
1000
0100
0010
0001
0100
0010
1000
,
0001
0100
0001
0010
1000
0010
0001
0100
,
1000
0010
0100
0001
0010
0100
1000
0001
,
0100
0010
0001
1000
0100
0010
0001
1000
,
0010
1000
0001
0100
0010
1000
0100
0010
,
0001
1000
0100
1000
0010
0100
0001
0100
,
0010
1000
0100
0010
0001
1000
0010
0100
,
0001
1000
0100
0010
0001
1000
0001
1000
,
0002
0003
0010
1000
0001
0000
0100
0000
,
1000
0001
0010
0000
1000
0000
0001
1000
,
0002
0003
1000
0200
0301
0000
0010
0000
,
1000
0001
0010
0000
1000
0000
0001
0100
,
0001
0010
0100
1000
0002
0000
0003
0000
1001
0000
0000
0000
0010
0000
0000
0000
,
0001
1000
0001
0000
0010
0000
0001
0100
,
0010
0000
0001
1000
0001
1000
0001
1000
0001
1000
0001
1000
0001
1000
0001
1000
,
0001
0000
1000
0001
1000
0001
1000
0001
1000
0001
1000
0001
1000
0001
1000
0001
,
1000
0100
0010
0001
1000
0010
0100
0001
,
0010
0001
0100
0010
1000
0100
0010
0001
,
0010
0100
1000
0001
0100
0010
1000
0100
,
0001
0100
1000
0010
0001
0010
1000
0100
,
0001
0010
0100
1000
0001
0100
0010
1000
,
0001
0010
0100
1000
0010
0100
0001
1000
,
0010
1000
0100
0001
0100
0010
1000
0100
,
0010
0001
1000
0010
1000
0100
0010
0001
,
1000
0100
0010
0001
1000
0000
1000
0100
,
0010
0001
1000
0000
0001
0010
0100
1000
,
0001
0010
0100
1000
0001
0000
1000
0100
,
0010
0001
1000
0000
0001
0010
0100
1000
,
0010
0100
0001
0010
0100
1000
0010
0100
,
0001
0000
0001
0010
0100
0000
1000
0100
,
0010
0000
0000
0000
1000
0000
0001
0000
1000
0001
1000
0001
1000
0001
1000
0001
,
1000
0000
0000
0000
1000
0000
0000
0000
0001
1000
0001
1000
0001
0000
0010
0000
,
0100
0000
0000
0000
1000
0010
1000
0010
1000
0000
0000
0000
0001
0000
0000
0000
,
1000
0000
0010
0000
0100
0001
0100
0000
,
1000
0001
1000
0001
1000
0000
0000
0000
0100
0000
0000
0000
0001
0100
0001
0100
,
0001
0000
1000
0000
0010
0000
0000
0000
1000
0010
1000
0010
1000
0000
0000
0000
,
0100
0001
0010
0000
0100
0000
1000
0100
,
0001
0000
0000
0000
0001
1000
0001
1000
0001
1000
0001
1000
0001
1000
0001
1000
,
0000
0000
0000
0000
0010
0000
0000
0000
0100
0010
0100
0010
0100
0000
1000
0000
,
0001
1000
0001
1000
0001
0000
0000
0000
0010
0000
0000
0000
1000
0100
1000
0100
,
1000
0000
0010
0000
0001
0010
0001
0010
0001
0000
0000
0000
1000
0000
0000
0000
,
0010
0100
0010
0100
0020
0000
0000
0000
0000
0000
0000
0000
0000
0000
0030
0000
,
0200
0000
0000
0000
0000
0300
2000
0000
,
0000
0000
3000
0000
0001
1000
0001
1000
0001
0000
0000
0000
1000
0000
0000
0000
,
0000
0010
0100
1000
0001
0000
1000
0000
,
0100
0000
0010
0000
0001
0000
0010
0100
,
1000
0010
0100
0001
,
0100
M0M0
000M
0M00
0001
M0M0
0100
0000
,
0001
0100
1000
0100
,
0001
0000
0010
0100
1000
0000
0010
M00M
,
0100
0001
0020
0000
,
0030
2000
0000
3000
,
0M01
M000
00M0
0000
0100
0010
0001
1000
,
0001
0010
010M
00M0
1000
0100
0010
0001
,
1000
0010
0100
0001
1000
00M0
0M0M
00M0
,
1000
0100
0010
0001
M100
0000
0010
010M
,
1000
0001
0010
0100
1000
0M00
000M
M000
,
00M0
1000
0100
0010
0001
000M
00M0
0M0M
,
M0M0
0M00
M000
0001
0010
0100
1000
0010
,
M000
0M00
M0M0
0M0M
00M0
000M
0000
0000
,
0010
1000
0010
1000
0010
100M
0010
1M00
,
0010
100M
0010
1000
0010
1000
0001
01M0
,
0001
M100
0001
01M0
0001
M100
0001
01M0
,
0000
0000
M000
0000
0000
0000
0M00
0000
0000
0000
M0M0
0000
000M
0M00
0000
0000
00M0
000M
0000
0000
0000
0000
0000
0000
0000
0000
0M00
M000
000M
00M0
0000
0M00
,
0000
0000
0000
0000
0000
0000
00M0
0000
0000
0000
0000
0000
0M00
0000
0000
0000
000M
0000
0000
0000
0000
0000
0000
0000
00M0
0000
0000
0000
0000
0000
0000
0000
0000
0000
0000
0000
0000
0000
0000
0000
0000
0000
000M
0000
0000
0000
0000
0000
0000
0000
0000
0000
0000
0000
0000
0000
0000
0000
0000
0000
0000
0000
0000
0000
0000
0000
0000
0000
0000
0000
0000
0000
000M
0000
0000
0000
0000
0000
0000
0000
0000
0000
0000
0000
0000
0000
0000
0000
0000
0000
0000
0000
0000
0000
0000
0000
0000
0000
0000
0000
0000
0000
0000
0000
0000
0000
0000
0000
0000
0000
0000
0000
0000
0000
0000
0000
0000
0000
0000
0000
0000
0000
0000
0000
0000
0000
0000
0000
0000
0000
0000
0000
000M
0000
0000
0000
0000
0000
0000
0000
0000
0000
0000
0000
00M0
0000
0000
0000
0000
0000
0000
0000
0000
0000
0000
0000
MM00
0000
0000
0000
0000
0000
0000
0000
0000
0000
0000
0000
0000
0000
0000
0000
0000
0000
0000
0000
0000
0000
0000
0000
0M00
0000
0000
0000
000M
0000
0000
0000
0000
0000
0000
0000
,
0000
0000
0000
0000
0000
0000
0000
0000
00M0
0000
0000
0000
0000
0000
0000
0000
M000
0000
0000
0000
0000
0000
0000
0000
0M00
0000
0000
0000
0000
0000
0000
0000
0000
0000
0000
0000
0000
0000
0000
0000
00M0
0000
0000
0000
0000
0000
0000
0000
000M
0000
0000
0000
0000
0000
0000
0000
0000
0000
0000
0000
0000
0000
0000
0000
0000
0000
0000
0000
0000
0000
0000
0000
0000
0000
0000
0000
0000
0000
0000
0000
0000
0000
0000
0000
0000
0000
0000
0000
0000
0000
0000
0000
0000
0000
0000
0000
0000
0000
0000
0000
0000
0000
0000
0000
0000
0000
0000
0000
000M
0000
0000
0000
0000
0000
0000
0000
0000
0000
0000
0000
00M0
0000
0000
0000
0000
0000
0000
0000
000M
0000
0000
0000
0000
0000
0000
0000
0000
0000
0MM0
0000
0000
0000
0000
0000
0000
0000
0000
0000
0000
0000
0000
0000
0000
0000
0000
0000
00M0
0000
0000
0000
0M00
0000
0000
0000
0000
0000
0000
0000
0000
0000
0000
0000
M000
0000
0000
0000
0000
0000
0000
0000
0M00
0000
0000
0000
0000
0000
0000
0000
0000
0000
0000
0000
,
M000
0000
0000
M000
0000
0000
0000
0000
0000
0000
00M0
0000
0000
0000
0000
0000
00M0
0000
0000
0000
0000
00M0
0000
0000
00M0
0000
0000
00M0
0000
0000
00M0
0000
00M0
0000
00M0
0000
00M0
0000
00M0
0000
00M0
0000
00M0
0000
00M0
0000
00M0
0000
,
00M0
0000
0000
0000
0000
0000
00M0
0000
0000
0000
0000
0000
00M0
0000
0000
0000
0000
0000
00M0
0000
0000
0000
0000
0000
00M0
0000
0000
0000
0000
0000
00M0
0000
0000
0000
0000
0000
00M0
0000
0000
0000
0000
0000
00M0
0000
0000
0000
0000
0000
0M00
0000
0000
0000
0000
0000
000M
0000
00M0
0000
0000
0000
0000
0000
0000
0000
0000
0000
0M00
0000
00M0
0000
0000
0000
M000
0000
0000
0000
0000
0000
0M00
0000
0000
0000
0000
0000
M000
0000
0000
0000
0000
0000
0000
0000
0000
0000
0000
0000
M000
0000
0000
0000
0M00
0000
00M0
0000
0000
0000
0000
0000
0M00
0000
0000
0000
0000
0000
0000
0000
0000
0000
0000
0000
00M0
0000
0000
0000
0000
0000
0000
0000
000M
0000
0000
0000
0000
0000
0000
000M
0000
0000
0000
0000
0000
0000
0000
0000
00M0
0000
0000
0000
0000
0000
0000
0000
0M00
0000
0000
0000
0000
0000
0000
0000
0MM0
0000
0000
0000
0000
0000
0000
0000
00M0
0000
0000
0000
0000
0000
0000
0000
0000
0000
0000
0000
000M
0000
0000
0000
00M0
0000
0000
0000
0000
0000
0000
0000
,
0M0M
0000
0000
0000
000M
0000
0000
0000
00MM
0000
0000
0000
000M
0000
0000
0000
000M
0000
0000
0000
000M
0000
0000
0000
000M
0000
0000
00M0
0000
0000
000M
0000
0000
0000
0000
0000
000M
0000
0000
0000
0000
0000
000M
0000
0000
0000
0000
0000
000M
0000
0000
0000
0000
0000
0000
0000
000M
0000
0000
0000
0000
0000
0000
0000
000M
0000
0000
0000
0000
0000
0000
0000
000M
0000
0000
0000
0000
0000
0000
0000
0000
0000
0000
0000
000M
0000
0000
0000
0000
0000
0000
0000
0000
0000
0000
0000
0000
0000
0000
0000
0000
0000
0000
0000
0000
0000
0000
0000
000M
0000
0000
0000
0000
0000
0000
0000
0000
0000
0000
0000
0000
0000
0000
0000
0000
0000
0000
0000
0000
0000
0000
0000
0000
0000
0000
0000
0000
0000
0000
0000
0000
0000
0000
0000
0000
0000
0000
0000
0000
0000
0000
0000
0000
0000
0000
0000
0000
0000
0000
0000
0000
0000
0000
0000
0000
0000
0000
0000
0000
0000
0000
0000
0000
0000
0000
0000
0000
0000
0000
0000
0000
0000
0000
0000
0000
0000
0000
0000
0000
0000
0000
0000
,
0000
0000
0000
0000
0000
0000
0000
0000
0000
0000
0000
0000
0000
000M
000M
000M
,
000M
0000
0000
0000
0000
0000
0000
0000
000M
0000
0000
0000
0000
0000
0000
0000
000M
0000
0000
0000
0000
0000
0000
0000
000M
0000
0000
0000
0000
0000
0000
0000
000M
0000
0000
0000
0000
0000
0000
0000
000M
0000
0000
0000
0000
0000
0000
0000
00M0
0000
0000
0000
0000
0000
0000
0000
000M
0000
0000
0000
00M0
0000
0000
0000
0000
0000
0M00
0000
0000
0000
0000
0000
0000
0000
0000
0000
00M0
0000
0000
0000
0000
0000
0000
0000
0M00
0000
0000
0000
0000
0000
0000
0000
0000
0000
0000
0000
M000
0000
0000
0000
00M0
0000
0000
0000
0000
0000
0000
0000
0000
0000
0000
0000
0M00
0000
0000
0000
0000
0000
0000
0000
0000
0000
0000
0000
M000
0000
0000
0000
0000
0000
0000
0000
0000
0000
0000
0000
M000
0000
0000
0000
0000
0000
0000
0000
0000
0000
0000
0000
0000
0000
0000
0000
M000
0000
0000
0000
0000
0000
0000
0000
M000
0000
0000
0000
0000
0000
0000
0000
M000
0000
0000
0000
0000
0000
0000
0000
M000
0000
0000
0000
0000
0000
0000
0000
M000
0000
0000
0000
0000
0000
0000
0000
,
M000
0000
0000
0000
0000
0000
M000
0000
0000
0000
0000
0000
M000
0000
0000
0000
M000
0000
0000
0000
M000
0000
0000
0000
M000
0000
0000
0000
M000
0000
0000
0000
M000
0000
0000
0000
M000
0000
0000
0000
0000
0000
M000
0000
0000
0000
0000
0000
M000
0000
0000
0000
0000
0000
0000
0000
M000
0000
0000
0000
0000
0000
0000
0000
M000
0000
0000
0000
0000
0000
0000
0000
M000
0000
0000
0000
0000
0000
0000
0000
M000
0000
0000
0000
0000
0000
0000
0000
0000
0000
0000
0000
0000
0000
0000
0000
M000
0000
0000
0000
0000
0000
0000
0000
0000
0000
0000
0000
M000
0000
0000
0000
0000
0000
0000
0000
0000
0000
0000
0000
0M00
0000
0000
0000
0000
0000
0000
0000
M000
0000
0000
0000
0M00
0000
0000
0000
0000
0000
0000
0000
0000
0000
0000
0000
M0M0
0000
0000
0000
0000
0000
0M00
0000
0000
0000
0000
0000
00M0
0000
0000
0000
0000
0000
000M
0000
0M00
0000
0000
0000
0000
0000
0000
0000
0000
0000
0000
0000
0000
000M
0000
0000
00M0
0000
0000
0000
0000
0000
0000
0000
0000
0000
0000
0000
,
0M0M
0000
0000
0000
000M
00M0
0000
0000
000M
0000
00M0
0000
000M
0000
000M
0000
000M
0000
000M
0000
000M
0000
000M
0000
0200
0000
0000
0000
0000
0000
0000
0000
0000
0000
0000
0000
0000
0000
0000
0000
0000
0000
0000
0000
0000
0000
0000
0000
,
0300
0000
0000
0000
M0M0
0M0M
0000
0000
0010
0000
0000
0000
1000
0000
0000
0000
,
0010
0001
0100
0010
,
1000
0100
0001
0020
,
0000
0000
0000
0000
,
0000
0000
0000
0000
0000
0000
0000
0000
0000
0000
0000
0000
0000
0000
0000
0000
0000
0000
0000
0000
0000
0000
0000
0000
0000
0000
0000
0000
0000
0000
0000
0000
0000
0000
0000
0000
0000
0000
0000
0000
0000
0000
0000
0000
0000
0000
0000
0000
0000
0000
0000
0000
0000
0000
0000
0000
0000
0000
0000
0000
0000
0000
0000
0000
0000
0000
0000
0000
0000
0000
0000
0000
0000
0000
0000
0000
0000
0000
0030
0000
0000
0000
0000
0000
0000
0000
0000
0000
0000
0000
0000
0000
0000
0000
0000
0000
1000
0000
0000
0000
0000
0000
0000
0000
0000
0000
0000
0000
0000
0000
0000
0000
1000
0000
0000
0000
0000
0000
0000
0000
0000
0000
0000
0000
0000
0000
0000
0000
0100
0000
0000
0000
0000
0000
0000
0000
0000
0000
0000
0000
0000
0000
0000
0000
0010
0000
0000
0000
0000
0000
0000
0000
0000
0000
0000
0000
0000
0000
0000
0000
0010
0000
0000
0000
0000
0000
0000
0000
0000
0000
0000
0000
0000
0000
0000
0000
0001
0000
0000
0000
0000
0000
0000
0000
0000
0000
0000
0000
0000
0000
0000
0000
,
1000
1000
0100
0010
0001
1000
0010
0100
0001
0010
0010
0100
,
1000
1000
0001
0010
0100
1000
1001
0010
0100
1000
0001
0010
,
0001
0100
0010
1000
0100
0010
0001
0010
0100
1000
0100
0001
,
0010
0100
1000
0010
0100
0001
1000
0001
0100
1000
1000
0010
,
0100
0100
1000
0001
0100
0010
1000
0001
0100
0010
0010
0001
,
0100
0100
1000
0100
0010
0001
1001
0010
0100
1000
0001
0010
,
1000
0010
0001
1000
0010
0100
0001
1000
0001
0100
0001
1000
,
0100
0010
0001
1000
0001
0010
1001
0001
1000
0010
0100
0001
,
0010
0000
0000
0000
0000
0000
1000
0001
1000
0001
0010
0100
,
0010
0000
0000
0000
0000
0000
0001
0010
0100
1000
0100
0010
,
0001
0000
0000
0000
,
0000
0000
0000
0000
0000
0000
0001
1000
0001
1000
0001
1000
,
0001
0000
0000
0000
0000
0000
0010
0100
0010
0100
0010
0100
,
0010
0000
0000
0000
0000
0001
0100
0001
0100
0001
0100
0001
,
0200
0000
0000
0000
,
0000
0000
0000
0000
,
0000
0000
0000
0320
,
0000
0000
1030
0100
0010
0001
0100
0010
,
0100
0001
1000
0010
0100
0010
1000
0100
,
0010
0001
0100
0001
0010
0100
1000
0010
,
1000
0100
0010
0001
0100
0010
1000
0100
,
0010
0001
0100
0010
0100
0001
1000
0010
,
0100
0010
1000
0100
0010
0001
0100
0001
,
1000
0010
1000
0100
0010
0001
1000
0100
,
1000
0010
0100
0001
0010
0001
1000
0010
,
0100
0001
0010
0100
1000
0100
0010
0001
,
1000
0010
0100
0001
0100
0010
1000
0010
,
0100
0001
0010
0100
1000
0010
0100
0001
,
1000
0010
1000
0100
0010
0001
0100
0001
,
1000
0000
0001
0000
1000
0000
0001
0000
0000
0010
0000
0000
0100
0000
0000
1000
0000
0000
0001
0000
0000
0100
0000
0000
,
0010
1000
0010
0100
0001
1000
0100
0010
,
0001
1000
0010
1000
0001
0100
0001
1000
,
0100
0010
0001
0100
0010
0100
0001
1000
,
0010
0000
1000
0000
0010
0000
1000
0000
0000
0100
0000
0000
0010
0000
0000
0001
0000
0000
0100
0000
0000
0010
0000
0000
,
0100
0001
1000
0100
0010
0001
0100
0010
,
1000
0001
0010
0100
1000
0001
0010
0100
,
1000
0010
1000
0001
0100
0010
0100
0001
,
1000
0000
0100
0000
1000
0000
0100
0000
0000
0010
0000
0000
0001
0000
0000
0100
0000
0000
0010
0000
0000
1000
0000
0000
,
0100
0010
0001
0010
0100
1000
0001
0100
,
0001
0010
0100
1000
0001
1000
0100
1000
,
0001
0010
0001
1000
0001
1000
0001
1000
,
0001
1000
0001
0010
0100
1000
0001
0100
,
0010
1000
0001
1000
0100
0010
0001
0100
,
0001
1000
0010
1000
0100
0010
0001
1000
,
0100
1000
0010
0100
0001
0010
0001
1000
,
0010
1000
0001
0100
0001
1000
0100
0010
,
0001
0010
0100
1000
0001
0100
0010
1000
,
0010
0100
0001
1000
0100
0010
0001
1000
,
0010
0100
0001
1000
0100
0010
0001
0100
,
0010
0100
0001
1000
0010
0100
0010
1000
,
0001
0100
0001
0010
0100
1000
0001
0100
,
0010
0100
0001
1000
0100
0010
0001
1000
,
0010
1000
0001
0100
0010
1000
0100
0010
,
0001
1000
0001
0010
0100
1000
0100
0010
,
0001
1000
0010
0100
0001
1000
0001
0010
,
0100
1000
0100
0010
0001
1000
0100
0010
,
0001
1000
0010
0100
0001
0010
0100
1000
,
0001
0100
0010
1000
0010
0100
0001
1000
,
0100
0010
0001
0100
0010
0100
0001
1000
,
0010
0100
0010
1000
0100
0010
0001
0010
,
0100
1000
0001
0100
0010
0100
0001
1000
,
0100
0010
0001
1000
0100
1000
0010
0100
,
0001
0010
0001
0100
0010
1000
0100
0010
,
0001
0100
0001
1000
0010
1000
0001
0100
,
0010
1000
0100
0010
0001
0010
0100
1000
,
0010
0100
0004
1000
0000
1000
0000
1000
,
0000
1000
0000
1000
0000
1000
0000
1000
,
0000
1000
0000
1000
0000
1000
0000
1000
,
0000
1000
0000
1000
0000
1000
0000
1000
,
0403
0010
0000
0010
0000
0010
0000
0010
,
0000
0010
0000
0010
0000
0010
0000
0010
,
0000
0010
0000
0010
0000
0010
0000
0010
,
0000
0010
0000
0010
0000
0010
0000
0010
,
0000
0010
4300
0100
0000
0100
0000
0100
,
0000
0100
0000
0100
0000
0100
0000
0100
,
0000
0100
0000
0100
0000
0100
0000
0100
,
0000
0100
0000
0100
0000
0100
0000
0100
,
0000
0100
3004
0100
0000
0100
0000
0100
,
0000
0100
0000
0100
0000
0100
0000
0100
,
0000
0100
0000
0100
0000
0100
0000
0100
,
0000
0100
1003
0100
1000
0100
1000
0100
,
1000
0100
1000
0001
0100
0010
1000
0100
,
0010
0001
0100
0010
1000
0001
0100
0010
,
1000
0100
1000
0010
0100
0001
0010
0001
,
0100
0010
1000
0100
0010
0001
0010
0100
,
1000
0010
1000
0001
0100
0001
1000
0100
,
0010
0001
0100
0010
0100
0001
1000
0010
,
0100
0010
1000
0100
0010
0001
0100
0001
,
0010
0001
1000
0010
0100
0001
1000
0100
,
0010
0001
1000
0001
0100
0010
1000
0100
,
0010
0001
1000
0010
1000
0100
0010
0001
,
0100
0001
0010
0001
1000
0010
0100
0001
,
1000
0100
1000
0010
0100
0001
0100
0010
,
0100
0001
1000
0010
0100
0010
1000
0001
,
0100
0010
1000
0100
0010
0001
0100
0010
,
0100
0001
1000
0100
0010
0001
1000
0010
,
0100
0010
1000
0001
1000
0001
1000
0001
,
1000
0001
1000
0010
0100
0001
1000
0100
,
0010
0001
0100
0010
0100
0001
1000
0100
,
0010
0001
0010
0100
1000
0001
0100
0010
,
0100
0001
1000
0010
0100
0010
1000
0100
,
0010
0001
0100
0010
0100
0001
1000
0100
,
0010
0001
1000
0100
1000
0010
0100
0001
,
0010
0001
0100
0010
1000
0100
0010
0001
,
0100
0010
0100
0001
1000
0010
0100
0010
,
1000
0100
0010
0001
0100
0010
1000
0001
,
0100
0001
0010
0001
1000
0010
1000
0100
,
1000
0001
0100
0010
1000
0100
0010
0001
,
1000
0001
0010
0100
1000
0010
0100
0010
,
1000
0001
0020
0130
1000
0002
0013
0100
,
2000
3010
0100
0010
1000
0001
2000
3100
,
0020
0031
0200
0310
1000
0200
0310
0001
,
2000
3001
0100
0010
1000
0100
0020
0031
,
0020
0130
2000
3010
0100
0020
1030
0100
,
0020
0031
0100
0010
2000
3100
0010
0002
,
0103
0010
2000
3001
0010
0200
1300
0010
,
2000
3000
0001
1000
0200
0310
0001
0020
,
0130
1000
0020
0130
0001
2000
3100
0010
,
0002
1003
0100
0010
0001
0100
0010
0100
,
0001
1000
0100
0010
0001
0010
0100
1000
,
0001
0100
0010
0100
0001
1000
0010
0100
,
0010
1000
0002
0013
0100
2000
3010
1000
,
0100
0010
0002
0103
0010
2000
3100
0010
,
0002
1003
0002
0103
0010
2000
3100
0010
,
0002
1003
0200
0310
0001
2000
3001
0100
,
0002
0013
0200
1300
0001
0200
0310
1000
,
0200
0310
0002
1003
0100
2000
3010
0100
,
0002
0013
0001
1000
0020
0130
0001
1000
,
0010
0100
0001
1000
0001
1000
0001
1000
,
0001
1000
0001
0010
0100
1000
0001
0100
,
0010
0100
0001
1000
0100
0010
0001
0100
,
0001
0010
0100
1000
0001
0100
0010
1000
,
0001
0010
0100
1000
0001
0100
0001
0010
,
0001
1000
0001
1000
0010
1000
0100
0010
,
0001
0100
0010
0100
0001
1000
0010
0100
,
0010
1000
0001
0100
0010
1000
0010
0100
,
0001
0100
0010
1000
0100
0010
0001
0100
,
0010
1000
0001
0100
0001
0010
0100
1000
,
0001
0010
0001
0100
0010
1000
0100
1000
,
0010
0100
0001
0100
0010
1000
0100
0010
,
0001
0100
0010
1000
0001
0100
0001
0010
,
0001
0100
0010
1000
0100
0010
0001
0100
,
0010
1000
0001
1000
0010
0100
0001
1000
,
0001
0100
0010
1000
0100
0010
0001
1000
,
0001
0010
0100
1000
0100
0010
0001
0100
,
0010
1000
0001
0010
0100
0000
1000
0000
,
0020
0000
0030
0000
1000
0000
0001
0100
,
0001
1000
0010
0000
0001
0000
0100
0000
,
1000
0000
0000
0000
0000
0000
0001
0000
0000
0010
0000
0000
0100
0000
0000
1000
0000
0000
0001
0000
1000
0000
0001
0000
,
1000
0010
0100
1000
0001
0100
0010
1000
,
0100
0000
0000
0010
0000
0000
0001
0000
0000
0000
0000
0000
1000
0000
0000
0000
0000
0000
0001
0000
1000
0000
0001
0000
,
1000
0000
0001
1000
0010
0000
0100
0000
,
0001
0000
0000
0000
0000
0000
0100
0000
0000
0001
0000
0000
1000
0000
0000
0001
0000
0000
1000
0000
0001
0000
1000
0000
,
0001
0000
1000
0000
0001
0000
0000
0000
0000
1000
0000
0000
0100
0000
0000
0010
0000
0000
0001
0000
0000
1000
0000
0000
,
0010
0100
0001
0000
1000
0000
0020
0000
,
0030
0000
1000
0010
1000
0000
0010
0000
,
0001
0100
0010
2000
,
3000
0000
0000
0020
0000
0030
0100
0010
,
1000
0001
1000
0000
0010
0000
0100
0000
,
1000
0100
0010
0001
0010
0000
1000
0000
,
0001
0000
0000
0000
0000
0000
1000
0000
0010
0000
1000
0000
0010
0000
1000
0000
0001
0000
1000
0000
0000
0001
0000
0000
,
0010
0000
0200
M0M0
000M
M0M0
000M
M0M0
000M
M0M0
000M
M0M0
000M
M0M0
000M
M0M0
,
000M
M0M0
000M
M0M0
000M
M0M0
000M
M0M0
000M
M0M0
0300
0000
1000
0000
0100
0000
,
0010
0001
1000
0000
0000
0000
0001
0100
,
0010
0000
0000
1000
0000
0000
0001
0000
0000
1000
0000
0001
0000
1000
0000
0000
0000
0000
0010
0000
1000
0000
0010
0000
,
1000
0000
0001
0000
1000
0000
0001
0000
0000
0000
0000
0000
0000
0000
0000
0000
0000
0000
1000
0000
0000
0001
0000
0000
,
1000
0000
0000
0010
0000
0000
0100
0000
0000
0001
0000
1000
0000
0001
0000
0010
0000
0000
0100
0000
1000
0000
0100
0000
,
1000
0000
0001
0000
1000
0000
0001
0000
0000
0000
0000
0000
0000
0000
0000
0000
0000
0000
0001
0000
0000
0010
0000
0000
,
0100
0000
0000
1000
0000
0000
0001
0000
0000
0100
0000
0001
0000
0100
0000
0000
0000
0000
0001
0000
1000
0000
0001
0000
,
1000
0000
0001
0000
1000
0000
0001
0000
0000
0000
0000
0000
0000
0000
0000
0000
0000
0000
0100
0000
0000
0010
0000
0000
,
1000
0000
0000
0100
0000
0000
0010
0000
0000
0001
0000
1000
0000
0001
0000
0000
0000
0000
0100
0000
0001
0000
0100
0000
,
0001
0000
1000
0000
0001
0000
1000
0000
0000
0000
0000
0000
0000
0000
0000
0000
0000
0000
0001
0000
0000
0100
0000
0000
,
0010
0000
0000
1000
0000
0000
0001
0000
0000
1000
0000
0001
0000
1000
0000
0000
0000
0000
0010
0000
1000
0000
0010
0000
,
1000
0000
0001
0000
1000
0000
0001
0000
0000
0000
0000
0000
0000
0000
0000
0000
0000
0000
1000
0000
0000
0001
0000
0000
,
1000
0000
0000
0010
0000
0000
0100
0000
0000
0001
0000
1000
0000
0001
0000
0010
0000
0000
0100
0000
1000
0000
0100
0000
,
1000
0000
0001
0000
1000
0000
0001
0000
0000
0000
0000
0000
0000
0000
0000
0000
0000
0000
0001
0000
0000
0010
0000
0000
,
0100
0000
0000
1000
0000
0000
0001
0000
0000
0100
0000
0001
0000
0100
0000
0000
0000
0000
0001
0000
1000
0000
0001
0000
,
1000
0000
0001
0000
1000
0000
0001
0000
0000
0000
0000
0000
0000
0000
0000
0000
0000
0000
0100
0000
0000
0010
0000
0000
,
1000
0000
0000
0100
0000
0000
0010
0000
0000
0001
0000
1000
0000
0001
0000
0000
0000
0000
0100
0000
0001
0000
0100
0000
,
0001
0000
1000
0000
0001
0000
1000
0000
0000
0000
0000
0000
0000
0000
0000
0000
0000
0000
0001
0000
0000
0010
0000
0000
,
0100
0000
0000
1000
0000
0000
0001
0000
0000
1000
0000
0001
0000
1000
0000
0000
0000
0000
0010
0000
1000
0000
0010
0000
,
1000
0000
0001
0000
1000
0000
0001
0000
0000
0000
0000
0000
0000
0000
0000
0000
0000
0000
1000
0000
0000
0001
0000
0000
,
1000
0000
0000
0010
0000
0000
0100
0000
0000
0001
0000
1000
0000
0001
0000
0010
0000
0000
0100
0000
1000
0000
0100
0000
,
1000
0000
0001
0000
1000
0000
0001
0000
0000
0000
0000
0000
0000
0000
0000
0000
0000
0000
0001
0000
0000
0010
0000
0000
,
0100
0000
0000
1000
0000
0000
0001
0000
0000
0100
0000
0001
0000
0100
0000
0000
0000
0000
0001
0000
1000
0000
0001
0000
,
1000
0000
0001
0000
1000
0000
0001
0000
0000
0000
0000
0000
0000
0000
0000
0000
0000
0000
0100
0000
0000
0010
0000
0000
,
1000
0000
0000
0100
0000
0000
0010
0000
0000
0001
0000
1000
0000
0001
0000
0000
0000
0000
0100
0000
0001
0000
0100
0000
,
0001
0000
1000
0000
0001
0000
1000
0000
0000
0000
0000
0000
0000
0000
0000
0000
0000
0000
0001
0000
0000
0100
0000
0000
,
0010
0000
0000
1000
0000
0000
0001
0000
0000
1000
0000
0001
0000
1000
0000
0000
0000
0000
0010
0000
1000
0000
0010
0000
,
1000
0000
0001
0000
1000
0000
0001
0000
0000
0000
0000
0000
0000
0000
0000
0000
0000
0000
1000
0000
0000
0001
0000
0000
,
1000
0000
0000
0010
0000
0000
0100
0000
0000
0001
0000
1000
0000
0001
0000
0010
0000
0000
0100
0000
1000
0000
0100
0000
,
1000
0000
0001
0000
1000
0000
0001
0000
0000
0000
0000
0000
0000
0000
0000
0000
0000
0000
0001
0000
0000
0010
0000
0000
,
0100
0000
0000
1000
0000
0000
0001
0000
0000
0100
0000
0001
0000
0100
0000
0000
0000
0000
0001
0000
1000
0000
0001
0000
,
1000
0000
0001
0000
1000
0000
0001
0000
0000
0000
0000
0000
0000
0000
0000
0000
0000
0000
0100
0000
0000
0010
0000
0000
,
0100
0000
0000
1000
0000
0000
0001
0000
0000
1000
0000
0001
0000
1000
0000
0000
0000
0000
0001
0000
0100
0000
0001
0000
,
1000
0000
0001
0000
1000
0000
0002
0000
0000
MMM0
0000
0000
MMM0
0000
0000
MMM0
0000
0000
MMM0
0000
0000
MMM0
0000
0000
,
MMM0
0MM0
2MM0
0MM0
0MM0
0MM0
0MM0
0MM0
,
0MM0
0000
3013
0100
1000
0001
1000
0100
,
0010
0001
1000
0010
0100
0001
1000
0100
,
0010
0000
0000
0100
0000
0000
1000
0000
0001
0000
1000
0000
0001
0000
0000
1000
0000
0000
0010
0000
0000
0100
0000
0000
,
0001
1000
0100
0010
0001
0010
0100
1000
,
0010
0000
0000
0100
0000
0000
0001
0000
0100
0000
0001
0000
0100
0000
0000
0010
0000
0000
1000
0000
0000
0100
0000
0000
,
0010
0001
1000
0010
1000
0001
0100
0001
,
1000
0000
0000
0100
0000
0000
1000
0000
0001
0000
1000
0000
0001
0000
0000
0100
0000
0000
0010
0000
0000
1000
0000
0000
,
0001
0100
0010
0100
0001
1000
0100
0010
,
0001
0000
0000
1000
0000
0000
0001
0000
0100
0000
0001
0000
0100
0000
0000
0010
0000
0000
1000
0000
0000
0100
0000
0000
,
0010
0001
0100
0010
0100
0001
1000
0100
,
0010
0000
0000
0001
0000
0000
1000
0000
0001
0000
1000
0000
0001
0000
0000
0100
0000
0000
0010
0000
0000
1000
0000
0000
,
0001
1000
0100
0010
0001
0010
0100
1000
,
0010
0000
0000
0100
0000
0000
0001
0000
1000
0000
0001
0000
1000
0000
0000
0010
0000
0000
0100
0000
0000
0001
0000
0000
,
1000
0100
0010
0001
0010
0100
1000
0001
,
0100
0000
0000
0010
0000
0000
1000
0000
0010
0000
1000
0000
0010
0000
0000
0100
0000
0000
0001
0000
0000
1000
0000
0000
,
0100
0010
0001
0010
0100
1000
0001
0100
,
0010
1000
0100
1000
0100
1000
0100
1000
,
0100
1000
0100
0010
0100
0010
0100
0010
,
0100
0010
0001
0010
0001
0010
0001
0010
,
0001
0010
0100
1000
0100
1000
0100
1000
,
0100
1000
0001
1000
0001
1000
0001
1000
,
0001
1000
0100
1000
0100
1000
0100
1000
,
0100
1000
0001
0100
0001
0100
0001
0100
,
0001
0100
0001
1000
0001
1000
0001
1000
,
0001
1000
0010
0100
0010
0100
0000
0000
,
0000
0000
1000
0001
1000
0001
0000
0000
,
0000
0000
0010
0001
0010
0001
0000
0000
,
0000
0000
0010
1000
0010
1000
0000
0000
,
0000
0000
1000
0100
1000
0100
0000
0000
,
0000
0000
0100
0010
0100
0010
0000
0000
,
0000
0000
0001
0010
0001
0010
0000
0000
,
0000
0000
0010
1000
0010
1000
0000
0000
,
0000
0000
1000
0010
1000
0010
0000
0000
,
0000
0000
0010
0001
0010
0001
0000
0000
,
0000
0000
0001
0100
0001
0100
0000
0000
,
0000
0000
0100
1000
0100
1000
0000
0000
,
0000
0000
0100
0001
0100
0001
0000
0000
,
0000
0000
0010
0001
0010
0001
0000
0000
,
0000
0000
0001
1000
0001
1000
0000
0000
,
0000
0000
0100
1000
0100
1000
0000
0000
,
0000
0000
1000
0010
1000
0010
0000
0000
,
0000
0000
0100
0010
0100
0010
0000
0000
,
0000
0000
0001
0100
0001
0100
0000
0000
,
0000
0000
0100
0010
0100
0010
0000
0000
,
0000
0000
0010
1000
0010
1000
0000
0000
,
0000
0000
1000
0001
1000
0001
0000
0000
,
0000
0000
0001
0100
0001
0100
0000
0000
,
0000
0000
0001
1000
0001
1000
0000
0000
,
0000
0000
1000
0100
0010
0001
0000
0000
,
0000
0000
1000
0001
0010
0100
0000
0000
,
0000
0000
0001
0010
0100
1000
0000
0000
,
0000
0000
1000
0010
1000
0010
0000
0000
,
0000
0000
0001
0100
0001
0100
0000
0000
,
0000
0000
0100
1000
0100
1000
0000
0000
,
0000
0000
1000
0001
1000
0001
0000
0000
,
0000
0000
0010
1000
0010
1000
0000
0000
,
1000
0000
0001
0000
1000
0000
0001
0000
1000
0000
0001
0000
,
1000
0000
0001
0000
1000
0000
0001
0000
1000
0000
0001
0000
,
1000
0000
0001
0000
1000
0000
0001
0000
1000
0000
0001
0000
,
1000
0000
0001
0000
1000
0000
0001
0000
1000
0000
0001
0000
,
1000
0000
0001
0000
1000
0000
0001
0000
1000
0000
0001
0000
,
1000
0000
0001
0000
1000
0000
0001
0000
1000
0000
0001
0000
,
1000
0000
0001
0000
1000
0000
0001
0000
1000
0000
0001
0000
,
1000
0000
0001
0000
1000
0000
0001
0000
1000
0000
0001
0000
,
1000
0000
0001
0000
1000
0000
0M02
0000
2000
00M0
0000
0000
,
0M00
00M0
0M00
00M0
,
0M00
00M0
0M00
00M0
,
0M00
00M0
0M00
00M0
,
0M00
00M0
0M00
00M0
,
0M00
00M0
0M00
00M0
,
0M00
00M0
0M00
00M0
,
0M00
00M0
0M00
00M0
,
0M00
00M0
0M00
00M0
,
0M00
00M0
0M00
00M0
,
0M00
00M0
0M00
00M0
,
0M00
00M0
0M00
00M0
,
0M00
00M0
0M00
00M0
,
0M00
00M0
0M00
00M0
,
0M00
00M0
0M00
00M0
,
0M00
00M0
0M00
00M0
,
0M00
00M0
0M00
00M0
,
0M00
00M0
0M00
00M0
,
0M00
00M0
0M00
00M0
,
0M00
00M0
0M00
00M0
,
0M00
00M0
0M00
00M0
,
0M00
00M0
0M00
00M0
,
0M00
00M0
0M00
00M0
,
0M00
00M0
0M00
00M0
,
0M00
00M0
0M00
00M0
,
0M00
00M0
0M00
00M0
,
0M00
00M0
0M00
00M0
,
0M00
00M0
0M00
00M0
,
0M00
00M0
0M00
00M0
,
0M00
00M0
0M00
00M0
,
3M03
0000
0000
0020
,
0000
0000
0000
0000
,
0000
0000
0000
0000
,
0000
0000
0000
0000
,
0000
0000
0000
0000
,
0000
0000
0030
0000
,
0000
0000
0000
0000
1000
0000
0000
0000
0000
0000
0000
0000
0000
0002
0000
0000
,
0000
0000
0000
0000
,
0000
MM00
0000
0000
0000
0000
0000
0000
0000
0000
0000
0000
0000
0000
0000
MM00
,
0000
0000
0000
0000
0000
MM00
0000
0000
,
0000
0000
0000
0000
0000
MM00
0000
0000
0000
0000
0000
0000
0000
0000
0000
0000
,
0003
0000
0000
0000
,
0000
0000
0000
0000
,
0000
0000
0000
0000
,
0000
0000
0000
0000
,
0000
0000
0000
0000
,
0000
0000
0000
0000
,
0000
0000
0000
0000
1000
0000
0000
1000
0020
0000
0000
0000
0000
0000
0000
0000
,
0000
0000
0000
0000
0000
0000
0030
0001
0100
0000
0001
0000
0010
0000
0100
0000
,
2000
0000
3000
0000
0200
0000
0300
0001
0020
0000
0000
0030
2000
0000
3000
0100
,
2000
0000
0000
3000
0002
0000
0003
0010
0200
0000
0000
0000
0000
0000
0000
0000
,
0000
0000
0300
0000
1000
0000
0000
1000
0020
0000
0000
0000
0000
0000
0000
0000
,
0000
0000
0000
0000
0000
0000
0030
0001
0100
0000
0001
0000
0010
0000
0100
0000
,
2000
0000
3000
0000
0200
0000
0300
0001
0020
0000
0000
0030
2000
0000
3000
0100
,
2000
0000
0000
3000
0002
0000
0003
0010
0200
0000
0000
0000
0000
0000
0000
0000
,
0000
0000
0300
0000
0000
0000
0000
0000
0200
0000
0000
0300
0010
0000
0002
0000
,
0000
0003
0100
0000
0010
0000
0100
0000
1000
0000
0001
0000
0001
0000
0001
0000
,
0001
0001
0001
0001
1000
0100
0100
0100
,
0100
0100
0100
0100
0010
0001
0001
0001
,
0100
0010
0010
0010
1000
0100
0100
0100
,
0100
1000
0100
0010
0001
1000
0001
0010
0200
0000
0010
0000
0010
0000
0310
0000
,
0002
0000
0013
0000
0200
0000
0310
0000
1000
0001
2000
0000
3010
0000
0200
0000
,
0301
0001
0001
0001
0020
0100
0130
1000
,
0200
0000
0301
0000
0020
0000
0031
0000
1000
0001
1000
0000
0001
0000
2000
0000
,
3010
0010
0010
0010
0020
1000
1000
1030
,
0001
0000
0020
0000
0100
0000
0130
0000
2000
3000
0100
0000
0002
0003
0010
0000
,
0002
0003
0010
0000
0100
0000
1000
0000
0200
0000
0010
0000
0010
0000
0310
0000
,
1000
0000
0002
0000
0013
0000
0010
0000
1000
0010
0100
0000
0010
0000
0002
0000
,
0013
0010
0010
0010
2000
0010
0010
3010
,
0002
0000
0013
0000
0200
0000
0310
0000
1000
0001
2000
0000
3010
0000
0200
0000
,
0310
0010
0010
0010
0020
0001
0031
1000
,
0200
0000
0301
0000
0020
0000
0031
0000
0100
0010
0001
0000
0001
0000
2000
0000
,
3001
0001
0001
0001
0020
0100
0100
0130
,
0001
0000
0020
0000
0100
0000
0130
0000
2000
3000
0100
0000
0020
0030
0001
0000
,
0200
0300
0010
0000
1000
0000
0001
0000
0200
0000
0010
0000
0010
0000
0310
0000
,
2000
3000
0002
0003
1000
0100
0010
0001
1000
0000
0100
0000
0010
0000
0001
0000
,
1000
0100
0010
0001
1000
0100
0010
0001
0200
0000
0301
0000
1000
0000
0010
0000
,
1000
0000
0001
0000
0020
0000
0031
0000
0002
0013
0100
1000
0100
0000
0010
0000
,
0001
0000
1000
0000
0200
0310
1000
0001
2000
0000
3001
0000
0010
0000
0100
0000
,
1000
0000
0100
0000
0020
0000
0030
0000
0002
0013
0100
1000
0001
0000
0010
0000
,
1000
0010
0100
0001
0010
0100
1000
0001
2000
0000
3100
0000
0010
0000
0001
0000
,
1000
0000
0001
0000
0020
0000
0130
0000
2000
0100
3010
0001
0020
0130
1000
0001
,
0020
0130
1000
0010
1000
0100
0010
0001
2000
0000
0100
0000
0010
0000
3001
0000
,
0200
0300
0020
0030
0001
0000
1000
0000
0100
0010
0001
1000
0001
1000
0100
0010
,
0001
0010
0100
1000
0001
0100
0010
1000
0200
0000
1000
0000
0001
0000
1000
0000
,
0001
0000
1300
0000
0020
0000
1030
0000
0002
1000
0103
0010
0001
0000
0010
0000
,
0100
0000
1000
0000
2000
3100
0010
0001
2000
0000
0001
0000
0100
0000
0001
0000
,
0100
0000
3001
0000
0020
0000
1030
0000
2000
3100
0010
0001
1000
0000
0001
0000
,
0001
0010
0100
1000
0010
0100
0001
0010
0002
0000
1000
0000
0010
0000
1000
0000
,
0010
0000
1003
0000
0020
0000
0130
0000
2000
3100
0010
0001
2000
3010
0100
0001
,
0020
0130
1000
0001
1000
0100
0010
0001
0010
0000
0010
0000
0100
0000
0100
0000
,
1000
1000
0010
0010
0100
0000
0001
1000
,
0000
0000
0000
0000
0000
0000
1000
0100
0010
0001
1000
0010
0100
0001
0010
0001
,
0100
0010
1000
0100
0010
0001
0100
0010
1000
0010
0100
0001
0100
0010
1000
0100
,
0010
0001
1000
0010
1000
0001
0100
0001
1000
0100
0010
0001
1000
0010
1000
0001
,
0010
0001
0100
0010
1000
0100
0010
0001
0100
0010
1000
0001
0100
0010
1000
0100
,
0010
0001
0010
0100
1000
0001
0100
0010
1000
0100
0010
0001
0100
0010
1000
0010
,
0100
0001
0100
0010
1000
0100
0010
0001
0010
0100
1000
0001
0100
0010
1000
0001
,
0010
0001
0100
0010
1000
0100
1000
0001
1000
0010
0100
0001
0010
0100
1000
0001
,
0100
0010
1000
0100
1000
0010
0100
0001
0100
0010
1000
0100
0010
0001
0010
0100
,
1000
0001
0100
0010
1000
0100
0010
0001
2000
3000
0200
0300
0020
0030
0002
0000
,
1003
0000
0000
0000
0002
0000
0003
0000
0020
0030
0000
0000
0200
0000
0000
0000
0300
0000
0000
0000
2000
0000
0000
0000
0001
0000
0000
0000
0100
0000
0000
0000
,
3001
0000
0010
0000
0100
1000
0100
0010
0002
0003
0100
0000
0020
0030
2000
3000
,
0100
0000
0010
0000
0002
0003
0020
0030
0100
1000
0010
0100
0001
0010
0100
1000
,
0001
0100
0010
1000
0100
0010
0001
1000
0020
0030
0200
0300
2000
3000
0002
0003
,
0010
0000
0200
0300
2000
3000
0200
0000
0310
0000
2000
0000
0001
0000
0010
0000
,
3100
0000
1000
0000
0010
0100
1000
0001
0020
0030
0200
0300
2000
3000
0002
0003
,
0010
0000
0200
0300
2000
3000
0002
0003
1000
0000
0200
0300
0020
0030
0002
0003
,
0200
0300
0020
0030
2000
3000
0002
0003
2000
0000
0001
0000
0100
0000
0001
0000
,
0100
0000
0001
0000
3100
0000
0010
0000
0200
0000
0300
0000
0002
0003
0020
0030
,
0200
0300
2000
3000
0002
0003
0020
0030
1000
0000
0100
0000
0010
0000
0001
0000
,
1000
0000
0000
0000
0000
0000
0001
0000
0000
0000
0010
0000
0100
0000
1000
0000
0001
0000
0000
0000
0000
0000
0000
0000
1001
0000
0000
0000
0000
0000
0000
0000
0000
0000
0000
0000
0100
0000
0000
0000
0000
0000
0000
0000
0000
0010
0000
0000
,
0001
0000
1000
0000
0100
0000
0010
0000
0001
0000
0000
0000
0100
0000
0000
0001
,
1000
0000
0000
0000
0010
0000
0000
0000
1000
0000
0000
0000
0100
0000
0000
0010
,
0001
0000
1000
0000
0100
0000
0010
0000
0001
0000
0000
0000
0100
0000
0000
0001
,
0010
0000
0100
0000
1000
0000
0100
0000
0010
0000
0000
0000
0100
0000
0000
0010
,
0001
0000
0010
0000
0100
0000
0001
0000
0100
0000
0000
0000
1000
0000
0000
0100
,
0010
0000
0000
0000
1000
0000
0000
0000
0010
0000
0000
0000
0001
0000
0000
0001
,
0100
0010
1000
0100
1001
0000
0000
0000
,
1001
0000
0010
0000
0100
0000
1000
0000
1001
0000
0010
0000
0110
0000
1000
0100
,
0010
0001
1000
0000
0010
0000
0100
0000
0001
0000
0010
0000
0100
0000
1000
0010
,
0100
0001
1000
0000
0100
0000
0010
0000
1001
0000
0010
0000
0100
0000
1000
0010
,
0100
0001
1000
0000
0100
0000
0010
0000
1001
0000
0001
0000
0110
0000
1000
0001
,
0010
0100
1000
0000
0001
0000
0100
0000
1001
0000
0000
0000
1000
0000
0000
0100
,
0010
0000
0001
0000
1000
0100
0010
0001
0100
0000
0000
0000
1000
0000
0000
0010
,
0001
0000
1000
0000
0100
0010
0001
1000
0010
0000
0100
0000
1001
0000
0100
0010
,
0001
0000
0000
0000
0000
0000
0000
0000
1000
0000
0000
0000
0000
0000
0000
0000
0010
0000
0000
0000
0000
0000
0000
0000
0100
0000
0000
0000
0000
0000
0000
0000
0001
0000
0000
0000
0010
0000
0000
0000
0100
0000
0000
0000
1000
0000
0000
0000
0000
0000
0000
0000
0000
0000
0000
0000
0010
0001
0000
0000
0000
0000
0000
0000
,
1000
0100
0000
0000
0000
0000
0000
0000
0000
0000
0000
0000
0000
0000
0000
0000
MMMM
0000
0000
0000
0000
0000
0000
0000
0000
0000
0000
0000
0000
0000
0000
0000
2000
0000
0000
0000
0100
0000
0000
0000
3010
0000
0000
0000
0001
0000
0000
0000
0200
0000
0000
0000
0010
0000
0000
0000
1300
0000
0000
0000
0010
0000
0000
0000
,
1000
0100
0010
0001
0100
0010
1000
0001
0200
0001
0310
0100
2000
0100
3010
0001
,
2000
0001
3010
0100
2000
0001
3100
0010
2000
0010
3100
0001
0200
0310
1000
0100
,
0010
0001
1000
0100
1000
0010
0100
0001
0020
0001
1030
0001
0200
0010
1300
0100
,
0010
0001
0100
0010
1000
0100
0010
0001
0200
0001
1300
0010
0200
0301
1000
0100
,
1000
0010
0100
0001
0010
0001
0100
0010
2000
0100
3010
0001
0020
0130
1000
0010
,
2000
0100
3010
0001
0200
0001
0310
0100
2000
0001
3100
0001
2000
3010
1000
0100
,
0010
0001
0100
0010
1000
0100
0010
0001
2000
0001
3100
0001
0010
0100
1000
0100
,
0010
0001
0010
0000
1000
0000
0001
0000
2000
0100
3010
0001
0200
0010
1300
0010
,
1000
0100
0010
0001
0100
0010
1000
0001
0200
0001
0310
0100
2000
0100
3010
0001
,
2000
0001
3010
0100
2000
0001
3100
0010
2000
0010
3100
0001
0200
0310
1000
0100
,
0010
0001
1000
0100
1000
0010
0100
0001
0020
0001
1030
0001
0200
0010
1300
0100
,
0010
0001
0100
0010
1000
0100
0010
0001
0200
0001
1300
0010
0200
0301
1000
0100
,
1000
0010
0100
0001
0010
0001
0100
0010
2000
0100
3010
0001
0020
0130
1000
0010
,
2000
0100
3010
0001
0200
0001
0310
0100
2000
0001
3100
0001
2000
3010
1000
0100
,
0010
0001
0100
0010
1000
0100
0010
0000
1100
0000
0110
0000
0011
0000
1001
0000
,
1010
0000
0101
0000
1000
0100
0010
0001
1000
0010
0100
0001
0010
0001
0100
0010
,
1000
0100
0010
0001
0100
0010
1000
0001
0010
0001
0100
0010
1000
0100
0010
0001
,
0100
0010
1000
0010
0100
0001
0100
0010
1000
0100
0010
0001
0010
0100
1000
0001
,
0100
0010
1000
0001
0100
0010
0100
0001
1000
0010
0100
0010
1000
0100
0010
0001
,
0100
0010
1000
0100
1000
0001
0100
0010
1000
0000
1000
0000
1000
0000
1000
0000
,
1000
0000
0000
0000
0001
1000
0001
1000
,
0010
0100
1000
0001
1000
0100
0010
0001
2000
0000
3100
0000
0010
0000
0001
0000
,
0020
0000
0031
1000
0001
0000
0010
0000
1000
0000
0010
0000
0200
0000
0301
0000
,
2000
3010
0200
0301
0020
0100
1030
0010
,
0200
0000
1300
0001
1000
0000
0001
0000
0100
0000
0001
0000
1000
0000
0010
0000
,
2000
3000
0001
2000
3001
0000
0100
0000
0020
0000
0031
0000
2000
3000
0200
0000
,
0310
0000
0002
1003
0001
0000
0002
0000
1003
0000
0010
1000
0001
1000
0100
0010
,
0002
0103
0020
1030
0200
0310
0001
1000
,
0002
0000
0103
0000
0020
0030
1000
0000
0200
0000
0310
0000
0002
0000
0103
0000
,
0020
0130
1000
0100
0010
0001
1000
0010
0200
0000
0310
0000
1000
0000
0100
0000
,
0020
0000
0031
1000
0010
1000
0100
0010
0002
0003
0010
0100
2000
0000
3010
0000
,
0200
0000
0301
0000
2000
0000
3100
0000
0020
0030
0001
0010
0100
1000
0001
0000
,
2000
0000
3100
0020
0031
0000
0010
0000
1000
0000
0001
0000
1000
0000
0010
0000
,
0002
0000
1003
0002
1003
0000
0020
0030
0200
0000
1300
0000
0001
0000
0010
0000
,
0200
0000
1300
0000
0002
0003
0200
0000
0310
0000
2000
3000
0002
0000
0103
0000
,
0020
0000
0130
0000
2000
3000
0001
0000
0020
0000
0130
0000
1000
0000
0001
0000
,
0100
0010
1000
0010
1001
1010
0101
1010
,
0101
0000
0110
0000
1001
0000
0101
0000
2000
3100
0010
0001
1000
0001
0100
0010
,
2000
3001
0100
0001
1000
0100
0010
0001
2000
3100
1000
0010
0100
0001
0100
0010
,
2000
3100
0010
0001
0010
0100
1000
0010
0200
0300
0100
0000
0102
0003
0100
0000
,
0102
0003
0000
0000
1002
0003
0000
0000
0102
0003
0000
0000
0012
0003
0000
0000
1000
0000
0000
0000
1002
0000
0003
0000
1000
0000
0000
0000
1002
0000
0003
0000
,
1000
0001
0100
0001
0010
0100
1000
0001
0100
0000
0000
1000
0100
0010
0001
1000
,
0010
0000
0000
0001
0010
0100
1000
0010
1000
0000
0001
0000
1000
0001
0000
0010
,
0100
1000
0001
0100
0001
1000
0100
0010
1001
0000
0000
0000
0000
0000
0000
0000
;
