#TITLE:Warheart;
#SUBTITLE:;
#ARTIST:Children of Bodom;
#TITLETRANSLIT:;
#SUBTITLETRANSLIT:;
#ARTISTTRANSLIT:;
#CREDIT:;
#BANNER:Warheart-Banner.png;
#BACKGROUND:Warheart-BG.png;
#LYRICSPATH:;
#CDTITLE:;
#MUSIC:Children Of Bodom - 04 - Warheart.mp3;
#OFFSET:-0.300;
#SAMPLESTART:5.465;
#SAMPLELENGTH:12.000;
#SELECTABLE:YES;
#BPMS:0.000=180.000,31.000=187.500,103.000=188.500,167.000=187.000,199.000=189.000,235.000=188.000;
#STOPS:;
#BGCHANGES:;
// cache tags:
#FIRSTBEAT:16.000;
#LASTBEAT:511.000;
#SONGFILENAME:Songs/IzzySM Keyboard Mega Pack/Warheart/Warheart.sm;
#HASMUSIC:1;
#HASBANNER:1;
#MUSICLENGTH:164.571;
// end cache tags

//---------------dance-single - ----------------
#NOTES:
     dance-single:
     :
     Challenge:
     13:
     1.000,1.000,0.188,0.122,1.000,1357.000,31.000,20.000,0.000,0.000:
0000
0000
0000
0000
,
0000
0000
0000
0000
,
0000
0000
0000
0000
,
0000
0000
0000
0000
,
1001
0000
1000
0100
0010
0001
1000
0010
1000
0010
0100
0001
0010
0001
0010
0100
,
0010
0001
1000
0100
1000
0001
0100
0001
0011
0000
0000
0000
0110
0000
1100
0000
,
1000
0001
0100
0001
0010
0100
1000
0100
1000
0010
0100
0010
1000
0100
0010
0100
,
1000
0001
0100
0001
0010
0000
1001
0000
0000
0000
0101
0000
0101
0001
0100
0010
,
1000
0010
0100
0001
0010
0100
1000
0001
0010
0100
1000
0010
0100
0010
1000
0100
,
1000
0010
0100
0001
0010
0100
0010
0001
0100
0001
0010
0100
1000
0010
0100
0001
,
0100
0001
0010
0100
0010
0001
1000
0001
1000
0010
0100
0010
1000
0010
0100
0001
,
1000
0100
0010
0001
0010
0100
1000
0010
0100
0001
0100
0010
1000
0010
0100
0010
,
1000
0010
0100
0010
1000
0010
0100
0010
1000
0010
0100
0010
1000
0001
0100
0001
,
1000
0001
0100
0001
1000
0001
0100
0001
1000
0001
0100
0001
0010
0100
1000
0100
,
0010
0100
1000
0100
0010
0100
1000
0100
0010
0100
1000
0100
0010
0001
0100
0010
,
1000
0001
0100
0010
1000
0100
0010
0001
1000
0100
0010
0001
1000
0000
0000
0000
,
1001
0000
1000
0100
0010
0000
0110
0000
,
0010
0000
0010
0001
1000
0000
1100
0000
,
1000
0000
1000
0001
0100
0000
0110
0000
,
0100
0000
0000
0000
0100
0000
0001
0000
1000
0000
0000
0000
0001
0010
0100
0010
,
0001
0010
0100
0010
0001
0010
0100
0010
0001
0010
0100
0010
0001
0100
0010
0100
,
0001
0100
0010
0100
0001
0100
0010
0100
0001
0100
0010
0100
0001
1000
0010
1000
,
0001
1000
0010
1000
0001
1000
0010
1000
0001
1000
0010
1000
0001
1000
0100
1000
,
0001
1000
0100
1000
0001
1000
0100
1000
0001
1000
0100
1000
0001
0000
0000
0000
,
0000
0011
0110
0000
0000
1100
0110
0000
,
0000
0000
2002
0000
0000
3003
1000
0001
,
0100
0001
0010
0000
0100
0000
1000
0000
0001
1000
0010
0000
0100
0000
0001
0000
,
0010
0100
1000
0000
0100
0000
1000
0000
0010
0100
0001
0000
1000
0000
0010
0000
,
0100
0010
1000
0000
0100
0000
0010
0000
0001
1000
0010
0000
1000
0010
1000
0000
,
0010
0100
0010
0000
0100
0001
0100
0000
0001
0010
0001
0000
0010
0000
0100
0000
,
1000
0010
1000
0000
0100
0000
0001
0000
0100
0010
1000
0000
0100
0000
1000
0000
,
0001
1000
0001
0000
1000
0000
0010
0000
0100
0010
1000
0000
0100
0000
0001
0000
,
0100
0000
0000
1000
0000
0000
0010
0000
0000
0000
0000
0000
0100
0000
0000
0000
0000
0000
0001
0000
0000
0000
0000
0000
0010
0000
0000
0100
0000
0000
1000
0000
0000
0000
0000
0000
0001
0000
0000
0000
1000
0000
0000
0000
0010
0000
0000
0000
,
0001
0000
0010
0000
1000
0000
0100
0000
1000
0000
0010
0000
0100
0000
0001
0000
0010
0000
0100
0000
0000
1000
0000
0000
,
0010
0100
0001
0000
0100
0000
0010
0000
1000
0100
0001
0000
0100
0000
1000
0000
,
0010
0100
0010
0000
0010
0000
0100
0000
0001
0010
0100
0000
1000
0000
0010
0000
,
1000
0100
0010
0000
0001
0000
1000
0000
0001
0010
0001
0000
1000
0100
1000
0000
,
0001
0100
0001
0000
0010
0100
0010
0000
1000
0100
1000
0000
0001
0000
1000
0000
,
0010
0100
0010
0000
1000
0000
0100
0000
0010
0001
0010
0000
0100
0000
1000
0000
,
0100
1000
0010
0000
0100
0000
0001
0000
0010
0001
1000
0000
0100
0010
0001
0000
,
1000
0010
0100
0000
0001
0010
0001
0000
1000
0100
0010
0000
0001
1000
0010
0100
,
0001
1000
0010
0100
0001
0010
0100
1000
0001
0010
0100
1000
0001
1000
0010
0100
,
0001
0010
0100
1000
0100
0010
0100
1000
0001
0100
0001
0010
0001
0010
0100
0010
,
0001
1000
0010
1000
0010
0100
0001
0010
0100
0010
0001
1000
0010
0100
0001
0010
,
0100
1000
0010
1000
0100
1000
0010
0100
0010
1000
0100
0010
0001
0000
0000
0000
,
1001
0000
0000
0000
0101
0000
0000
0000
1010
0000
0000
0000
1000
0010
0100
0010
,
0100
0001
0010
0100
1000
0100
0010
0100
1000
0010
0100
0001
0010
0100
0001
0100
,
1000
0010
0100
0001
0010
0100
1000
0010
0100
0001
1000
0010
0100
0001
0100
0010
,
1000
0000
0000
0100
0000
0000
0010
0000
0000
0001
0000
0000
0100
0000
0000
0010
0000
0000
1000
0000
0000
0100
0000
0000
0010
0000
0000
0100
0000
0000
1000
0000
0000
0001
0000
0000
0100
0000
0000
0000
0000
0000
0000
0000
0001
0000
0000
0000
,
0100
0010
1000
0001
0100
0010
1000
0100
0010
0001
1000
0010
,
1000
0100
1000
0001
0010
0100
1000
0100
0010
0100
1000
0010
,
0100
0001
0010
0100
1000
0010
1000
0010
0100
0010
0100
0001
,
0100
0001
0010
0001
0010
0100
0010
0100
1000
0100
1000
0001
,
1000
0001
0010
0100
1000
0001
0010
0100
1000
0010
0100
0001
,
1000
0010
0100
0001
1000
0010
1000
0010
0100
0010
0100
0001
,
0010
0100
0010
0100
1000
0100
0010
0100
1000
0001
0100
0001
,
0010
0100
0010
0100
1000
0001
1000
0001
0100
0001
0010
0100
,
1000
0100
0001
0100
1000
0010
0100
0001
0010
0100
0000
0000
,
0000
0000
0000
0000
2002
0000
0000
0000
3003
0000
0000
0000
0001
1000
0010
1000
,
0100
1000
0001
0010
0100
1000
0100
0010
0100
0001
0100
0010
0100
1000
0100
0010
,
0001
0010
1000
0010
0100
0010
0001
0010
0001
1000
0010
0100
0001
1000
0010
0100
,
0001
1000
0010
1000
0010
0100
0010
0100
0001
0010
0100
1000
0001
0010
0100
1000
,
0001
1000
0010
0100
0010
1000
0100
0010
0001
1000
0001
0010
0100
1000
0100
0010
,
0001
1000
0001
1000
0100
1000
0010
0100
0001
0100
0001
0010
0100
0010
0001
1000
,
0001
1000
0010
0100
0010
1000
0100
1000
0100
0010
0100
0010
1000
0100
0010
0001
,
1000
0000
0000
0100
0000
0000
0010
0000
0000
0100
0000
0000
1000
0000
0000
0100
0000
0000
0010
0000
0000
0001
0000
0000
1000
0000
0000
0000
0000
0000
0000
0000
0000
0000
0000
0000
0001
0000
0000
0000
0010
0000
0000
0000
0100
0000
0000
0000
,
1000
0000
0100
0000
0010
0000
0001
0000
0100
0000
0010
0000
1000
0000
0010
0000
0100
0000
0001
0000
0000
0010
0000
0000
,
0100
1000
0001
0010
0100
1000
0001
0010
,
0100
1000
0001
0100
0010
1000
0001
0010
,
0100
1000
0001
0010
0100
1000
0001
0010
,
0100
0000
1000
0000
0001
0000
0100
0000
0010
0000
1000
0000
0001
0010
0100
1000
,
0010
0100
0001
0010
0100
1000
0100
0010
0001
0100
0010
1000
0010
0100
0001
0010
,
0100
1000
0010
0100
0001
0010
0001
1000
0100
1000
0010
0100
0010
0001
0010
0001
,
1000
0000
0000
0010
0000
0000
1000
0000
0000
0100
0000
0000
1000
0000
0000
0000
0100
0000
0000
0000
1000
0000
0000
0000
0100
0000
0000
0000
1000
0000
0000
0000
0100
0000
0000
0000
2000
0000
0000
0000
0000
0000
0000
0000
0000
0000
0000
0000
,
0000
0000
0000
3000
0000
0000
1001
0000
0000
1000
0001
0100
,
0001
1000
0010
0100
0001
0010
0001
1000
0100
1000
0010
0100
,
0010
0001
1000
0001
0100
0010
1000
0010
0100
0001
0010
0100
,
1000
0100
1000
0010
0100
0010
1000
0100
0010
0001
1000
0100
,
1000
0001
0100
0001
0010
0100
1000
0001
0010
0100
1000
0001
,
1000
0010
0100
0001
0100
0001
1000
0010
1000
0010
1000
0100
,
0010
0001
0010
0001
1000
0010
1000
0100
1000
0010
0100
0001
,
1000
0001
0100
0001
0010
0100
1000
0100
0010
0001
0010
0001
,
0010
0001
0010
0001
0010
0001
0010
0001
0010
0001
0010
0100
,
1000
0100
0010
0001
0100
0010
1000
0010
0100
0001
0010
0100
,
1000
0100
0010
0001
0100
0010
1000
0010
0100
0001
1000
0010
,
0100
0001
0100
0010
1000
0100
0010
0001
0010
0100
1000
0001
,
1000
0010
1000
0100
1000
0010
1000
0001
1000
0010
0100
0001
,
0010
0100
1000
0010
0100
0001
0010
0100
1000
0010
0100
0001
,
0100
0001
0010
0001
1000
0001
0010
0001
0100
0001
0100
1000
,
0100
0000
0001
0000
0010
0000
0100
0000
0000
1000
0000
0000
0001
0000
0000
1000
0000
0000
0010
0000
0000
0100
0000
0000
,
0001
1001
0000
0000
0000
0000
1001
1000
,
1000
0100
0000
0000
0010
0000
0010
0000
,
0010
0000
0110
0000
0001
1000
0000
0000
,
1000
0000
1000
0000
1000
0100
0000
0000
,
0010
0000
0000
0000
0010
0000
0001
0010
0001
0010
0001
0000
0000
0000
0000
0000
,
0010
0010
0100
1000
0000
0000
1000
0000
,
1000
0000
1000
0001
0000
1001
0000
0000
,
0010
0000
0000
0000
0010
0000
0000
0000
0010
0000
0100
0000
0001
0000
0100
0010
,
0001
0010
0100
0000
0001
0000
0010
0000
0000
0000
0110
0000
0000
0000
0100
0000
,
1000
0100
1000
0000
0000
0000
1000
0000
0010
1000
0010
0000
0000
0000
0100
0000
,
0001
0100
0001
0000
0000
0000
0010
0000
0100
0010
0100
0000
2000
0000
0000
0000
,
0000
0000
0001
0000
0000
0001
3002
0000
,
0000
0000
0203
0000
0000
0010
0320
0000
,
0000
0000
1000
0000
2030
0001
3001
0000
,
1001
0000
0000
0000
1000
0000
0010
0000
0100
0000
0000
0000
0001
0010
0100
0000
,
1000
0000
0010
0000
0100
0000
0001
0000
0000
0010
0000
0000
0100
0000
0000
0000
,
0000
0000
1000
0000
2000
0000
0000
0000
3001
0000
0000
0000
1000
0100
0010
0001
,
0010
0100
1000
0010
0100
0001
0100
0001
0010
0001
0010
0100
0010
0100
1000
0100
,
1000
0100
0010
0100
0010
0001
0010
0100
1000
0100
0010
0001
1000
0000
0001
0100
,
0001
0000
0000
0100
0000
0000
0001
0000
0000
0010
0000
0000
0100
0000
0000
1000
0000
0000
0100
0000
0000
0010
0000
0000
0001
0000
0000
0010
0000
0000
0100
0000
0000
1000
0000
0000
0001
0000
0000
0000
0100
0000
0000
0000
0010
0000
0000
0000
,
0001
0010
0100
0002
0000
0000
0000
0000
0000
0000
0000
0000
,
1003
0001
0100
0001
1000
0100
0010
0001
,
1000
0000
0010
0000
0100
0000
0001
0000
0100
0000
0010
0000
1000
0010
1000
0010
,
1000
0000
0000
0100
0000
0000
0001
0000
0000
0100
0000
0000
1000
0000
0000
0010
0000
0000
0100
0000
0001
0000
0010
0000
,
0100
0000
0000
0000
1000
0000
0000
0000
0010
0000
0000
0000
0100
0000
0000
0000
0001
0000
0000
0000
0100
0000
0000
0000
0010
0000
0000
0000
1000
0000
0000
0000
0100
0000
0000
0000
0010
0000
0000
0001
0000
0000
1000
0000
0000
0001
0000
0000
,
0100
0010
1000
0010
0100
0001
0010
0100
1000
0100
1000
0010
0100
0001
0100
0010
,
1000
0100
0010
0001
1000
0100
0010
0001
1000
0001
0100
0001
2000
0000
0000
0000
,
3001
0000
0000
0200
0000
0000
0000
0000
0000
0310
0000
0000
0000
0000
0000
0010
0000
0000
1000
0000
0000
0000
0100
0000
,
0000
0000
0000
0000
0010
0000
0000
0000
0000
0000
0000
0000
0001
0000
0000
0000
0000
0000
0000
0000
0000
0000
0000
0000
0000
0000
0000
0000
0000
0000
0000
0000
0000
0000
0000
0000
1000
0000
0000
0001
0000
0000
1000
0000
0000
0010
0000
0000
,
0100
0010
1000
0100
0010
0100
1000
0001
0100
0001
0010
0100
1000
0100
1000
0010
,
0100
0001
0010
0100
0010
0100
1000
0001
0020
0000
0000
0000
0031
0100
0010
1000
,
0010
1000
0010
1000
0100
0010
0100
0010
0001
1000
0001
0100
0001
0010
0100
1000
,
0010
0100
0010
1000
0100
0010
0100
1000
0010
0100
0001
0010
0100
0010
0001
1000
,
0001
0100
0001
1000
0001
1000
0010
0100
0001
0010
0100
0010
0200
0000
0000
0000
,
0000
0000
0320
0000
0000
0000
0032
0000
0000
0000
0003
0000
1001
0000
1000
0010
,
0100
0001
0100
0001
0010
0100
1000
0100
1000
0010
0100
0010
0100
0010
1000
0100
,
0010
0001
1000
0001
0010
0000
0011
0000
0000
0000
0011
0000
0220
0000
0000
0000
,
0000
0000
0000
0330
;
