#TITLE:Break This Terror;
#SUBTITLE:;
#ARTIST:The Noisy Terrorist;
#TITLETRANSLIT:;
#SUBTITLETRANSLIT:;
#ARTISTTRANSLIT:;
#CREDIT:Rynker;
#BANNER:break this bn.png;
#BACKGROUND:break this bg.png;
#LYRICSPATH:;
#CDTITLE:;
#MUSIC:06 The Noisy Terrorist - Break This Terror.ogg;
#OFFSET:-0.018;
#SAMPLESTART:104.080;
#SAMPLELENGTH:12.000;
#SELECTABLE:YES;
#BPMS:0.000=250.000;
#STOPS:;
#BGCHANGES:;
// cache tags:
#FIRSTBEAT:15.500;
#LASTBEAT:664.750;
#SONGFILENAME:Songs/SPEEEDCOOOORE 2/Break This Terror - [Rynker]/break this terror.sm;
#HASMUSIC:1;
#HASBANNER:1;
#MUSICLENGTH:160.369;
// end cache tags

//---------------dance-single - Rynker----------------
#NOTES:
     dance-single:
     Rynker:
     Challenge:
     14:
     1.000,1.000,0.181,0.193,0.571,1248.000,29.000,31.000,0.000,0.000:

0000
0000
0000
0000
,
0000
0000
0000
0000
,
0000
0000
0000
0000
,
0000
0000
0000
0000
0000
0000
0000
0001
,
0100
0000
0000
0010
1000
0000
0101
0000
,
0000
0011
1000
0000
,
1000
0001
1000
0000
0001
0100
0001
0000
1000
0000
0000
0000
0001
0010
0001
1000
,
0001
1000
0100
1000
0100
0000
0000
0000
1000
0000
0001
0000
0100
0000
0010
0000
,
1000
0000
0000
0001
1000
0000
1100
0000
,
0000
0011
1000
0000
,
0101
0001
0000
1010
1000
0000
1001
0001
,
0000
0000
0110
0000
1000
0000
0000
0001
,
0100
0000
0000
0011
0010
0000
1100
0000
,
0000
1010
0010
0000
,
0100
0001
0100
0000
0001
1000
0001
1000
0001
0000
0000
0000
1000
0001
1000
0001
,
0100
0010
0100
0010
1000
0000
0000
0000
0001
0000
0010
0000
0100
0000
1000
0000
,
0001
1000
0001
1000
0010
0000
0100
0000
0001
0000
1000
0000
0100
1000
0100
1000
,
0001
0010
0001
1000
0001
0000
1000
0000
0010
0000
0100
0000
0001
1000
0001
0100
,
0010
1000
0010
0100
0001
0000
1000
0000
0001
0000
0010
0000
0100
1000
0001
1000
,
0001
0010
0001
1000
0100
0000
1000
0000
0001
0000
0100
0000
0010
1000
0001
1000
,
0001
0100
0010
1000
0010
0000
1000
0000
0100
0000
0010
0000
0001
0010
0100
0010
,
0001
1000
0001
1000
0100
0000
0010
0000
0001
0000
1000
0000
0001
0100
0010
1000
,
0001
1000
0001
0100
0010
0000
0100
0000
0001
0000
1000
0000
0100
0010
0100
1000
,
0001
0010
0001
1000
0100
1000
0001
0010
0100
0010
0001
1000
0001
0010
0100
1000
,
0001
1000
0000
1000
,
0101
0001
1000
0100
1000
0001
0020
0000
,
0130
1000
0001
0010
0100
1000
0100
0010
,
0001
0000
0100
0000
0010
0000
1000
0000
0001
0000
0100
0000
0010
0000
1000
0001
,
1000
0100
0010
0100
1000
0001
0100
0001
,
1001
1000
0100
0010
0001
1000
1010
0010
,
1000
0001
0100
0010
0100
0001
1000
0010
,
0100
0000
0001
0000
1000
0000
0100
0000
0010
0000
0001
0000
1000
0000
0001
0100
,
0001
0010
0100
1000
0001
0000
0001
0000
,
1001
1000
0010
0100
0001
1000
1001
0001
,
0010
0100
1000
0010
0100
0001
1000
0100
,
0010
0000
0001
0000
1000
0000
0001
0000
0100
0000
0010
0000
0100
0000
0001
0100
,
0001
0010
0100
1000
0010
0100
0001
1000
,
1100
0100
0010
0001
0100
0010
1000
0100
,
0010
0001
0100
0001
0010
0100
1000
0010
,
0100
0001
0010
0100
,
1000
0000
0001
0000
0100
0001
0100
0001
,
1000
0000
0000
0001
0100
0000
0001
0000
,
1000
0010
0100
0000
,
0001
0000
0010
0001
1000
0000
1001
0000
,
1001
0000
0000
0000
0001
0000
0100
0000
0001
1000
0001
1000
0010
0000
1000
0000
,
0010
0000
0100
0000
0001
0000
0010
0000
0100
0000
1000
0000
0010
1000
0010
1000
,
0001
0010
0100
1000
0010
0100
0001
1000
,
0100
1000
0001
0010
0001
0100
0020
0000
,
0230
0000
0000
0000
0301
0000
0100
0000
0010
1000
0010
1000
0001
0000
0010
0000
,
0100
1000
0001
0100
0010
1000
0100
0010
,
0100
1000
0010
0100
0001
0010
0001
1000
,
0010
0000
0100
0001
0100
0000
0001
0000
1000
0000
0100
0000
0010
0000
0001
0000
,
0100
0010
0100
0001
1000
0100
0010
0010
,
0002
0000
0103
0010
1000
0001
0010
0100
,
1000
0001
0100
0010
0100
0001
1000
0100
,
0010
0000
0001
0010
0001
0000
0100
0000
0010
0000
0100
0000
0001
0000
1000
0000
,
0100
0010
0100
0010
0002
0000
0000
0000
0000
0000
0003
0000
0100
0000
0001
0000
,
1000
0100
0010
0001
1000
0010
0200
0000
,
0301
1000
0100
0010
0100
1000
0002
0000
,
0103
0001
0010
0100
1000
0001
2000
0000
,
3001
0000
1000
0000
0001
1000
0001
1000
0100
0000
0010
0000
0002
0000
0000
0000
,
1003
0000
0010
0000
0100
0000
0010
0000
2000
0000
0000
0000
3002
0000
0000
0003
,
0010
0001
0010
0001
1000
0000
0001
0000
0100
0000
0010
0000
0100
0000
0001
0000
,
1000
0100
0010
0001
1000
0001
0100
0010
,
0100
0001
0001
1000
0010
0100
0001
1000
,
0100
0010
0001
0100
0010
0100
0001
0010
,
0100
1000
0002
0000
0203
0000
0301
0001
,
0010
0000
0100
0000
1000
0001
1000
0001
0100
0000
0001
0000
1000
0001
0010
0001
,
1000
0000
0000
0100
0010
0000
0001
0000
,
0000
1000
0010
0000
,
0100
0000
0001
0000
0000
0000
1000
0100
1000
0000
0000
0000
0100
0000
1000
0000
,
0000
0000
0001
0000
0100
0000
0000
0001
,
1000
0001
0000
0100
0010
0000
1000
0000
,
0000
0100
0010
0000
,
0100
0010
0100
0000
0010
0001
0010
0001
1000
0000
0000
0000
0010
1000
0010
1000
,
0001
0100
0001
1000
0010
0000
0000
0000
1000
0000
0100
0000
0010
0000
0100
0000
,
1000
0000
0000
0001
0100
0000
0001
0000
,
0000
0010
0100
0000
,
1000
0010
0000
0100
0001
0000
1000
0100
,
0000
0000
0010
0000
0001
0000
0000
1000
,
0001
0000
1000
0000
0000
0000
0010
0000
0100
0001
0100
0001
1000
0000
0100
0000
,
0000
0000
0000
0000
0010
0001
0010
0000
0001
1000
0001
0000
0000
0000
0000
0000
,
0100
0000
0010
0000
1000
0001
1000
0000
0001
0000
0010
0000
0100
1000
0100
1000
,
0001
0010
0001
1000
0002
0000
0000
0000
0103
0000
0010
0000
1000
0000
0000
0000
,
1010
0000
0000
1000
0010
0010
0100
0100
,
0000
0001
0010
0000
,
0100
0000
1000
0000
0001
0100
0001
0000
1000
0000
0010
0000
0100
0001
0100
0001
,
0100
0000
0001
0000
1000
0100
1000
0000
,
1001
0000
0000
0000
0000
0000
0001
0000
0010
0000
0000
0000
0100
1000
0100
1000
,
0100
0000
0000
0000
1000
0010
1000
0010
1000
0000
0000
0000
0000
0000
0000
0000
,
0001
0000
0100
0000
0000
0000
0001
0000
0100
0001
0100
0001
0100
0000
0010
0000
,
0000
0000
0000
0000
1000
0001
1000
0001
1000
0000
0000
0000
0000
0000
0001
0000
,
0010
0000
0100
0000
0000
0000
1000
0000
0001
0010
0001
0010
0001
0000
1000
0000
,
0000
0000
0000
0000
0001
0100
0001
0100
0010
0000
1000
0000
0000
0000
0000
0000
,
0001
1000
0001
0000
0010
0001
0010
0000
0001
0000
0100
0000
0010
0100
0010
0100
,
0001
1000
0001
1000
0010
0000
0000
0000
1000
0000
0010
0000
0100
0000
0000
0000
,
0001
1000
0001
0000
0000
0000
0010
0000
0100
0000
0100
0000
1000
0100
1000
0100
,
1000
0000
0000
0000
0001
0100
0001
0100
0001
0000
0000
0000
0000
0000
0000
0000
,
1000
0000
0010
0000
0000
0000
1000
0010
1000
0001
0100
0001
0100
0000
0001
0000
,
0000
0000
0000
0000
1000
0100
0010
0001
1000
0001
0010
0100
1000
0000
0000
0000
,
1001
0001
0100
0010
0100
0001
0002
0000
,
1003
0100
0010
0001
0100
0010
0100
0001
,
1000
0000
0100
0000
0010
0000
0001
0000
0100
0000
0010
0000
0100
0000
0001
1000
,
0001
0010
0100
1000
0001
0100
0010
0100
,
0100
0001
1000
0100
0010
0001
0001
0100
,
0010
0100
0001
0010
0100
1000
0001
0100
,
0010
0100
0001
1000
0100
0010
0001
1000
,
0100
1000
0100
0010
0001
0000
1000
0000
0100
0000
0010
0000
0001
1000
0001
1000
,
0001
0100
0010
1000
0001
0000
0010
0000
0100
0000
1000
0000
0001
1000
0001
0100
,
0010
1000
0001
1000
0001
0000
1000
0000
0001
0000
0100
0000
0010
1000
0010
0100
,
0001
0100
0001
1000
0010
0000
1000
0000
0100
0000
0010
0000
0001
0010
0100
1000
,
0100
0010
0001
1000
0001
0000
0100
0000
0010
0000
0100
0000
0001
0010
0001
0010
,
0100
0010
0001
1000
0100
0010
0001
0100
,
0010
0100
0001
0010
0100
1000
0001
0010
,
0001
0000
0000
0000
1000
0000
0010
0000
0100
0000
0001
0000
1000
0001
1000
0001
,
0020
0100
0100
0130
,
1001
1000
0001
0010
0100
1000
0001
0001
,
2000
0000
3001
0010
0100
0010
0001
1000
,
0001
0100
0010
0100
0001
1000
0100
0010
,
0100
0000
1000
0001
1000
0000
0001
0000
0010
0000
0100
0000
1000
0000
0001
0000
,
0100
0001
0100
0001
2000
0000
0000
0000
3000
0000
0000
0000
0001
0000
0010
0000
,
0100
1000
0001
0100
0010
1000
0200
0000
,
1300
0010
0100
0001
1000
0100
0020
0000
,
0031
0100
0010
1000
0001
0010
0200
0000
,
1300
0000
0000
0001
0100
0000
0010
0000
,
1000
0100
0010
0000
,
0001
0000
1000
0010
0100
0000
1001
0000
,
1001
0000
0000
0000
1000
0000
0000
0000
0001
0010
0001
0010
0100
0000
0010
0000
,
0100
0000
1000
0000
0100
0000
1000
0000
0001
0000
0100
0000
0001
0100
0001
0100
,
0010
1000
0010
0100
0001
0010
0100
1000
,
0001
0010
0010
0100
1000
0001
0200
0000
,
0302
0000
0000
0000
1003
0000
0100
0000
0010
0001
0010
0001
1000
0000
0001
0000
,
0100
0010
0100
0001
0010
0100
1000
0001
,
0100
0010
0100
0001
0010
0100
1000
0001
,
0100
0000
0001
1000
0001
0000
0100
0000
0010
0000
0100
0000
0001
0000
0010
0000
,
0100
1000
0010
0000
0010
0000
0010
0000
,
0010
0000
0010
1000
0001
0010
0100
0010
,
0001
0100
0010
1000
0100
1000
0010
0100
,
0001
0010
0100
1000
0100
0010
0002
0000
,
1003
0000
0000
0000
0001
1000
0001
1000
0010
0000
0100
0000
0001
0000
0010
0000
,
0100
0010
0001
0100
0010
1000
0100
1000
,
0010
0100
0001
0010
0100
1000
0001
0100
,
0010
0000
0100
0000
0001
0000
1000
0000
0100
0000
0010
0000
0001
1000
0001
0010
,
0100
1000
0100
0010
0001
0000
0010
0000
0100
0000
1000
0000
0001
0000
0100
0000
,
0010
0100
0001
0010
0100
1000
0100
0010
,
0001
0100
0010
0100
0001
1000
0100
0010
,
0100
1000
0002
0000
0000
0000
0003
0000
,
0000
0000
1000
0100
0010
0001
0100
0010
,
0100
0001
0010
0100
1000
0001
0100
0010
,
0100
0001
0010
0100
1000
0010
0100
0010
,
1000
0100
0010
0001
0100
0010
0100
0001
,
1000
0001
1000
0000
1000
0000
1000
0000
,
0001
0010
0100
1000
0001
0100
0010
1000
0010
0100
0001
1000
0010
0100
0010
1000
,
0001
0100
0001
1000
0010
1000
0001
0100
0001
1000
0010
1000
0001
0010
0001
1000
,
0100
0010
0001
1000
0001
0000
1000
0000
0100
0000
0010
0000
0001
0000
0100
0000
,
0010
0100
0001
1000
0100
0010
0100
1000
,
0001
0100
0010
0100
0001
1000
0100
0010
,
0001
1000
0001
0100
0010
0100
0001
1000
,
0100
0010
0010
0001
0100
0010
0100
0001
,
1000
0100
0010
0001
0010
0100
1000
0001
,
0100
0010
0100
0001
1000
0010
0100
0001
,
1000
0100
0010
0100
1000
0001
0010
0100
,
1000
0001
1000
0001
1000
0000
0000
0000
0001
0000
0100
0000
0001
0000
0000
0000
,
1100
0000
0011
0000
1000
0010
2020
0000
,
0000
0000
3030
0000
0202
0300
0000
0003
1000
0100
0010
0001
2000
0000
3000
0000
,
0001
0100
0010
1000
0002
0000
0000
0000
0000
0000
0000
0000
0000
0000
0000
0000
,
0000
0000
0000
0003
0000
0000
0000
0000
0000
0000
0000
0000
0000
0000
0000
0000
;
