#TITLE:04-senses_fail-buried_a_lie-pr;
#SUBTITLE:;
#ARTIST:Unknown artist;
#TITLETRANSLIT:;
#SUBTITLETRANSLIT:;
#ARTISTTRANSLIT:;
#CREDIT:;
#BANNER:;
#BACKGROUND:;
#LYRICSPATH:;
#CDTITLE:;
#MUSIC:04-senses_fail-buried_a_lie-pr.mp3;
#OFFSET:0.000;
#SAMPLESTART:100.000;
#SAMPLELENGTH:12.000;
#SELECTABLE:YES;
#BPMS:0.000=60.000,12.000=171.421,64.000=148.002,112.000=102.982,116.000=197.604,168.000=146.404,223.000=198.885,324.000=153.286,380.500=203.907;
#STOPS:;
#BGCHANGES:;
// cache tags:
#FIRSTBEAT:0.167;
#LASTBEAT:493.500;
#SONGFILENAME:Songs/cedric step/04-senses_fail-buried_a_lie-pr/04-senses_fail-buried_a_lie-pr.sm;
#HASMUSIC:1;
#HASBANNER:0;
#MUSICLENGTH:182.073;
// end cache tags

//---------------dance-single - Blank----------------
#NOTES:
     dance-single:
     Blank:
     Hard:
     1:
     0.418,0.542,0.308,0.357,0.173,412.000,56.000,65.000,0.000,0.000:


0000
0001
1000
0000
0010
0000
0001
0000
1100
0000
0010
0001
,
0000
1000
0000
0010
0000
0100
0001
1000
0000
0100
0001
0000
,
1000
0000
0100
0010
0001
0000
1000
0020
0000
0000
0030
0100
,
0100
0001
0000
1000
0000
0010
0100
0001
,
0000
1000
0000
0000
0101
0000
0001
1000
,
0000
0100
0000
0010
0000
0001
1000
0000
,
0100
0010
0000
0000
0001
0000
1000
0010
,
0000
0100
0001
1000
0000
0000
0100
0010
,
0000
0001
1000
0000
0010
0100
0000
0001
,
1000
0000
0100
0000
0010
0000
0000
0001
,
1000
0010
0100
0000
0001
0000
1000
0000
,
0100
0010
0000
0001
0000
1100
0000
0000
,
0011
0000
0000
1100
0000
0000
0000
0010
,
0000
0000
0100
0001
0000
0000
1100
0000
,
0000
0101
0000
0000
0011
0000
0000
1100
,
0000
0000
0110
0000
0001
1000
0000
0000
,
0000
0001
1010
0000
0100
0000
0000
0001
,
1000
0100
0010
0001
1000
0000
0010
0010
,
0000
0100
0010
1000
0001
0010
0000
0001
,
0000
1000
0100
0000
0000
0100
1000
0010
,
0100
0000
0101
0000
0001
1000
0100
0010
,
0001
1000
0000
0010
0100
0010
1000
0001
,
0010
0000
0100
1000
0000
0010
0000
0100
,
0000
1001
0000
0000
0110
0000
0001
0000
,
1000
0000
0000
1010
0000
0000
0000
0001
,
0000
0000
1000
0000
0000
0100
0020
0000
,
0000
0030
0002
0000
0003
0000
1000
0000
,
0000
0100
0000
0010
0000
0001
0000
1000
,
0000
0000
0001
1000
0000
0020
0000
0030
,
0000
0000
0001
0000
0000
1000
0000
0010
,
0000
0000
0101
0000
0000
1100
0000
0000
,
0000
0110
0000
0000
0000
0000
0001
0000
,
1000
0000
0000
0010
0000
0202
0000
0300
,
0003
1100
0000
0000
0011
0000
0000
0000
,
0000
0010
0000
0000
1000
0000
0001
0000
,
0002
0000
0000
0003
1000
0000
0000
0020
,
0000
0000
0000
0030
0001
0000
1000
0000
,
0000
0100
0000
0010
0000
0000
0000
0001
,
0000
0000
0000
1010
0000
0000
0000
0000
,
0000
0000
0202
0000
0000
0303
0000
2200
,
0000
0000
0000
0000
,
0000
3300
0000
0000
0001
0000
0010
0000
,
0100
0000
0000
0000
0001
1000
0010
0000
0100
0000
0000
0001
,
0000
0000
1000
0000
0100
0010
0000
0001
1000
0000
0010
0000
,
0000
0010
0000
0100
0001
0000
1000
0100
0000
0010
0000
0001
,
0000
0000
1000
0000
0000
0020
0000
0100
0000
0030
0000
0001
,
1000
0000
0100
0000
0010
0000
1001
0000
0000
0000
0100
0010
,
0000
0001
1000
0000
0010
0100
0000
0000
0000
0010
1000
0100
,
0000
0010
0001
1000
0000
0010
0100
0000
0001
1000
0100
0000
,
0010
0001
0000
1000
0010
0010
0000
0000
0000
1000
0000
0000
,
0000
0001
0000
0000
1000
0000
0000
1000
0100
0000
0000
0000
,
0000
0000
0001
0000
0000
0000
0010
0000
0000
0000
0001
0000
,
0000
1000
0000
0000
0000
1100
0000
0000
0000
0000
0000
0000
,
0010
0000
0000
0000
0100
0000
0000
0001
0000
0000
1000
0000
,
0000
0000
1100
0000
0000
0000
0001
0000
0000
0022
0000
0000
,
0033
2200
0000
0000
0000
0000
0000
0000
3000
0300
0000
0000
,
0001
0000
1000
0000
0010
0000
0000
0101
,
0000
0000
1000
0100
0000
0000
0022
0000
,
0000
0030
0003
0100
0000
1000
0000
0000
,
0010
0000
0200
0000
0000
0300
0002
0000
,
0000
0003
2000
0000
0000
3000
0000
0010
,
0000
0100
0000
0001
0000
0000
1100
0000
,
0000
0101
0000
0000
0022
0000
0000
0000
,
0033
0100
0000
0000
1000
0000
0010
0000
,
0000
0100
0000
0000
0000
0101
0000
0000
,
1100
0000
0000
0000
0001
0000
0000
1000
,
0000
0100
0120
0030
,
1001
0000
0000
0002
0000
0000
0000
0003
,
1000
0000
0010
0000
0000
0100
0000
0200
,
0002
0000
0303
0000
0200
0000
0000
2300
,
0000
0000
3000
0010
0000
0000
0000
0100
,
0000
0001
0000
2002
0000
0000
3003
0002
,
0000
0000
0023
0000
0000
0000
0030
0001
,
0000
0000
1000
0000
0000
0100
0000
2200
,
0000
3300
0000
0002
0000
0003
2000
0000
,
0000
3000
0000
0000
0020
0000
0000
0000
,
0000
0000
0230
0000
0000
0001
0000
1000
,
0000
0000
0010
0000
1000
0000
0001
0300
,
0002
0000
0000
1000
0000
0100
0000
0000
,
0010
0000
1000
0000
0000
0100
0000
0010
,
0003
1000
0000
0000
0100
0000
0010
0000
,
0001
0000
0001
0000
1000
0000
0010
0100
,
0001
1000
0000
0000
0000
0000
0100
0000
,
1000
0000
0000
0010
0000
0101
0000
0000
,
0001
1000
0000
0000
0100
0010
0000
0000
,
0000
0001
0000
1000
0000
0010
0100
0001
,
1000
0000
0100
1000
,
0000
0001
0000
0000
2002
0000
0000
0000
,
3003
0000
0010
0100
0001
1000
0100
1000
,
0001
0010
1100
0010
0100
0001
1000
0100
,
0000
0000
1000
0000
0010
0100
0001
1000
,
0100
0010
0001
1000
0100
0010
0001
0000
,
1000
0100
0000
2000
0000
3000
0001
0000
,
1000
0200
0000
1300
,
0010
0200
0000
0000
0000
0000
0000
0000
,
0000
0300
0000
0001
0000
0000
1000
0000
,
0000
0010
0000
0101
0000
0000
0000
1100
,
0000
0000
0022
0000
0000
0030
0003
0000
,
0100
0000
0000
1000
0000
0010
0000
0101
,
0000
0000
0000
1100
0000
0000
0000
0010
,
0000
0000
1000
0100
,
0010
0000
0000
0001
0000
0000
1000
0000
,
0000
0000
2200
0000
0000
3000
0300
0010
,
0000
0000
0100
0000
0001
0000
0000
2000
,
0000
0000
3000
0002
0000
0000
2003
0000
,
0000
0000
3000
0010
0000
0100
0000
0000
,
0001
1000
0000
0100
,
0000
0010
0100
0000
0000
0000
0000
0001
,
0000
1000
0000
0000
0010
0000
0110
0000
,
0000
0000
0001
0000
0000
2002
0000
0000
,
0000
3003
0000
0001
0000
0010
0000
0000
,
0100
1000
0000
0010
,
0000
0220
0000
0000
0000
0330
0000
0001
,
0000
1000
0000
0000
0100
0000
0011
0000
,
0000
0000
1100
0000
0000
0100
0010
0000
,
0000
0000
0002
0000
,
0000
2000
0000
0000
0000
0000
0000
0000
,
0000
0000
0000
3003
0000
0000
0000
0000
,
0020
0000
0000
0000
0000
0200
0000
0000
,
0000
0000
0000
0330
2002
0000
0000
0000
,
0000
0000
0000
0000
0000
0000
3003
0100
,
0000
2200
0000
0000
,
0000
0000
0000
0000
,
0000
0000
3000
0300
0000
0000
0000
0000
;

//---------------dance-single - Blank----------------
#NOTES:
     dance-single:
     Blank:
     Challenge:
     1:
     0.546,0.808,0.104,0.368,0.464,610.000,19.000,67.000,0.000,0.000:

0000
0001
0000
0000
1000
0000
0000
0000
0010
0000
0000
0100
0001
0000
1000
0000
0000
0100
0000
0010
0000
0001
0000
1000
,
0000
0100
0010
0000
0000
0001
1000
0000
0010
0100
0000
0001
0000
0000
1000
0000
0100
0010
0000
0000
0001
1000
0000
0001
,
1000
0000
0100
1000
0000
0000
0010
0000
0100
0000
0000
0001
0000
0000
0000
2002
0000
0000
0000
0000
0000
3000
0003
0000
,
0000
0001
0000
0000
1000
0010
0000
0100
,
0001
0000
1000
0100
0000
0010
0001
1000
,
0100
0010
0001
1000
0000
0010
0100
0000
,
0010
1000
0000
0001
1000
0000
0100
0100
,
0000
1000
0010
0100
0001
0000
1000
0100
,
0010
0001
0000
0000
1000
0100
0000
1000
,
0010
0100
0001
1000
0100
0000
0010
0001
,
0000
1000
0100
0000
0000
1000
0010
0000
,
0100
0010
1000
0001
0000
1000
0100
0000
,
1000
0100
0000
0101
0000
1000
0100
0000
,
0010
0001
1000
0100
,
0010
0100
0000
1000
0010
0000
0100
0001
,
0000
1000
0000
0100
0000
1000
0000
0001
,
0000
0001
1000
0000
0010
0000
0100
0000
0000
0000
0001
0000
,
1000
0100
0010
0000
0001
1000
0000
0000
0000
0010
0000
0100
,
0010
1000
0001
0000
0010
0100
1000
0000
0000
0100
0000
0000
,
1000
0000
0000
0010
0000
0000
0000
0100
0001
1000
0000
0100
,
0010
0000
0001
0000
0000
0000
1000
0010
0000
0100
0001
1000
,
0000
0100
0000
0000
1000
0000
0100
1000
0000
0010
0100
0000
,
0001
1000
0000
0100
0010
0000
0001
1000
0010
0100
0000
0010
,
1000
0002
0000
0000
0003
1000
0000
0100
0000
0010
0001
1000
,
0000
0010
0000
0100
0001
1000
0000
0100
0010
0000
0000
0002
,
0000
0000
0003
2000
0000
0000
3000
0010
0000
0100
0000
0001
,
1000
0000
0100
0000
0010
0001
1000
0000
0010
0100
0000
0010
,
1000
0000
0001
0010
0100
0000
1000
0000
0001
0010
0100
0000
,
0000
0000
0000
0001
0000
0000
1000
0000
0000
0000
0220
0000
0000
0000
0000
0330
,
0000
0000
0001
0000
0000
1000
0000
0010
,
0000
0000
0101
0000
0000
1000
0100
0000
,
0010
0001
0000
0000
1000
0100
0010
0000
,
0001
0000
0000
1000
0000
0010
0100
0000
,
0001
1000
0100
0010
0000
0001
1000
0100
,
0000
1000
0100
0000
1000
0010
0100
0000
,
0001
1000
0100
0000
0010
0001
0000
2000
,
0000
0000
3000
0010
0100
0001
0000
1000
,
0100
0010
0001
0000
1000
0010
0100
0000
,
0010
1000
0001
0010
0000
0100
1000
0010
,
0000
0000
0220
0000
0000
0000
0330
2002
,
0000
0000
0000
0000
3003
0001
1000
0000
,
0000
0100
1000
0000
0100
0010
0000
0000
,
0000
0000
0000
0000
0001
1000
0010
0000
0100
0000
0001
0000
,
0000
0000
0000
0001
1000
0000
0100
0010
0001
0000
1000
0000
,
0000
0000
0010
0100
0010
0000
1000
0001
0010
0000
0000
0100
,
0000
0000
1000
0000
1000
0000
0000
0020
0000
0030
0000
0100
,
0001
0000
1000
0100
0000
0000
0010
0000
0000
0000
0001
1000
,
0100
0000
0010
0001
0000
2000
0000
3000
0000
0010
0100
0001
,
0000
1000
0100
0010
0000
0001
1000
0010
0000
0100
0010
1000
,
0000
0001
0010
0100
0000
2000
0000
0000
3000
0002
0000
0000
,
0003
0100
0000
0000
0020
0000
0000
0000
2030
0000
0000
3000
,
0000
0000
0001
0000
0000
0000
1000
0000
0100
0000
0010
0001
,
0000
1000
0010
0000
0100
0000
0010
1000
0000
0001
0010
0100
,
0000
1000
0001
0000
1000
0100
1000
0000
0001
0010
0000
0100
,
1000
0000
0010
0100
0001
0000
1000
0100
0000
0000
1000
0000
,
0000
0200
2000
0000
0000
0000
0000
0000
3300
0000
0000
0000
,
0001
1000
0010
0100
,
0001
1000
0100
0010
0000
0001
2000
0000
,
3000
0000
0010
0100
0001
1000
0000
0100
,
0010
0001
0000
2000
0000
3000
0020
0000
,
0000
0230
0000
0000
0300
0001
1000
0100
,
0000
0010
0001
1000
0100
1000
0000
0000
,
0001
1000
0000
0000
0000
2200
0000
0000
,
3300
0010
0100
0000
0001
1000
0100
0010
,
0000
2002
0000
0000
3003
0220
0000
0330
,
0002
2000
0000
0000
3003
0000
0001
0000
,
1000
0000
0010
0100
0001
1000
0100
0000
,
0010
0001
1000
0020
0000
0000
0000
0030
,
0001
1000
0100
0010
0000
0001
1000
0100
,
2000
0000
0000
0000
3002
0000
0000
0003
,
2000
0000
0000
3000
0010
0100
0001
1000
,
0000
0100
0010
0000
0002
0000
0000
2003
,
0000
0000
3000
0200
0000
0000
0300
0010
,
0000
0000
0001
1000
0010
0000
0100
0002
,
0000
0000
0003
2000
0000
0000
3200
0000
,
0000
0000
0000
0000
0300
2200
0000
0000
,
0000
3300
0022
0000
0000
0000
0000
0000
,
0000
0000
0033
0000
0100
1000
0100
0000
,
2200
0000
0000
0000
3300
0000
0010
0100
,
0010
1000
0001
0000
0010
0100
1000
0001
,
0000
0100
0010
1000
0001
1000
0100
1000
,
0000
0000
0000
0000
0001
0000
0000
0000
1000
0000
0000
0000
0010
0100
0000
0001
,
0000
0000
1000
0100
0000
0000
0000
0000
0000
0000
0000
0000
0100
0000
0000
0000
,
1000
0000
0000
0000
0000
0010
0000
0000
0000
0100
0000
0001
0000
0000
0000
0000
,
0000
1000
0000
0100
0000
0000
0000
0000
1000
0000
0100
0000
0000
0000
0000
0000
,
0000
0010
0000
0000
0000
0100
0000
0000
0000
0001
0000
1000
0100
0000
0000
0010
,
0000
0000
0000
0000
0000
0000
0000
0001
0000
0000
0000
0000
1100
0000
0000
0000
,
0000
0101
0000
0000
0000
0000
0000
0012
0000
0000
0000
0003
0000
0000
0000
0000
,
0000
0000
0000
0000
0000
0001
0000
0000
0000
0100
0000
1000
0000
0010
0000
0100
,
0001
0000
1000
0000
0100
0000
0010
0000
0001
1000
0000
0100
0000
1000
0000
0001
,
0000
0010
0000
0100
0000
1000
0000
0010
0000
0100
0000
0010
1000
0000
0001
0000
,
0010
0000
0100
0000
1000
0000
0010
0000
0100
0000
0001
1000
0000
0000
0200
0000
,
0000
0000
2300
0000
0000
0000
0010
0000
0000
0000
3000
0100
0000
0000
0000
1000
,
0100
0000
0000
0000
0000
1000
0000
0000
0100
0000
1000
0000
0000
0000
0100
0000
,
1000
0000
0000
0000
0010
0000
0000
0010
0000
0001
0000
0000
0000
1000
0100
0000
,
0000
0001
1000
0010
,
0000
0100
0000
0001
1000
0000
0100
0010
,
0001
1000
0000
0020
0000
0000
0030
0100
,
0001
1000
0100
0000
0010
0001
1000
0100
,
1000
0000
0000
0101
0000
0000
2000
0000
,
0000
3000
0000
0010
0100
0001
1000
0100
,
0010
0000
0001
2000
0000
0000
3000
0020
,
0000
0000
0230
0000
0000
0300
0001
1000
,
0100
0000
0010
0001
1000
0000
0020
0000
,
0000
0000
0200
0030
0000
0000
0302
0000
,
0000
1003
0000
0100
0010
0001
1000
0000
,
0100
1000
0020
0000
0000
0000
0130
0001
,
0000
1000
0100
0000
0000
1000
0001
0000
,
1000
0100
0000
0010
0001
1000
0000
0020
,
0000
0030
0100
0001
0000
1000
0100
0000
,
1000
0000
0020
0000
0000
0130
0000
0000
,
0001
1100
0000
0101
,
0000
0010
0001
0000
0000
0000
0100
1000
,
0010
0100
0000
0001
1000
0100
2000
0000
,
0000
0000
3020
0000
0000
0230
0000
0000
,
0000
0000
0001
0000
0000
0301
0000
1000
,
0100
0010
0000
0001
1000
0010
0100
0000
,
0010
1000
0001
0000
0010
0100
1000
0010
,
0000
0100
0001
0000
1000
0100
1000
0000
,
0100
0000
0001
0100
0001
1000
0000
0000
,
0100
0000
1000
0000
0010
0100
0000
0001
,
0000
0202
0000
0000
,
0000
0000
0000
0000
0003
0300
0000
0000
;
