#TITLE:The Raven;
#SUBTITLE:;
#ARTIST:The Black Dahlia Murder;
#TITLETRANSLIT:;
#SUBTITLETRANSLIT:;
#ARTISTTRANSLIT:;
#CREDIT:;
#BANNER:The Raven - bn.png;
#BACKGROUND:The Raven - bg.png;
#LYRICSPATH:;
#CDTITLE:;
#MUSIC:The Raven.ogg;
#OFFSET:-0.020;
#SAMPLESTART:80.600;
#SAMPLELENGTH:12.000;
#SELECTABLE:YES;
#BPMS:0.000=232.000;
#STOPS:;
#BGCHANGES:;
// cache tags:
#FIRSTBEAT:0.000;
#LASTBEAT:665.000;
#SONGFILENAME:Songs/Beast Aoreo BEAST! 2/The Raven - [Aoreo]/The Raven.sm;
#HASMUSIC:1;
#HASBANNER:1;
#MUSICLENGTH:172.616;
// end cache tags

//---------------dance-single - J. Nero----------------
#NOTES:
     dance-single:
     J. Nero:
     Challenge:
     17:
     1.000,1.000,0.458,0.301,1.000,1765.000,79.000,52.000,0.000,0.000:
2002
3003
0001
0100
0010
1000
0100
0010
,
0001
0100
0010
1000
0001
0001
0020
0230
,
0000
0300
1000
0010
0100
0001
0010
0100
,
2200
0000
0000
3300
,
2002
3003
0001
0100
0010
1000
0001
0010
,
0100
1000
0001
0010
0100
0100
2000
3000
,
2020
0000
3030
0220
0000
0330
0202
0000
,
0000
0000
0000
0303
0001
1000
0000
0000
,
1200
0000
1300
0010
0100
0001
0010
0100
,
1000
0001
1000
0010
0100
0100
0001
0200
,
0000
0301
0010
0100
0010
0001
1000
0100
,
0010
0100
1000
0010
0100
0100
0001
0020
,
0000
0130
1000
0010
0100
0001
1000
0010
,
0100
0010
1000
0100
0010
0100
1000
0010
,
0100
0001
0100
0001
0100
0001
1000
0100
1000
0100
1000
0100
0010
0001
0010
0001
,
0010
0001
1000
0001
1000
0001
1000
0001
0100
0010
0100
0001
1000
0001
1000
0001
,
1000
0010
0100
0001
0010
0100
1000
0001
,
0010
0100
0010
0001
1000
1000
0010
0200
,
0000
0301
1000
0100
0010
0100
1000
0001
,
0100
0010
1000
0001
0010
0010
0100
2000
,
0000
3001
0100
0010
1000
0100
0010
0100
,
1000
0001
0100
0010
1000
0001
0010
0100
,
1000
0001
1000
0001
0100
0010
0100
0001
1000
0100
0010
0100
0010
0001
1000
0100
,
1000
0001
0010
0001
1000
0010
0100
0010
0100
0001
1000
0001
1000
0100
0010
0100
,
0010
0001
0100
0010
0110
0100
0001
0010
,
0100
1000
0100
1000
0001
0000
0100
0000
0110
0000
0010
0000
1000
0000
0001
0000
,
0010
0100
1000
0001
1001
1000
0010
0100
,
0001
0010
0100
1000
1100
0100
1000
0010
,
0100
0001
1000
0100
0110
0010
0001
1000
,
0001
0010
0100
0010
0100
0000
1000
0000
1001
0000
0001
0000
0100
0000
0001
0000
,
0100
0001
0100
0001
1000
0100
1000
0001
1000
0001
1000
0010
0100
0010
0100
0001
,
1000
0100
1000
0001
0010
0001
1000
0100
0010
0100
0010
0001
1000
0100
1000
0001
,
0010
0100
1000
0001
1000
0010
0100
0010
0100
0001
1000
0001
1000
0100
0010
0001
,
0010
0001
1000
0100
1000
0001
0010
0100
1000
0001
1000
0100
0010
0001
1000
0001
,
1000
0100
1000
0001
0100
0001
1000
0010
0100
0001
0100
0010
1000
0010
0100
0001
,
0100
0010
1000
0001
1000
0100
0010
0001
1000
0010
0100
0001
1000
0010
0100
0010
,
0100
0001
1000
0001
1000
0010
1000
0001
0100
0001
0100
0010
1000
0001
1000
0100
,
1000
0001
0100
0001
0100
0010
1000
0001
1000
0010
0100
0001
1000
0001
1000
0001
,
1000
0000
0001
0000
0010
0000
0100
0000
1000
0001
1000
0010
0100
0010
1000
0001
,
1000
0100
1000
0001
0100
0001
1000
0001
1000
0000
0100
0000
1000
0000
0010
0000
,
0200
0000
0301
0010
0100
0010
0001
1000
,
0100
1000
0010
0100
0001
0001
0010
0200
,
0000
1300
0010
0100
0001
0010
0100
1000
,
0010
1000
0100
0010
0001
0001
1000
0020
,
0000
0130
0010
1000
0010
0100
0001
0010
,
0100
0010
0001
1000
0100
0100
1000
0001
,
0100
0001
0100
0001
1000
0010
0100
0010
1000
0001
0100
0001
1000
0001
1000
0100
,
0010
0001
1000
0001
0100
0010
0100
0010
1000
0001
0100
0001
1000
0100
1000
0001
,
2000
0000
3001
0100
0010
0100
0001
0010
,
0100
1000
0010
0100
0001
0001
0010
0200
,
0000
1300
0010
0100
0001
0010
0100
0010
,
0001
1000
0100
0010
0001
1000
0010
0200
,
0000
0310
0100
0001
1000
0010
0100
0001
,
1000
0100
0010
0001
0100
0001
0010
0100
,
1000
0001
1000
0001
0100
0001
1000
0010
1000
0010
0100
0001
0100
0001
1000
0001
,
1000
0100
0010
0100
0010
0001
0010
0001
1000
0001
1000
0010
0100
0001
1000
0001
,
1000
0100
0010
0100
1000
0100
1000
0100
,
0010
0100
1000
0010
0100
0010
0100
0010
,
0100
0001
0010
0001
1000
0001
1000
0001
,
0010
0100
1000
0001
0100
0001
0100
0001
,
1000
0010
0100
0001
1000
0100
1000
0100
,
1000
0010
0100
0001
1000
0001
1000
0001
,
1000
0001
1000
0001
1000
0001
0100
0001
0100
0001
0100
0001
1000
0010
1000
0010
,
1000
0001
0100
0001
0100
0001
0100
0001
1000
0100
0010
0001
1000
0001
0010
0100
,
1000
0100
1000
0001
0100
0001
1000
0010
0100
0001
0100
0001
1000
0010
1000
0001
,
0100
0001
0100
0010
1000
0001
0100
0010
0100
0001
1000
0001
0100
0010
0100
0001
,
1000
0001
1000
0100
0010
0001
0010
0001
1000
0100
0010
0001
1000
0100
1000
0100
,
0010
0001
1000
0001
0100
0010
0100
0001
1000
0010
0100
0001
1000
0010
0100
0001
,
1000
0100
1000
0100
0010
0001
0010
0001
1000
0100
0010
0100
0010
0001
1000
0100
,
1000
0001
0100
0010
0100
0001
1000
0010
1000
0001
0100
0001
1000
0010
1000
0010
,
0100
0001
1000
0001
1000
0100
0010
0100
0010
0001
1000
0001
0010
0100
1000
0001
,
1000
0100
0010
0001
0010
0001
1000
0100
1000
0001
0100
0001
0100
0010
1000
0001
,
0100
0001
0100
0001
1000
0001
1000
0100
0010
0100
0010
0001
1000
0001
0100
0001
,
0100
0001
1000
0001
1000
0010
0100
0001
0100
0000
0000
0000
0000
0000
0000
0000
,
1001
0000
0001
0000
0010
0000
0100
0000
1100
0000
1000
0000
0010
1000
0010
0100
,
0001
1000
0010
0100
0101
0001
0010
0100
,
1100
1000
0010
0100
0101
0001
1000
0010
,
1010
1000
0100
0010
0011
0001
1000
0001
,
1001
0000
1000
0000
0100
0000
0010
0000
0011
0000
0001
0000
0010
0001
1000
0001
,
0100
0010
1000
0100
1100
1000
0100
0010
,
0011
0001
0100
0010
1010
1000
0100
0010
,
0110
0100
1000
0001
0101
0100
0010
1000
,
1001
0000
0001
0000
0100
0000
0010
0000
1010
0000
1000
0000
0001
1000
0001
0100
,
0001
1000
0100
0010
0110
0100
1000
0001
,
0101
0100
0010
1000
1100
0100
0010
0001
,
1001
1000
0010
0100
0101
0001
1000
0100
,
0110
0000
0010
0000
0001
0000
1000
0000
1010
0000
0010
0000
0100
0001
0100
0010
,
1000
0010
0100
0001
0011
0010
0100
1000
,
1001
0001
0100
0010
1010
1000
0001
0100
,
0101
0001
1000
0100
0110
0010
0001
1000
,
2002
0000
0000
0000
,
0000
0000
0000
0000
0000
3003
1001
0000
,
1001
0000
0000
0000
0000
0000
0000
0000
0000
0000
0000
0000
0002
0000
0003
0000
0000
0000
0000
0000
0000
0000
0000
0000
0002
0000
0000
0003
0000
0000
0000
0000
0000
0000
0000
0000
0002
0000
0000
0000
0003
0000
0000
0000
0000
0000
0000
0000
,
0020
0030
0200
0000
0300
0020
0000
0030
,
0022
0000
0000
0000
,
0000
0000
0000
0000
0000
0000
0000
0033
,
1001
0000
0000
0000
0001
0100
0001
1000
0100
1000
0001
0100
0010
0100
0001
1000
,
0001
1000
0100
0010
0001
1000
0001
0010
0100
1000
0001
1000
0002
0000
0003
0000
,
0200
0000
0301
0100
0001
1000
0100
1000
0100
1000
0001
0100
0001
1000
0100
1000
,
0100
1000
0100
0010
0001
0010
0001
1000
0100
1000
0100
0010
0001
1000
0100
1000
,
0100
0010
0001
1000
0001
1000
0010
0100
0010
1000
0001
0100
0001
0100
0001
1000
,
0010
1000
0010
0100
0001
0100
0001
1000
0001
0010
0100
0010
0100
1000
0001
0010
,
0100
1000
0001
1000
0100
0010
0001
1000
0001
1000
0100
1000
0001
0100
0001
1000
,
0100
1000
0100
1000
0001
0100
0001
1000
0100
1000
0100
1000
0001
0010
0001
0100
,
0010
0100
0001
1000
0001
0100
0001
0100
0010
1000
0010
1000
0001
0100
0001
1000
,
0100
1000
0001
0100
0010
0100
0001
1000
0001
1000
0010
0100
0010
1000
0001
1000
,
0001
0100
0001
1000
0100
1000
0100
0010
0001
1000
0100
0010
0100
0010
0001
1000
,
0001
0010
0100
1000
0001
0010
0100
0010
0100
1000
0001
1000
0010
0100
0010
1000
,
0001
0100
0010
0100
0001
1000
0001
1000
0010
1000
0010
0100
0001
0100
0001
1000
,
0100
1000
0001
0100
0001
1000
0010
0100
0010
1000
0001
0100
0010
0100
0001
1000
,
0100
0010
0001
1000
0001
0010
0100
1000
0001
1000
0001
1000
0100
0010
0001
1000
,
0001
1000
0001
0010
0100
1000
0001
1000
0010
0100
0010
1000
0001
0010
0100
1000
,
0001
1000
0100
0010
0001
1000
0001
1000
0010
0100
0001
1000
0010
1000
0001
0100
,
0001
0100
0010
1000
0010
1000
0001
0100
0001
0000
0010
0000
0001
0000
1000
0000
,
0001
1000
0001
0100
0010
1000
0100
0010
0001
1000
0001
0100
,
0010
1000
0001
1000
0001
0010
0100
0010
0001
1000
0001
1000
,
0001
0100
0010
1000
0001
1000
0100
0010
0100
1000
0010
0100
,
0004
0000
0000
0000
0000
0000
0000
0000
0000
0000
0000
0000
0000
0000
0000
0000
0000
0000
0000
0000
0000
0000
0000
0000
0000
0000
0000
0000
0000
0000
0000
0000
0000
0000
0000
0000
0000
0000
0000
0000
0000
0000
0000
0000
0000
0000
0000
0000
0000
0000
0000
0000
0000
0000
0000
0000
0003
0000
0000
0000
0000
0000
0000
1000
,
0100
1000
0100
0010
0001
0100
0010
1000
,
0010
0100
0001
0010
0100
0010
0001
1000
,
0001
0010
0100
1000
0010
0100
0001
0010
0100
1000
0010
0100
,
0001
0010
0100
1000
0100
0010
0100
1000
0001
0100
0010
1000
,
0001
0100
0010
0100
0001
1000
0001
0100
0001
1000
0100
0010
0001
1000
0001
1000
,
0001
0010
0100
1000
0001
1000
0001
1000
0010
0100
0010
1000
0001
1000
0010
0100
,
0010
1000
0001
1000
0010
0100
0001
1000
0001
0010
0100
1000
0001
1000
0100
0010
,
0001
1000
0001
0100
0001
1000
0010
1000
0001
0100
0001
0100
0010
1000
0010
1000
,
0001
1000
0010
0100
0010
1000
0001
1000
0100
0010
0100
0010
0001
1000
0100
1000
,
0001
1000
0100
0010
0100
0010
0001
1000
0010
0100
0001
1000
0010
0100
0010
0100
,
0001
1000
0100
1000
0001
0100
0001
1000
0100
1000
0001
0100
0001
1000
0100
0010
,
0001
1000
0001
0010
0100
1000
0001
1000
0010
0100
0010
1000
0001
0100
0010
1000
,
0002
1000
1000
1000
,
0103
0000
0000
0000
0001
0100
0001
0100
0010
0000
0000
0000
1000
0100
1000
0100
,
0020
0001
0001
0001
,
0130
1000
0010
0000
0100
0000
0110
0000
,
0201
0001
0001
0001
,
0310
0000
0000
0000
1000
0010
1000
0010
0100
0000
0000
0000
0001
0100
0001
0100
,
0010
1010
1000
0100
,
0220
0330
0000
0000
0000
0000
0022
0033
0000
0000
0000
0000
2002
3003
0000
0000
0000
0000
2002
3003
0000
0000
0000
0000
,
0001
0100
0010
1000
0001
0010
0001
0010
0100
1000
0001
1000
0010
0100
0010
1000
,
0001
0100
0010
1000
0001
0100
0010
1000
0001
0010
0001
0010
0100
1000
0100
1000
,
0001
0010
0100
0010
0100
1000
0001
0010
0001
1000
0010
0100
0010
1000
0001
0100
,
0001
1000
0010
1000
0001
0100
0001
0100
0010
1000
0001
1000
0001
0010
0100
0010
,
0100
1000
0001
1000
0100
0010
0001
1000
0001
0010
0100
1000
0100
1000
0001
0010
,
0001
1000
0010
1000
0010
0100
0001
1000
0010
1000
0010
1000
0001
1000
0001
0010
,
0100
0010
0100
1000
0001
1000
0010
1000
0010
1000
0001
1000
0001
0100
0010
1000
,
0001
0000
1000
0000
0010
1000
0010
1000
0001
0000
0010
0000
0001
0000
0000
0000
,
0011
0000
0010
0000
0001
0000
1000
0000
1001
0000
0001
0000
0010
0100
0010
0100
,
1000
0001
1000
0010
0110
0100
0001
0010
,
0011
0001
0100
0010
1010
1000
0100
0010
,
0011
0001
0100
0010
1010
1000
0001
0100
,
0101
0000
0001
0000
0010
0000
0100
0000
0110
0000
0010
0000
0001
1000
0001
1000
,
0010
0100
0010
1000
1100
0100
0010
0001
,
1001
1000
0010
0100
0110
0010
1000
0001
,
0011
0010
0001
0100
0110
0010
1000
0100
,
1100
0000
1000
0000
0100
0000
0010
0000
0011
0000
0001
0000
1000
0010
1000
0010
,
0100
0010
1000
0001
1001
1000
0100
0010
,
0110
0100
1000
0001
1001
1000
0010
0100
,
0101
0001
0010
0100
1100
1000
0001
0100
,
0101
0000
0001
0000
0100
0000
0010
0000
1010
0000
1000
0000
0100
1000
0100
1000
,
0001
1000
0010
0100
0101
0001
0100
0010
,
1010
1000
0001
1000
1001
0001
0010
0100
,
1000
0100
1000
0001
1000
0001
1000
0001
0100
0010
0100
0001
1000
0001
1000
0001
,
2000
0000
3010
1000
0100
0010
0001
0100
,
0010
1000
0001
0010
0100
0100
1000
0020
,
0130
0010
1000
0100
0010
0001
0100
0010
,
1000
0010
1000
0010
0100
0001
0100
0001
1000
0001
1000
0100
0010
0001
1000
0001
,
2000
3000
0000
0000
;
