#TITLE:The Thong Song;
#SUBTITLE:Sexuality Violation;
#ARTIST:Sisqo;
#TITLETRANSLIT:;
#SUBTITLETRANSLIT:;
#ARTISTTRANSLIT:;
#CREDIT:;
#BANNER:The Thong Song-bn.png;
#BACKGROUND:The Thong Song-bg.png;
#LYRICSPATH:;
#CDTITLE:GazeboCD.png;
#MUSIC:The Thong Song.ogg;
#OFFSET:-0.835;
#SAMPLESTART:46.267;
#SAMPLELENGTH:17.750;
#SELECTABLE:YES;
#BPMS:0.000=243.000;
#STOPS:;
#BGCHANGES:;
// cache tags:
#FIRSTBEAT:32.000;
#LASTBEAT:512.000;
#SONGFILENAME:Songs/Sexuality Violation 2/The Thong Song - [Gazebo]/The Thong Song.sm;
#HASMUSIC:1;
#HASBANNER:1;
#MUSICLENGTH:131.721;
// end cache tags

//---------------dance-single - Gazebo----------------
#NOTES:
     dance-single:
     Gazebo:
     Challenge:
     16:
     1.000,1.000,0.273,0.228,0.797,952.000,36.000,30.000,0.000,0.000:
0000
0000
0000
0000
,
0000
0000
0000
0000
,
0000
0000
0000
0000
,
0000
0000
0000
0000
,
0000
0000
0000
0000
,
0000
0000
0000
0000
,
0000
0000
0000
0000
,
0000
0000
0000
0000
,
1000
0001
0100
0010
,
2000
0000
0000
0000
,
0000
0000
0000
0000
,
3002
0023
0230
2300
,
3002
0000
0203
0320
,
0000
0000
0000
0000
,
0030
0000
0000
0000
,
0000
0000
1000
0000
1000
0001
1000
0001
,
1000
0010
0110
0100
,
0001
0000
0001
1000
0000
0000
0001
1000
,
0100
0010
0100
0010
0001
1000
0010
0000
,
0100
0000
0100
0001
0000
0000
1000
0001
,
0010
0001
1000
0000
1000
0000
0010
0000
,
0100
0000
0100
0001
0000
0000
1000
0001
,
0010
0000
0001
0010
0001
0000
0100
0000
,
0010
0000
0010
1000
0000
0000
1001
0000
,
0001
0010
0001
1000
0001
0000
0100
0010
,
1000
0001
0000
0001
0000
0000
1000
0001
,
0010
0000
0001
0010
0100
0000
1000
0010
,
0100
0000
0100
0001
0000
0000
1000
0000
,
0001
0000
0001
0000
0010
0000
0100
1000
,
0001
0000
0001
0100
0000
0100
0001
0100
,
0010
1000
0010
1000
0000
0001
0000
0010
,
0000
0200
0000
0000
1300
0001
1000
0001
,
0100
0000
0010
0000
1000
0000
0001
0000
0010
0001
0010
0000
0100
0000
1000
0000
,
0001
0100
0001
0000
1000
0000
0010
0000
0100
0010
0100
0000
0001
0000
0000
0000
,
1000
0000
0100
0000
0010
0000
0100
0000
1000
0001
1000
0000
0001
0000
0100
0000
,
0010
1000
0010
0000
0100
0000
0001
0000
1000
0100
1000
0000
0001
0000
0000
0000
,
0010
0000
0100
0000
0010
0000
0100
0000
1000
0001
1000
0000
0001
0000
0100
0000
,
0010
0100
0010
0000
1000
0000
0100
0000
0010
0001
0010
0000
0001
0000
0000
0000
,
1000
0001
1000
0001
0100
0010
1000
0002
,
1000
0003
0001
1000
,
0100
0000
0010
0000
0001
0000
1000
0000
0010
1000
0010
0000
0100
0000
0001
0000
,
1000
0100
1000
0000
0001
0000
0010
0000
0100
0010
0100
0000
1000
0000
0000
0000
,
0001
0000
0100
0000
0010
0000
0100
0000
0001
1000
0001
0000
1000
0000
0100
0000
,
0010
0001
0010
0000
0100
0000
1000
0000
0001
0100
0001
0000
1000
0000
0000
0000
,
1010
0000
0110
0000
0101
0000
0001
1000
,
0001
1000
0100
0010
0001
0000
0001
0000
,
1000
0010
1000
0010
0100
0010
0100
0010
,
0100
0001
0100
0001
0010
0001
0010
0001
,
1000
0100
1000
0001
0010
0001
1000
0100
0010
0001
1000
0001
0010
0100
1000
0001
,
1000
0010
0100
0001
0100
0001
1000
0100
0010
0001
0010
0001
1000
0100
0010
0001
,
1000
0010
1000
0001
0100
0001
1000
0010
0100
0001
1000
0001
0100
0010
1000
0001
,
1000
0100
0010
0001
0010
0001
1000
0010
0100
0001
0100
0001
1000
0010
0100
0001
,
1000
0100
1000
0001
0010
0001
1000
0100
0010
0001
1000
0001
0010
0100
1000
0001
,
1000
0010
0100
0001
0100
0001
1000
0100
0010
0001
0010
0001
1000
0000
0000
0000
,
2001
0000
0000
3010
0110
0000
0101
0000
,
2002
0000
0000
3003
1001
0000
0000
1000
,
0001
0010
0001
0010
0100
1000
0001
0100
,
0001
1000
0010
0100
0010
1000
0001
0100
0001
1000
0100
1000
0001
0010
0100
1000
,
0001
1000
0001
0010
0001
1000
0010
0100
,
0001
1000
0001
0100
0010
1000
0001
1000
0001
0010
0100
0010
0001
1000
0100
0010
,
0001
1000
0100
1000
0001
1000
0010
0100
,
0001
1000
0010
1000
0001
0100
0010
1000
0001
1000
0100
0010
0001
0000
0000
0000
,
1002
0000
0000
0103
0110
0000
1010
0000
,
2002
0000
0000
3003
0001
0010
0001
0010
,
0001
1000
1100
0100
,
0010
0000
0010
0001
0000
0000
1000
0001
,
0100
0010
0100
0010
1000
0001
0010
0000
,
0100
0000
0100
1000
0000
0000
0001
1000
,
0010
1000
0001
0000
0001
0000
0010
0000
,
0100
0000
0100
1000
0000
0000
0001
1000
,
0010
0000
1000
0010
1000
0000
0100
0000
,
0010
0000
0010
0001
0000
0000
1001
0000
,
1000
0010
1000
0001
1000
0000
0100
0010
,
0001
1000
0000
1000
0000
0000
0001
1000
,
0010
0000
1000
0010
0100
0000
0001
0010
,
0100
0000
0100
1000
0000
0000
0001
0000
,
1000
0000
1000
0000
0010
0000
0100
0001
,
1000
0000
1000
0100
0000
0100
1000
0100
,
0010
0001
0010
0001
0000
1000
0000
0010
,
0000
0200
0000
0000
0301
1000
0001
1000
,
0100
0000
0010
0000
0001
0000
1000
0000
0010
1000
0010
0000
0100
0000
0001
0000
,
1000
0100
1000
0000
0001
0000
0010
0000
0100
0010
0100
0000
1000
0000
0000
0000
,
0001
0000
0100
0000
0010
0000
0100
0000
0001
1000
0001
0000
1000
0000
0100
0000
,
0010
0001
0010
0000
0100
0000
1000
0000
0001
0100
0001
0000
1000
0000
0000
0000
,
0010
0000
0100
0000
0010
0000
0100
0000
0001
1000
0001
0000
1000
0000
0100
0000
,
0010
0100
0010
0000
0001
0000
0100
0000
0010
1000
0010
0000
1000
0000
0000
0000
,
0001
1000
0001
1000
0100
0010
0001
2000
,
0001
3000
1000
0001
,
0100
0000
0010
0000
1000
0000
0001
0000
0010
0001
0010
0000
0100
0000
1000
0000
,
0001
0100
0001
0000
1000
0000
0010
0000
0100
0010
0100
0000
0001
0000
0000
0000
,
1000
0000
0100
0000
0010
0000
0100
0000
1000
0001
1000
0000
0001
0000
0100
0000
,
0010
1000
0010
0000
0100
0000
0001
0000
1000
0100
1000
0000
0001
0000
0000
0000
,
0011
0000
0110
0000
1100
0000
1000
0001
,
1000
0001
0100
0010
1000
0000
1000
0000
,
0001
0010
0001
0010
0100
0010
0100
0010
,
0100
1000
0100
1000
0010
1000
0010
1000
,
0001
0100
0001
1000
0010
1000
0001
0100
0010
1000
0001
1000
0010
0100
0001
1000
,
0001
0010
0100
1000
0100
1000
0001
0100
0010
1000
0010
1000
0001
0100
0010
1000
,
0001
0010
0001
1000
0100
1000
0001
0010
0100
1000
0001
1000
0100
0010
0001
1000
,
0001
0100
0010
1000
0010
1000
0001
0010
0100
1000
0100
1000
0001
0010
0100
1000
,
0001
0100
0001
1000
0010
1000
0001
0100
0010
1000
0001
1000
0010
0100
0001
1000
,
0001
0010
0100
1000
0100
1000
0001
0100
0010
1000
0010
1000
0001
0000
0000
0000
,
1002
0000
0000
0013
0110
0000
1100
0000
,
2002
0000
0000
3003
1001
0000
0000
0001
,
1000
0010
1000
0010
0100
0001
1000
0100
,
1000
0001
0010
0100
0010
0001
1000
0100
1000
0001
0100
0001
1000
0010
0100
0001
,
1000
0001
1000
0010
1000
0001
0010
0100
,
1000
0001
1000
0100
0010
0001
1000
0001
1000
0010
0100
0010
1000
0001
0100
0010
,
1000
0001
0100
0001
1000
0001
0010
0100
,
1000
0001
0010
0001
1000
0100
0010
0001
1000
0001
0100
0010
1000
0000
0000
0000
,
2001
0000
0000
3100
0110
0000
0011
0000
,
2002
0000
0000
3003
1000
0010
1000
0010
,
1000
0001
0100
0001
0010
0100
1000
0001
,
1000
0100
1000
0001
0010
0001
1000
0010
1000
0001
0100
0010
1000
0001
0100
0001
,
1000
0010
1000
0100
1000
0001
0010
0100
,
1000
0001
0010
0001
0010
0100
1000
0001
1000
0001
0100
0010
0100
0001
1000
0001
,
1000
0001
0100
0001
0010
0100
1000
0001
,
1000
0001
0010
0100
0010
0001
1000
0001
1000
0010
0100
0001
1000
0000
0000
0000
,
2001
0000
0000
3100
0110
0000
0011
0000
,
2002
0000
0000
3003
0001
0000
0100
0000
,
0010
1000
0100
1000
0001
0100
0010
1000
,
0001
0100
0001
1000
0010
1000
0001
0010
0001
1000
0100
0010
0001
1000
0100
1000
,
0001
0010
0001
0100
0001
1000
0010
0100
,
0001
1000
0010
1000
0010
0100
0001
1000
0001
1000
0100
0010
0100
1000
0001
1000
,
0001
1000
0100
1000
0010
0100
0001
1000
,
0001
1000
0010
0100
0010
1000
0001
1000
0001
0010
0100
1000
0001
0000
0000
0000
,
1002
0000
0000
0103
0110
0000
1010
0000
,
2002
0000
0000
3003
1000
0001
1000
0001
,
1000
0000
0000
0000
;

//---------------dance-single - Gazebo----------------
#NOTES:
     dance-single:
     Gazebo:
     Hard:
     13:
     1.000,1.000,0.273,0.228,0.615,904.000,36.000,30.000,0.000,0.000:
0000
0000
0000
0000
,
0000
0000
0000
0000
,
0000
0000
0000
0000
,
0000
0000
0000
0000
,
0000
0000
0000
0000
,
0000
0000
0000
0000
,
0000
0000
0000
0000
,
0000
0000
0000
0000
,
1000
0001
0100
0010
,
2000
0000
0000
0000
,
0000
0000
0000
0000
,
3002
0023
0230
2300
,
3002
0000
0203
0320
,
0000
0000
0000
0000
,
0030
0000
0000
0000
,
0000
0000
1000
0000
1000
0001
1000
0001
,
1000
0010
0110
0100
,
0001
0000
0001
1000
0000
0000
0001
1000
,
0100
0010
0100
0010
0001
1000
0010
0000
,
0100
0000
0100
0001
0000
0000
1000
0001
,
0010
0001
1000
0000
1000
0000
0010
0000
,
0100
0000
0100
0001
0000
0000
1000
0001
,
0010
0000
0001
0010
0001
0000
0100
0000
,
0010
0000
0010
1000
0000
0000
1001
0000
,
0001
0010
0001
1000
0001
0000
0100
0010
,
1000
0001
0000
0001
0000
0000
1000
0001
,
0010
0000
0001
0010
0100
0000
1000
0010
,
0100
0000
0100
0001
0000
0000
1000
0000
,
0001
0000
0001
0000
0010
0000
0100
1000
,
0001
0000
0001
0100
0000
0100
0001
0100
,
0010
1000
0010
1000
0000
0001
0000
0010
,
0000
0200
0000
0000
1300
0001
1000
0001
,
0100
0000
0010
0000
1000
0000
0001
0000
0010
0001
0010
0000
0100
0000
1000
0000
,
0001
0100
0001
0000
1000
0000
0010
0000
0100
0010
0100
0000
0001
0000
0000
0000
,
1000
0000
0100
0000
0010
0000
0100
0000
1000
0001
1000
0000
0001
0000
0100
0000
,
0010
1000
0010
0000
0100
0000
0001
0000
1000
0100
1000
0000
0001
0000
0000
0000
,
0010
0000
0100
0000
0010
0000
0100
0000
1000
0001
1000
0000
0001
0000
0100
0000
,
0010
0100
0010
0000
1000
0000
0100
0000
0010
0001
0010
0000
0001
0000
0000
0000
,
1000
0001
1000
0001
0100
0010
1000
0002
,
1000
0003
0001
1000
,
0100
0000
0010
0000
0001
0000
1000
0000
0010
1000
0010
0000
0100
0000
0001
0000
,
1000
0100
1000
0000
0001
0000
0010
0000
0100
0010
0100
0000
1000
0000
0000
0000
,
0001
0000
0100
0000
0010
0000
0100
0000
0001
1000
0001
0000
1000
0000
0100
0000
,
0010
0001
0010
0000
0100
0000
1000
0000
0001
0100
0001
0000
1000
0000
0000
0000
,
1010
0000
0110
0000
0101
0000
0001
1000
,
0001
1000
0100
0010
0001
0000
0001
0000
,
1000
0010
1000
0010
0100
0010
0100
0010
,
0100
0001
0100
0001
0010
0001
0010
0001
,
1000
0010
0100
0010
1000
0100
0010
0001
,
1000
0010
0100
0001
0100
0001
1000
0100
0010
0001
0010
0001
1000
0100
0010
0001
,
1000
0010
1000
0010
0100
0001
1000
0001
,
1000
0100
0010
0001
0010
0001
1000
0010
0100
0001
0100
0001
1000
0010
0100
0001
,
1000
0100
1000
0100
0010
0001
1000
0010
,
1000
0010
0100
0001
0100
0001
1000
0100
0010
0001
0010
0001
1000
0000
0000
0000
,
2001
0000
0000
3010
0110
0000
0101
0000
,
2002
0000
0000
3003
1001
0000
0000
1000
,
0001
0010
0001
0010
0100
1000
0001
0100
,
0001
1000
0010
0100
0010
1000
0001
0100
0001
1000
0100
1000
0001
0010
0100
1000
,
0001
1000
0001
0010
0001
1000
0010
0100
,
0001
1000
0001
0100
0010
1000
0001
1000
0001
0010
0100
0010
0001
1000
0100
0010
,
0001
1000
0100
1000
0001
1000
0010
0100
,
0001
1000
0010
1000
0001
0100
0010
1000
0001
1000
0100
0010
0001
0000
0000
0000
,
1002
0000
0000
0103
0110
0000
1010
0000
,
2002
0000
0000
3003
0001
0010
0001
0010
,
0001
1000
1100
0100
,
0010
0000
0010
0001
0000
0000
1000
0001
,
0100
0010
0100
0010
1000
0001
0010
0000
,
0100
0000
0100
1000
0000
0000
0001
1000
,
0010
1000
0001
0000
0001
0000
0010
0000
,
0100
0000
0100
1000
0000
0000
0001
1000
,
0010
0000
1000
0010
1000
0000
0100
0000
,
0010
0000
0010
0001
0000
0000
1001
0000
,
1000
0010
1000
0001
1000
0000
0100
0010
,
0001
1000
0000
1000
0000
0000
0001
1000
,
0010
0000
1000
0010
0100
0000
0001
0010
,
0100
0000
0100
1000
0000
0000
0001
0000
,
1000
0000
1000
0000
0010
0000
0100
0001
,
1000
0000
1000
0100
0000
0100
1000
0100
,
0010
0001
0010
0001
0000
1000
0000
0010
,
0000
0200
0000
0000
0301
1000
0001
1000
,
0100
0000
0010
0000
0001
0000
1000
0000
0010
1000
0010
0000
0100
0000
0001
0000
,
1000
0100
1000
0000
0001
0000
0010
0000
0100
0010
0100
0000
1000
0000
0000
0000
,
0001
0000
0100
0000
0010
0000
0100
0000
0001
1000
0001
0000
1000
0000
0100
0000
,
0010
0001
0010
0000
0100
0000
1000
0000
0001
0100
0001
0000
1000
0000
0000
0000
,
0010
0000
0100
0000
0010
0000
0100
0000
0001
1000
0001
0000
1000
0000
0100
0000
,
0010
0100
0010
0000
0001
0000
0100
0000
0010
1000
0010
0000
1000
0000
0000
0000
,
0001
1000
0001
1000
0100
0010
0001
2000
,
0001
3000
1000
0001
,
0100
0000
0010
0000
1000
0000
0001
0000
0010
0001
0010
0000
0100
0000
1000
0000
,
0001
0100
0001
0000
1000
0000
0010
0000
0100
0010
0100
0000
0001
0000
0000
0000
,
1000
0000
0100
0000
0010
0000
0100
0000
1000
0001
1000
0000
0001
0000
0100
0000
,
0010
1000
0010
0000
0100
0000
0001
0000
1000
0100
1000
0000
0001
0000
0000
0000
,
0011
0000
0110
0000
1100
0000
1000
0001
,
1000
0001
0100
0010
1000
0000
1000
0000
,
0001
0010
0001
0010
0100
0010
0100
0010
,
0100
1000
0100
1000
0010
1000
0010
1000
,
0001
0010
0100
0010
0001
0100
0010
1000
,
0001
0010
0100
1000
0100
1000
0001
0100
0010
1000
0010
1000
0001
0100
0010
1000
,
0001
0010
0001
0010
0100
1000
0001
1000
,
0001
0100
0010
1000
0010
1000
0001
0010
0100
1000
0100
1000
0001
0010
0100
1000
,
0001
0100
0001
0100
0010
1000
0001
0010
,
0001
0010
0100
1000
0100
1000
0001
0100
0010
1000
0010
1000
0001
0000
0000
0000
,
1002
0000
0000
0013
0110
0000
1100
0000
,
2002
0000
0000
3003
1001
0000
0000
0001
,
1000
0010
1000
0010
0100
0001
1000
0100
,
1000
0001
0010
0100
0010
0001
1000
0100
1000
0001
0100
0001
1000
0010
0100
0001
,
1000
0001
1000
0010
1000
0001
0010
0100
,
1000
0001
1000
0100
0010
0001
1000
0001
1000
0010
0100
0010
1000
0001
0100
0010
,
1000
0001
0100
0001
1000
0001
0010
0100
,
1000
0001
0010
0001
1000
0100
0010
0001
1000
0001
0100
0010
1000
0000
0000
0000
,
2001
0000
0000
3100
0110
0000
0011
0000
,
2002
0000
0000
3003
1000
0010
1000
0010
,
1000
0001
0100
0001
0010
0100
1000
0001
,
1000
0100
1000
0001
0010
0001
1000
0010
1000
0001
0100
0010
1000
0001
0100
0001
,
1000
0010
1000
0100
1000
0001
0010
0100
,
1000
0001
0010
0001
0010
0100
1000
0001
1000
0001
0100
0010
0100
0001
1000
0001
,
1000
0001
0100
0001
0010
0100
1000
0001
,
1000
0001
0010
0100
0010
0001
1000
0001
1000
0010
0100
0001
1000
0000
0000
0000
,
2001
0000
0000
3100
0110
0000
0011
0000
,
2002
0000
0000
3003
0001
0000
0100
0000
,
0010
1000
0100
1000
0001
0100
0010
1000
,
0001
0100
0001
1000
0010
1000
0001
0010
0001
1000
0100
0010
0001
1000
0100
1000
,
0001
0010
0001
0100
0001
1000
0010
0100
,
0001
1000
0010
1000
0010
0100
0001
1000
0001
1000
0100
0010
0100
1000
0001
1000
,
0001
1000
0100
1000
0010
0100
0001
1000
,
0001
1000
0010
0100
0010
1000
0001
1000
0001
0010
0100
1000
0001
0000
0000
0000
,
1002
0000
0000
0103
0110
0000
1010
0000
,
2002
0000
0000
3003
1000
0001
1000
0001
,
1000
0000
0000
0000
;

//---------------dance-single - Gazebo----------------
#NOTES:
     dance-single:
     Gazebo:
     Medium:
     11:
     0.872,1.000,0.273,0.243,0.235,736.000,36.000,32.000,0.000,0.000:

0000
0000
0000
0000
,
0000
0000
0000
0000
,
0000
0000
0000
0000
,
0000
0000
0000
0000
,
0000
0000
0000
0000
,
0000
0000
0000
0000
,
0000
0000
0000
0000
,
0000
0000
0000
0000
,
1000
0001
0100
0010
,
2000
0000
0000
0000
,
0000
0000
0000
0000
,
3002
0023
0230
2300
,
3002
0000
0203
0320
,
0000
0000
0000
0000
,
0030
0000
0000
0000
,
0000
0000
1000
0000
1000
0001
1000
0001
,
1000
0010
0110
0100
,
0001
0000
0001
1000
0000
0000
0001
1000
,
0100
0010
0100
0010
0001
1000
0010
0000
,
0100
0000
0100
0001
0000
0000
1000
0001
,
0010
0001
1000
0000
1000
0000
0010
0000
,
0100
0000
0100
0001
0000
0000
1000
0001
,
0010
0000
0001
0010
0001
0000
0100
0000
,
0010
0000
0010
1000
0000
0000
1001
0000
,
0001
0010
0001
1000
0001
0000
0100
0010
,
1000
0001
0000
0001
0000
0000
1000
0001
,
0010
0000
0001
0010
0100
0000
1000
0010
,
0100
0000
0100
0001
0000
0000
1000
0000
,
0001
0000
0001
0000
0010
0000
0100
1000
,
0001
0000
0001
0100
0000
0100
0001
0100
,
0010
1000
0010
1000
0000
0001
0000
0010
,
0000
0200
0000
0000
1300
0001
1000
0001
,
0100
0000
0010
0000
1000
0000
0001
0000
0010
0001
0010
0000
0100
0000
1000
0000
,
0001
0100
0001
0000
1000
0000
0010
0000
0100
0010
0100
0000
0001
0000
0000
0000
,
1000
0000
0100
0000
0010
0000
0100
0000
1000
0001
1000
0000
0001
0000
0100
0000
,
0010
1000
0010
0000
0100
0000
0001
0000
1000
0100
1000
0000
0001
0000
0000
0000
,
0010
0000
0100
0000
0010
0000
0100
0000
1000
0001
1000
0000
0001
0000
0100
0000
,
0010
0100
0010
0000
1000
0000
0100
0000
0010
0001
0010
0000
0001
0000
0000
0000
,
1000
0001
1000
0001
0100
0010
1000
0002
,
1000
0003
0001
1000
,
0100
0000
0010
0000
0001
0000
1000
0000
0010
1000
0010
0000
0100
0000
0001
0000
,
1000
0100
1000
0000
0001
0000
0010
0000
0100
0010
0100
0000
1000
0000
0000
0000
,
0001
0000
0100
0000
0010
0000
0100
0000
0001
1000
0001
0000
1000
0000
0100
0000
,
0010
0001
0010
0000
0100
0000
1000
0000
0001
0100
0001
0000
1000
0000
0000
0000
,
1010
0000
0110
0000
0101
0000
0001
1000
,
0001
1000
0100
0010
0001
0000
0001
0000
,
1000
0010
1000
0010
0100
0010
0100
0010
,
0100
0001
0100
0001
0010
0001
0010
0001
,
1000
0010
1000
0001
1000
0001
0010
0100
1000
0100
1000
0001
,
0100
0001
1000
0010
1000
0001
0010
0100
1000
0001
0010
0001
,
1000
0010
0100
0010
1000
0001
0010
0100
,
1000
0001
0000
1000
0002
0000
0000
0000
,
1003
0010
0100
0010
1000
0001
0010
0100
,
1000
0001
0000
1000
0001
0000
0100
0000
,
2001
0000
0000
3010
0110
0000
0101
0000
,
2002
0000
0000
3003
1001
0000
0000
1000
,
0001
0010
0001
0010
0100
1000
0001
0100
,
0001
1000
0000
0001
1000
0000
0000
0000
,
0001
1000
0001
0010
0001
1000
0010
0100
,
0001
1000
0000
0001
1000
0000
0000
0000
,
0001
1000
0100
1000
0001
1000
0010
0100
,
0001
1000
0000
0001
1000
0000
0010
0000
,
1002
0000
0000
0103
0110
0000
1010
0000
,
2002
0000
0000
3003
0001
0010
0001
0010
,
0001
1000
1100
0100
,
0010
0000
0010
0001
0000
0000
1000
0001
,
0100
0010
0100
0010
1000
0001
0010
0000
,
0100
0000
0100
1000
0000
0000
0001
1000
,
0010
1000
0001
0000
0001
0000
0010
0000
,
0100
0000
0100
1000
0000
0000
0001
1000
,
0010
0000
1000
0010
1000
0000
0100
0000
,
0010
0000
0010
0001
0000
0000
1001
0000
,
1000
0010
1000
0001
1000
0000
0100
0010
,
0001
1000
0000
1000
0000
0000
0001
1000
,
0010
0000
1000
0010
0100
0000
0001
0010
,
0100
0000
0100
1000
0000
0000
0001
0000
,
1000
0000
1000
0000
0010
0000
0100
0001
,
1000
0000
1000
0100
0000
0100
1000
0100
,
0010
0001
0010
0001
0000
1000
0000
0010
,
0000
0200
0000
0000
0301
1000
0001
1000
,
0100
0000
0010
0000
0001
0000
1000
0000
0010
1000
0010
0000
0100
0000
0001
0000
,
1000
0100
1000
0000
0001
0000
0010
0000
0100
0010
0100
0000
1000
0000
0000
0000
,
0001
0000
0100
0000
0010
0000
0100
0000
0001
1000
0001
0000
1000
0000
0100
0000
,
0010
0001
0010
0000
0100
0000
1000
0000
0001
0100
0001
0000
1000
0000
0000
0000
,
0010
0000
0100
0000
0010
0000
0100
0000
0001
1000
0001
0000
1000
0000
0100
0000
,
0010
0100
0010
0000
0001
0000
0100
0000
0010
1000
0010
0000
1000
0000
0000
0000
,
0001
1000
0001
1000
0100
0010
0001
2000
,
0001
3000
1000
0001
,
0100
0000
0010
0000
1000
0000
0001
0000
0010
0001
0010
0000
0100
0000
1000
0000
,
0001
0100
0001
0000
1000
0000
0010
0000
0100
0010
0100
0000
0001
0000
0000
0000
,
1000
0000
0100
0000
0010
0000
0100
0000
1000
0001
1000
0000
0001
0000
0100
0000
,
0010
1000
0010
0000
0100
0000
0001
0000
1000
0100
1000
0000
0001
0000
0000
0000
,
0011
0000
0110
0000
1100
0000
1000
0001
,
1000
0001
0100
0010
1000
0000
1000
0000
,
0001
0010
0001
0010
0100
0010
0100
0010
,
0100
1000
0100
1000
0010
1000
0010
1000
,
0001
0010
0001
1000
0001
1000
0010
0100
0001
0100
0001
1000
,
0100
1000
0001
0010
0001
1000
0010
0100
0001
1000
0010
1000
,
0001
0010
0100
0010
0001
1000
0010
0100
,
0001
1000
0000
0001
2000
0000
0000
0000
,
3001
0010
0100
0010
0001
1000
0010
0100
,
0001
1000
0000
0001
1000
0000
0100
0000
,
1002
0000
0000
0013
0110
0000
1100
0000
,
2002
0000
0000
3003
1001
0000
0000
0001
,
1000
0010
1000
0010
0100
0001
1000
0100
,
1000
0001
0000
1000
0001
0000
0000
0000
,
1000
0001
1000
0010
1000
0001
0010
0100
,
1000
0001
0000
1000
0001
0000
0000
0000
,
1000
0001
0100
0001
1000
0001
0010
0100
,
1000
0001
0000
1000
0001
0000
0010
0000
,
2001
0000
0000
3100
0110
0000
0011
0000
,
2002
0000
0000
3003
1000
0010
1000
0010
,
1000
0001
0100
0001
0010
0100
1000
0001
,
1000
0001
0000
1000
0001
0000
0000
0000
,
1000
0010
1000
0100
1000
0001
0010
0100
,
1000
0001
0000
1000
0001
0000
0000
0000
,
1000
0001
0100
0001
0010
0100
1000
0001
,
1000
0001
0000
1000
0001
0000
0010
0000
,
2001
0000
0000
3100
0110
0000
0011
0000
,
2002
0000
0000
3003
0001
0000
0100
0000
,
0010
1000
0100
1000
0001
0100
0010
1000
,
0001
1000
0000
0001
1000
0000
0000
0000
,
0001
0010
0001
0100
0001
1000
0010
0100
,
0001
1000
0000
0001
1000
0000
0000
0000
,
0001
1000
0100
1000
0010
0100
0001
1000
,
0001
1000
0000
0001
1000
0000
0010
0000
,
1002
0000
0000
0103
0110
0000
1010
0000
,
2002
0000
0000
3003
1000
0001
1000
0001
,
1000
0000
0000
0000
;
