#TITLE:World Sound;
#SUBTITLE:(Xephon);
#ARTIST:DJ Sharpnel;
#TITLETRANSLIT:;
#SUBTITLETRANSLIT:;
#ARTISTTRANSLIT:;
#CREDIT:;
#BANNER:world sound bn.png;
#BACKGROUND:world sound bg.png;
#LYRICSPATH:;
#CDTITLE:;
#MUSIC:World Sound.ogg;
#OFFSET:1.003;
#SAMPLESTART:164.800;
#SAMPLELENGTH:21.392;
#SELECTABLE:YES;
#DISPLAYBPM:180.000;
#BPMS:0.000=179.500;
#STOPS:;
#BGCHANGES:;
// cache tags:
#FIRSTBEAT:4.000;
#LASTBEAT:983.750;
#SONGFILENAME:Songs/SHARPNELSTREAMZ v2/World Sound/World Sound.sm;
#HASMUSIC:1;
#HASBANNER:1;
#MUSICLENGTH:335.307;
// end cache tags

//---------------dance-single - 15+ (Zaia)----------------
#NOTES:
     dance-single:
     15+ (Zaia):
     Challenge:
     15:
     1.000,1.000,0.179,0.614,1.000,2620.000,60.000,206.000,21.000,0.000:
0000
0000
0000
0000
,
0001
0001
0010
0010
,
0010
0000
0100
1000
0001
0000
0100
0010
,
1000
0001
0010
0000
0010
0000
M010
0000
,
M010
0000
M001
0000
1000
0100
0010
0000
,
0001
0010
0100
0000
1000
0000
1000
0000
,
1000
0000
0001
0000
0100
0000
0010
0100
,
0001
1000
0100
1000
0001
0010
0100
0010
0001
1000
0010
0100
0010
1000
0001
1000
,
0100
0010
0100
1000
0001
0010
0100
1000
0001
0100
0010
1000
0010
0100
0001
1000
,
0010
0100
0001
0000
1000
0001
0100
0000
0010
1000
0001
0000
1000
0001
0010
0000
,
0100
1000
0001
0000
0100
0010
1000
0000
0100
1000
0001
0000
0100
0010
1000
0000
,
0001
0010
0100
0000
1000
0001
0100
0000
0010
1000
0001
0000
1000
0010
0100
0000
,
0001
0010
0100
0000
1000
0001
0100
0000
0001
0100
0010
0000
1000
0001
0010
0000
,
0001
1000
0010
0000
0100
0001
1000
0000
0100
0010
0001
0000
0100
0001
1000
0000
,
0010
0100
0001
0000
1000
0100
0010
0000
0001
1000
0010
0000
0100
0001
1000
0000
,
0100
1000
0100
0000
0010
0001
0010
0000
0001
1000
0001
0000
1000
0001
1000
0000
,
0010
0100
0010
0000
1000
0010
1000
0000
0001
1000
0001
0000
1000
0000
0001
0000
,
M1M0
0001
0100
0000
0010
1000
0001
0000
1000
0010
0100
0000
0001
1000
0100
0000
,
0010
0001
1000
0000
0001
1000
0010
0000
0100
0001
1000
0000
0100
1000
0001
0000
,
0100
0010
1000
0000
0100
0010
0001
0000
1000
0010
0100
0000
0001
0010
0100
0000
,
1000
0001
0100
0000
0010
1000
0001
0000
1000
0010
0100
0000
0001
0010
0100
0000
,
1000
0001
0100
0000
0010
1000
0100
0000
0010
0001
1000
0000
0010
0100
0001
0000
,
1000
0001
0010
0000
0100
1000
0001
0000
1000
0100
0010
0000
0001
1000
0010
0000
,
0100
0001
0100
0000
0010
1000
0010
0000
1000
0001
1000
0000
0001
1000
0001
0000
,
0011
0000
0000
0000
0100
0000
0100
1000
0001
1000
0001
0000
0100
0000
0100
0001
,
20M0
0000
0000
0000
0000
0000
0000
0000
0000
0000
0000
0000
0000
0000
0000
3000
2000
0000
0000
0000
0000
0000
0000
0000
0000
0000
0000
0000
0000
0000
0000
0000
3002
0000
0000
0000
0000
0000
0000
0000
0000
0000
0000
0000
0000
0000
0000
0000
0000
0000
0000
0000
0000
0000
0000
0000
0000
0000
0000
0000
0000
0000
0000
0000
,
0000
0003
0010
0100
2000
0000
3100
0010
,
0001
0100
0020
0000
0000
0000
0000
0000
,
0000
0030
1000
0000
0010
0100
0002
0000
,
1003
0001
2000
0000
3100
0000
0000
0000
,
0000
0000
0010
0000
0100
0000
1000
0100
,
1000
0001
0100
0000
0000
0000
0000
0000
,
0000
0000
0000
0000
0000
0000
0010
0100
,
1001
1000
0101
0001
1000
0100
1100
1000
,
0001
0100
0110
0010
1000
0001
0011
0010
,
0100
1000
1001
0001
0100
0010
1010
1000
,
0001
0010
0110
0100
1000
0001
0101
0100
,
0001
1000
1100
0100
0010
0001
0011
0010
,
0100
1000
1001
0001
0100
0010
1010
1000
,
0001
0010
0011
0001
1000
0100
1100
1000
,
0001
0100
0101
0001
1000
0010
0110
0100
,
2MM1
3001
2000
3010
0200
0310
1000
0001
,
0010
0001
0200
0320
2030
3001
2000
3020
,
0230
0302
0023
0130
1000
0100
0010
0100
,
1000
0001
0200
0310
2000
3002
0023
0130
,
2000
3001
2000
3100
0020
0031
1000
0001
,
0100
0010
2000
3010
0200
0301
0020
0230
,
0320
0032
2003
3010
0100
0001
1000
0001
,
0100
0010
1000
0001
0010
0100
1000
0001
,
1MM2
1003
0002
0103
0020
0130
0001
1000
,
0100
1000
0020
0230
0302
1003
0002
0203
,
0320
2030
3200
0310
0001
0010
0100
0010
,
0001
1000
0020
0130
0002
2003
3200
0310
,
0002
1003
0002
0013
0200
1300
0001
1000
,
0010
0100
0002
0103
0020
1030
0200
0320
,
0230
2300
3002
0103
0010
1000
0001
1000
,
0010
1000
0001
1000
0010
0100
0001
1000
0010
0100
0010
0000
1000
0000
0010
0000
,
0100
0000
0101
0000
0000
0010
0101
0000
,
1000
0000
0011
0000
0000
1000
0011
0001
,
1000
0010
0100
0001
1000
0000
0100
0010
,
0000
0000
0000
0001
1000
1000
0000
0001
,
0100
0000
1010
0000
0000
0001
1010
0000
,
0100
0000
0101
0000
0000
0100
0101
0001
,
0010
0001
0100
0010
1000
0000
0010
0100
,
0001
0010
0100
1000
0000
0100
0010
0002
,
0000
0000
0000
0000
0000
0000
0000
0000
1000
0000
0000
0000
0000
0000
0000
0000
2000
0000
0000
0000
0000
0000
0000
0000
0000
0000
0000
0000
0000
0000
0000
0000
0000
0000
0000
0000
0000
0000
0000
0000
0000
0000
0000
0000
0000
0000
0000
0000
0000
0000
0000
0000
0000
0000
0000
0000
0000
0000
0000
0000
0000
0000
0000
3000
,
2000
0000
0000
0000
0000
0000
0000
0000
0000
0000
0000
0000
0000
0000
0000
0000
0000
0000
0000
0003
0002
0000
0000
3000
2000
0000
0000
0000
0000
0000
0000
0000
0000
0000
0000
0000
0000
0000
0000
0000
0000
0000
3000
0003
0002
0000
0000
0000
,
0203
0300
0000
0000
0000
0000
0000
0000
0020
0030
0000
0000
2000
3000
0000
0000
0000
0000
0000
0000
0200
0300
0000
0000
0020
0000
0000
0030
0000
0000
0000
0000
0002
0003
0000
0000
2000
0000
0000
0000
0000
0000
0000
0000
0000
3000
0000
0000
,
0001
0100
0010
1000
0001
0010
0100
0000
0010
0001
0000
0000
,
0101
0000
1M1M
1MM1
,
1000
0100
0010
0001
1000
0001
0010
0001
1000
0010
0100
0001
1000
0001
0100
0001
,
1000
0100
0010
0001
1000
0001
0010
0001
0100
0010
1000
0001
1000
0001
0100
0001
,
1000
0100
0010
0001
1000
0001
0010
0001
1000
0010
0100
0001
1000
0001
0100
0001
,
1000
0100
0010
0001
1000
0001
0010
0001
0100
0010
0100
0001
1000
0010
1000
0001
,
1000
0100
0010
0001
1000
0001
0010
0001
1000
0010
0100
0001
1000
0001
0100
0001
,
1000
0100
0010
0001
1000
0001
0010
0001
0100
0010
1000
0001
1000
0001
0100
0001
,
1000
0010
0100
0001
0010
0100
1000
0010
0100
0010
1000
0001
0010
0100
0010
0001
,
1000
0010
1000
0001
1000
0010
0100
0001
0010
0100
1000
0001
0100
0010
1000
0100
,
1000
0001
0010
0100
1000
0001
0010
0001
1000
0001
0100
0010
1000
0001
0100
0001
,
1000
0001
0010
0100
1000
0001
0010
0001
0100
0001
1000
0010
1000
0001
0100
0001
,
1000
0001
0010
0100
1000
0001
0010
0001
1000
0001
0100
0010
1000
0001
0100
0001
,
1000
0001
0010
0100
1000
0001
0010
0001
0100
0010
0100
0001
1000
0001
0100
0001
,
1000
0100
0010
0001
1000
0001
0010
0001
1000
0010
0100
0001
1000
0001
0100
0001
,
1000
0100
0010
0001
1000
0001
0010
0001
0100
0010
1000
0001
1000
0001
0100
0001
,
1000
0100
0010
0001
0100
0010
1000
0100
0010
0100
1000
0001
0100
0010
0100
0001
,
1000
0100
1000
0001
1000
0100
0010
0001
0100
0010
1000
0001
0010
0001
1000
0010
,
0100
0101
0001
1001
,
1000
1100
0100
0110
,
0010
0011
0001
1001
,
1000
0000
0100
M00M
0100
0000
0001
0000
0010
M00M
0010
0000
1000
0100
0010
0001
,
2000
0000
0000
0000
0010
0000
0000
0000
0200
3000
0000
0000
0010
0000
0000
0000
,
2000
0300
0000
0000
0001
0000
0000
0000
0020
3000
0000
0000
0100
0000
0000
0000
,
2000
0030
0000
0000
0100
0000
0000
0000
0002
3000
0000
0000
0010
0000
0000
0000
,
0200
0003
0000
0000
0010
0000
0000
0000
0301
0010
0100
1000
0001
0010
0100
1000
,
0002
0000
0000
0000
0000
0000
0000
0000
0000
0000
0000
0000
0000
0000
0000
0003
0102
0000
0000
0000
0000
0000
0000
0000
0000
0000
0000
0000
0000
0000
0000
0000
0203
0000
0000
0000
0000
0000
0000
0000
0000
0000
0000
0000
0000
0000
0000
0300
0210
0000
0000
0000
0000
0000
0000
0000
0000
0000
0000
0000
0000
0000
0000
0000
,
0320
0000
0000
0000
0000
0000
0000
0000
0000
0000
0000
0000
0000
0000
0000
0030
1020
0000
0000
0000
0000
0000
0000
0000
0000
0000
0000
0000
0000
0000
0000
0000
2030
0000
0000
0000
0000
0000
0000
0000
0000
0000
0000
0000
0000
0000
0000
3000
2100
0000
0000
0000
0000
0000
0000
0000
0000
0000
0000
0000
0000
0000
0000
0000
,
3200
0000
0000
0000
0000
0000
0000
0000
0000
0000
0000
0000
0000
0000
0000
0300
0210
0000
0000
0000
0000
0000
0000
0000
0000
0000
0000
0000
0000
0000
0000
0300
0200
0000
0000
0000
0000
0000
0000
0000
1300
0000
0000
0000
0000
0000
0000
0000
0001
0000
0000
0000
0100
0000
0000
0000
0010
0000
0000
0000
1000
0000
0000
0000
,
0002
0003
2000
3000
0020
0030
0200
0300
0001
1000
0001
0000
1000
0000
0010
0000
,
0100
0001
1000
0010
1000
0001
0010
0100
1000
0100
1000
0001
0100
0010
1000
0100
,
1000
0001
0100
0001
0100
0010
1000
0100
0010
0100
0010
0001
1000
0010
0100
0010
,
1000
0001
0010
0001
0010
0100
1000
0010
0100
0010
0100
0001
1000
0010
1000
0001
,
1000
0100
0010
0100
0010
0001
1000
0001
0100
0001
0100
0010
1000
0100
0010
0001
,
0100
0010
1000
0010
1000
0001
0010
0100
1000
0100
1000
0001
0100
0010
1000
0100
,
1000
0001
0100
0001
0100
0010
1000
0100
0010
0100
0010
0001
1000
0100
0010
0100
,
1000
0001
0100
0001
0100
0010
1000
0100
0010
0100
0010
0001
1000
0100
1000
0001
,
1000
0010
0100
0010
1000
0000
0000
0000
0001
1000
0001
0000
0100
0000
0001
0000
,
0100
0010
1000
0010
1000
0001
0010
0100
1000
0100
1000
0001
0100
0010
1000
0100
,
1000
0001
0100
0001
0100
0010
1000
0100
0010
0100
0010
0001
1000
0010
0100
0010
,
1000
0001
0010
0001
0010
0100
1000
0010
0100
0010
0100
0001
1000
0010
1000
0001
,
1000
0100
0010
0100
0010
0001
1000
0001
0100
0001
0100
0010
1000
0100
0010
0001
,
0100
0010
1000
0010
1000
0001
0010
0100
1000
0100
0010
0001
1000
0100
0010
0001
,
1000
0010
1000
0010
1000
0001
1000
0100
1000
0001
1000
0100
0010
0100
0010
0001
,
1000
0010
0100
0010
0100
0001
1000
0001
1000
0010
0100
0010
0100
0001
1000
0001
,
1000
0010
0100
0001
1000
0010
0100
0001
1000
0010
1000
0000
0001
0000
1000
0000
,
0010
0000
0110
0000
0000
0001
0101
0000
,
1000
0000
1001
0000
0000
1000
1010
0000
,
0001
0000
0011
0000
0000
0010
0110
0000
,
0100
0000
1100
0000
0000
0001
1001
0000
,
1000
0000
0110
0000
0000
0001
0011
0000
,
1000
0000
1001
0000
0000
1000
1100
0100
,
0010
0001
1001
1000
0010
0000
1010
1000
,
0100
0000
0010
0000
0011
0000
0001
1000
0001
0000
0100
0000
0010
1000
0002
0000
,
0000
1003
0200
0000
0000
0000
0000
0000
,
0000
0000
0000
1300
,
0001
0100
0010
1000
0001
1000
0010
1000
0001
0010
0100
1000
0001
1000
0100
1000
,
0001
0100
0010
1000
0001
1000
0010
1000
0100
0010
0001
1000
0010
1000
0001
1000
,
0100
0010
0001
1000
0100
0010
0100
1000
0001
0010
0100
1000
0001
1000
0100
1000
,
0001
0100
0010
1000
0001
1000
0010
1000
0100
0010
0100
1000
0001
0010
0001
1000
,
0001
0100
0010
1000
0001
1000
0010
1000
0001
0010
0100
1000
0001
1000
0100
1000
,
0001
0100
0010
1000
0001
1000
0010
1000
0100
0010
0001
0010
0001
1000
0100
1000
,
0001
0010
0100
1000
0010
0100
0001
0010
0100
0010
0001
1000
0010
0100
0010
1000
,
0001
0010
0001
1000
0001
0010
0100
1000
0010
0100
0001
1000
0100
0010
0001
0100
,
0001
1000
0010
0100
0001
1000
0010
1000
0001
1000
0100
0010
0001
1000
0100
1000
,
0001
1000
0010
0100
0001
1000
0010
1000
0100
0010
0001
1000
0100
0010
0100
1000
,
0001
1000
0010
0100
0001
1000
0010
1000
0001
1000
0100
0010
0001
1000
0100
1000
,
0001
1000
0010
0100
0001
1000
0010
1000
0100
0010
0100
0010
0001
1000
0100
1000
,
0001
0100
0010
1000
0001
1000
0010
1000
0001
0010
0100
1000
0001
1000
0100
1000
,
0001
0100
0010
1000
0001
1000
0010
1000
0100
0010
0100
1000
0001
1000
0010
1000
,
0100
0010
0100
1000
0001
0010
0001
1000
0001
1000
0010
0100
0001
0100
0010
1000
,
0001
0010
0100
1000
0100
1000
0001
1000
0010
0100
0001
1000
0010
1000
0001
0010
,
0001
0100
0001
0100
0010
1000
0100
0010
0001
1000
0001
1000
0010
0100
0001
1000
,
0100
0010
0100
0010
0001
1000
0010
0100
0001
0010
0001
0010
0100
1000
0001
0100
,
0010
1000
0010
1000
0001
0100
0010
1000
0001
1000
0001
1000
0100
0010
0001
1000
,
0001
0100
0001
0100
0010
1000
0100
0010
0001
1000
0001
1000
0010
0100
0001
0010
,
0100
1000
0100
1000
0001
0100
0010
1000
0001
0010
0001
0010
0100
1000
0001
1000
,
0010
0100
0010
0100
0001
1000
0010
0100
0001
1000
0001
1000
0100
0010
0001
0100
,
0010
1000
0010
1000
0100
0010
0001
1000
0001
1000
0010
0100
0001
0010
0100
1000
,
0100
1000
0001
0100
0010
1000
0010
1000
0001
1000
0010
0100
0001
1000
0100
0010
,
0001
0100
0001
0100
0010
1000
0100
0010
0001
1000
0001
1000
0010
0100
0001
1000
,
0100
0010
0100
0010
0001
1000
0010
0100
0001
0010
0001
0010
0100
1000
0001
0100
,
0010
1000
0010
1000
0001
0100
0010
1000
0001
1000
0001
1000
0100
0010
0001
1000
,
0001
0100
0001
0100
0010
1000
0100
0010
0001
1000
0001
1000
0010
0100
0001
0010
,
0100
1000
0100
1000
0001
0100
0010
1000
0001
0010
0001
0010
0100
1000
0001
1000
,
0010
0100
0010
0100
0001
1000
0010
0100
0001
1000
0001
1000
0100
0010
0001
0100
,
0010
1000
0010
1000
0100
0010
0001
1000
0001
1000
0010
0100
0001
0010
0100
1000
,
0200
0300
0000
0000
1000
0000
0000
0000
0001
0000
0000
0000
0100
0000
0000
0000
0010
0000
0000
0000
1000
0000
0000
0000
0010
0000
0000
0000
1000
0000
0000
0000
0002
0003
0000
0000
1000
0000
0000
0000
0010
0000
0000
0000
0100
0000
0000
0000
0001
0000
0000
0000
1000
0000
0000
0000
0100
0000
0000
0000
0010
0000
0000
0000
,
0001
1000
0010
1000
0001
1000
0100
1000
0001
0100
0010
0100
0001
1000
0001
1000
,
0001
0010
0100
0010
0001
1000
0010
1000
0100
0010
0100
1000
0001
1000
0001
0100
,
0010
1000
0010
1000
0001
1000
0100
1000
0001
0100
0010
0100
0001
1000
0001
1000
,
0001
0010
0100
0010
0001
1000
0010
1000
0100
0010
0100
1000
0001
1000
0001
0100
,
0010
1000
0010
1000
0001
1000
0100
1000
0001
0100
0010
0100
0001
1000
0001
1000
,
0001
0010
0100
0010
0001
1000
0010
1000
0100
0010
0100
1000
0001
1000
0001
0100
,
0010
1000
0010
0100
0001
0010
0100
1000
0001
1000
0100
1000
0001
0010
0001
1000
,
0001
0100
0010
1000
0001
0010
0100
0010
0001
1000
0001
0100
0010
1000
0100
0010
,
0100
1000
0100
1000
0001
1000
0010
1000
0001
0010
0100
0010
0001
1000
0001
1000
,
0001
0100
0010
0100
0001
1000
0100
1000
0010
0100
0010
1000
0001
1000
0001
0010
,
0100
1000
0100
1000
0001
1000
0010
1000
0001
0010
0100
0010
0001
1000
0001
1000
,
0001
0100
0010
0100
0001
1000
0100
1000
0010
0100
0001
1000
0010
1000
0001
0010
,
0100
1000
0100
1000
0001
1000
0010
1000
0001
0010
0100
0010
0001
1000
0001
1000
,
0001
0100
0010
0100
0001
1000
0100
1000
0010
0100
0001
1000
0010
1000
0001
0010
,
0100
1000
0100
0010
0001
0100
0010
1000
0001
1000
0010
1000
0001
0100
0001
1000
,
0001
0010
0100
1000
0001
0100
0010
0100
0001
1000
0001
0010
0100
1000
0010
0100
,
0010
1000
0100
1000
0001
1000
0001
0100
0010
1000
0100
1000
0001
1000
0001
0100
,
0010
1000
0100
1000
0001
1000
0001
0100
0010
1000
0100
0010
0001
1000
0001
0010
,
0100
1000
0010
1000
0001
1000
0001
0010
0100
1000
0010
1000
0001
1000
0001
0010
,
0100
1000
0010
1000
0001
1000
0001
0010
0100
1000
0010
0100
0001
1000
0010
0100
,
0010
1000
0100
1000
0001
1000
0010
0100
0010
1000
0100
1000
0001
1000
0010
0100
,
0010
1000
0100
1000
0001
1000
0010
0100
0010
1000
0100
0010
0001
0100
0010
1000
,
0001
0010
0100
0010
0001
1000
0100
1000
0010
0100
0001
0100
0010
1000
0001
0010
,
0100
1000
0001
1000
0100
0010
0001
1000
0010
0100
0010
1000
0001
1000
0001
0010
,
0100
1000
0010
1000
0001
1000
0001
0010
0100
1000
0010
1000
0001
1000
0001
0010
,
0100
1000
0010
1000
0001
1000
0001
0010
0100
1000
0010
0100
0001
1000
0001
0100
,
0010
1000
0100
1000
0001
1000
0001
0100
0010
1000
0100
1000
0001
1000
0001
0100
,
0010
1000
0100
1000
0001
1000
0001
0100
0010
1000
0100
0010
0001
1000
0100
0010
,
0100
1000
0010
1000
0001
1000
0100
0010
0100
1000
0010
1000
0001
1000
0100
0010
,
0100
1000
0010
1000
0001
1000
0100
0010
0100
1000
0010
0100
0001
0010
0100
1000
,
0001
0100
0010
0100
0001
1000
0010
1000
0100
0010
0001
0010
0100
1000
0001
0100
,
0010
1000
0001
1000
0010
0100
0001
1000
0100
0010
0100
0010
0001
1000
0010
1000
,
0001
0100
0010
1000
0000
1000
0000
1000
,
0100
0010
0100
1000
0010
0100
0001
0010
,
0001
1000
0010
0100
0000
0100
0000
0100
,
0001
0010
0001
0100
0010
1000
0100
0010
,
0001
0010
0001
1000
0000
1000
0000
1000
,
0010
0100
0001
1000
0100
0010
0100
1000
,
0001
0100
0001
0010
0000
0010
0000
0010
,
0100
0000
1000
0000
0000
0000
0001
0000
0100
0001
0100
0000
0001
0000
1000
0000
,
1001
0001
1000
0010
0000
0010
0000
0010
,
0100
0001
1000
0100
0010
0100
1000
0010
,
1000
0001
0100
0010
0000
0010
0000
0010
,
1000
0100
1000
0010
0100
0001
0010
0100
,
1000
0010
1000
0001
0000
0001
0000
0001
,
0100
0010
1000
0001
0010
0100
0010
0001
,
1000
0000
0010
0000
1000
0000
0100
0000
1000
0001
0010
0100
0010
0001
1000
0001
,
0100
0010
0100
0001
1000
0010
0100
0001
1000
0100
0010
0100
1000
0001
1000
0001
,
0200
0301
0200
0301
0020
0130
1000
0100
,
1000
0100
0020
0032
2003
3001
0200
0320
,
2030
3002
0023
0130
1000
0100
1000
0100
,
0010
0001
0200
0301
0020
0230
2300
3001
,
0200
0301
0200
0301
0020
0130
1000
0100
,
1000
0001
0200
0301
2000
3100
0020
0032
,
0023
0032
0203
0310
1000
0010
1000
0010
,
0100
0000
0001
0000
1000
0000
0100
0000
0010
0001
0010
0000
0001
0000
1000
0000
,
0020
0130
0020
0130
0002
1003
0100
1000
,
0100
1000
0002
0203
0320
1030
0002
2003
,
3200
0320
0032
0013
0001
0010
0001
0010
,
0100
1000
0020
1030
0200
0320
0032
1003
,
0020
1030
0020
1030
0200
0310
0001
0010
,
0001
1000
0020
1030
0002
0013
0200
2300
,
3002
0000
0203
0000
0320
0000
1030
0000
0001
1000
0010
1000
0001
0010
0100
1000
,
0010
0100
0001
1000
0001
0100
0010
1000
0100
0010
0100
0000
1000
0000
1000
0000
,
2001
3001
2000
3001
0020
0130
1000
0100
,
1000
0100
0020
0032
2003
3001
0200
0320
,
2030
3002
0023
0130
1000
0100
1000
0100
,
0010
0001
0200
0301
0020
0230
2300
3001
,
0200
0301
0200
0301
0020
0130
1000
0100
,
1000
0001
0200
0301
2000
3100
0020
0032
,
0023
0032
0203
0310
1000
0010
1000
0010
,
0100
0000
0001
0000
1000
0000
0100
0000
0010
0001
0010
0000
0001
0000
1000
0000
,
2010
3010
2000
3010
0200
0301
0100
0001
,
0100
0001
2000
3200
0320
0031
2000
3002
,
0203
0320
2030
3010
1000
0010
1000
0010
,
0100
0001
0020
0031
0200
0320
2030
3001
,
0020
0031
0020
0031
0200
0310
1000
0010
,
1000
0001
0020
0031
2000
3010
0200
0302
,
2003
0000
3200
0000
0320
0000
0031
0000
1000
0001
0010
0001
1000
0010
0100
0001
,
0010
0100
1000
0001
1000
0100
0010
0001
0100
0010
0100
0000
0001
0000
0001
0000
,
2000
3000
2000
3000
0200
0000
0000
0000
,
0000
0000
1300
0100
0020
0000
0031
1000
,
0010
0100
0002
0000
0000
0000
0000
0000
,
0000
0000
1003
0000
0001
0100
0020
0000
,
1030
0000
0000
0000
1000
0000
0000
0000
0002
0003
0000
0000
0000
0000
0000
0000
,
0000
0000
0010
0000
0001
0000
0100
0010
,
0100
0010
2000
0000
3000
0000
0000
0010
,
0100
0010
0000
2000
0000
3001
0010
0001
,
0200
0300
0000
0000
,
0000
0000
0000
0000
0000
0000
0000
00M0
0000
0000
0000
00M0
0000
0000
0000
00M0
;

//---------------dance-single - 13+ (SMZaiYLR)----------------
#NOTES:
     dance-single:
     13+ (SMZaiYLR):
     Hard:
     13:
     1.000,1.000,0.283,0.987,0.792,2176.000,95.000,331.000,21.000,0.000:
0000
0000
0000
0000
,
0000
0000
0000
0000
,
0000
0000
0000
0000
,
0000
0000
0000
M000
,
M000
0000
0000
0000
,
0000
0000
0000
0000
,
0000
0000
0000
0000
,
0001
1000
0100
1000
0001
0010
0100
0010
0001
1000
0010
0100
0010
1000
0001
1000
,
0100
0010
0100
1000
0001
0010
0100
1000
0001
0100
0010
1000
0010
0100
0001
1000
,
0010
0100
0001
0000
1000
0001
0100
0000
0010
1000
0001
0000
1000
0001
0010
0000
,
0100
1000
0001
0000
0100
0010
1000
0000
0100
1000
0001
0000
0100
0010
1000
0000
,
0001
0010
0100
0000
1000
0001
0100
0000
0010
1000
0001
0000
1000
0010
0100
0000
,
0001
0010
0100
0000
1000
0001
0100
0000
0001
0100
0010
0000
1000
0001
0010
0000
,
0001
1000
0010
0000
0100
0001
1000
0000
0100
0010
0001
0000
0100
0001
1000
0000
,
0010
0100
0001
0000
1000
0100
0010
0000
0001
1000
0010
0000
0100
0001
1000
0000
,
0100
1000
0100
0000
0010
0001
0010
0000
0001
1000
0001
0000
1000
0001
1000
0000
,
0010
0100
0010
0000
1000
0010
1000
0000
0001
1000
0001
0000
1000
0000
0001
0000
,
M1M0
0001
0100
0000
0010
1000
0001
0000
1000
0010
0100
0000
0001
1000
0100
0000
,
0010
0001
1000
0000
0001
1000
0010
0000
0100
0001
1000
0000
0100
1000
0001
0000
,
0100
0010
1000
0000
0100
0010
0001
0000
1000
0010
0100
0000
0001
0010
0100
0000
,
1000
0001
0100
0000
0010
1000
0001
0000
1000
0010
0100
0000
0001
0010
0100
0000
,
1000
0001
0100
0000
0010
1000
0100
0000
0010
0001
1000
0000
0010
0100
0001
0000
,
1000
0001
0010
0000
0100
1000
0001
0000
1000
0100
0010
0000
0001
1000
0010
0000
,
0100
0001
0100
0000
0010
1000
0010
0000
1000
0001
1000
0000
0001
1000
0001
0000
,
0011
0000
0000
0000
0100
0000
0100
1000
0001
1000
0001
0000
0100
0000
0100
0001
,
20M0
0000
0000
0000
0000
0000
0000
0000
0000
0000
0000
0000
0000
0000
0000
3000
2000
0000
0000
0000
0000
0000
0000
0000
0000
0000
0000
0000
0000
0000
0000
0000
3002
0000
0000
0000
0000
0000
0000
0000
0000
0000
0000
0000
0000
0000
0000
0000
0000
0000
0000
0000
0000
0000
0000
0000
0000
0000
0000
0000
0000
0000
0000
0000
,
0000
0003
0010
0100
2000
0000
3100
0010
,
0001
0100
0020
0000
0000
0000
0000
0000
,
0000
0030
1000
0000
0010
0100
0002
0000
,
1003
0001
2000
0000
3100
0000
0000
0000
,
0000
0000
0010
0000
0100
0000
1000
0100
,
1000
0001
0100
0000
0000
0000
0000
0000
,
0000
0000
0000
0000
0000
0000
0010
0100
,
1M02
0000
0000
0000
0000
0000
0000
0000
0000
0000
0000
0000
0000
0000
0000
0003
0002
0000
0000
0000
0000
0000
0000
0000
0000
0000
0000
0000
0000
0000
0000
0000
2003
0000
0000
0000
0000
0000
0000
0000
0000
0000
0000
0000
0000
0000
0000
0000
0000
0000
0000
0000
0000
0000
0000
0000
0000
0000
0000
0000
0000
0000
0000
0000
,
0000
3000
0100
0010
0002
0000
0013
0100
,
1000
0010
0200
0000
0000
0000
0000
0000
,
0000
0300
0001
0000
0100
0010
2000
0000
,
3001
1000
0002
0000
0013
0000
0000
0000
,
0000
0000
0100
0000
0010
0000
0001
0010
,
0001
1000
0010
0000
0000
0000
0000
0000
,
0000
0000
0000
0000
0000
0000
0100
0010
,
2MM1
3001
2000
3010
0200
0310
1000
0001
,
0010
0001
0200
0320
2030
3001
2000
3020
,
0230
0302
0023
0130
1000
0100
0010
0100
,
1000
0001
0200
0310
2000
3002
0023
0130
,
2000
3001
2000
3100
0020
0031
1000
0001
,
0100
0010
2000
3010
0200
0301
0020
0230
,
0320
0032
2003
3010
0100
0001
1000
0001
,
0100
0010
1000
0001
0010
0100
1000
0001
,
1MM2
1003
0002
0103
0020
0130
0001
1000
,
0100
1000
0020
0230
0302
1003
0002
0203
,
0320
2030
3200
0310
0001
0010
0100
0010
,
0001
1000
0020
0130
0002
2003
3200
0310
,
0002
1003
0002
0013
0200
1300
0001
1000
,
0010
0100
0002
0103
0020
1030
0200
0320
,
0230
2300
3002
0103
0010
1000
0001
1000
,
0010
1000
0001
1000
0010
0100
0001
1000
0010
0100
0010
0000
1000
0000
0010
0000
,
0100
0000
0101
0000
0000
0010
0101
0000
,
1000
0000
0011
0000
0000
1000
0011
0001
,
1000
0010
0100
0001
1000
0000
0100
0010
,
0000
0000
0000
0001
1000
1000
0000
0001
,
0100
0000
1010
0000
0000
0001
1010
0000
,
0100
0000
0101
0000
0000
0100
0101
0001
,
0010
0001
0100
0010
1000
0000
0010
0100
,
0001
0010
0100
1000
0000
0100
0010
0002
,
0000
0000
0000
0000
0000
0000
0000
0000
1000
0000
0000
0000
0000
0000
0000
0000
2000
0000
0000
0000
0000
0000
0000
0000
0000
0000
0000
0000
0000
0000
0000
0000
0000
0000
0000
0000
0000
0000
0000
0000
0000
0000
0000
0000
0000
0000
0000
0000
0000
0000
0000
0000
0000
0000
0000
0000
0000
0000
0000
0000
0000
0000
0000
3000
,
2000
0000
0000
0000
0000
0000
0000
0000
0000
0000
0000
0000
0000
0000
0000
0000
0000
0000
0000
0003
0002
0000
0000
3000
2000
0000
0000
0000
0000
0000
0000
0000
0000
0000
0000
0000
0000
0000
0000
0000
0000
0000
3000
0003
0002
0000
0000
0000
,
0203
0300
0000
0000
0000
0000
0000
0000
0020
0030
0000
0000
2000
3000
0000
0000
0000
0000
0000
0000
0200
0300
0000
0000
0020
0000
0000
0030
0000
0000
0000
0000
0002
0003
0000
0000
2000
0000
0000
0000
0000
0000
0000
0000
0000
3000
0000
0000
,
0001
0100
0010
1000
0001
0010
0100
0000
1000
0001
0000
0000
,
0101
0000
1M1M
11MM
,
1001
0000
0001
1000
0010
0000
0100
0000
0101
0000
0001
0100
0010
0000
1000
0000
,
1001
0000
0001
1000
0100
0000
0010
0000
1001
0000
0001
1000
0010
0000
0100
0000
,
0101
0000
0001
0100
0010
0000
1000
0000
1001
0000
0001
1000
0100
0000
0010
0000
,
0011
0000
0001
1000
0010
0000
0100
0000
1001
0000
0001
0010
0100
0000
1000
0000
,
1001
0000
0001
0100
0010
0000
1000
0000
1001
0000
0001
1000
0010
0000
0100
0000
,
0101
0000
0001
1000
0010
0000
1000
0000
1100
0000
0100
0010
0001
0000
1000
0000
,
2010
3010
0100
0201
0301
1000
0100
1200
,
0310
0000
0001
0000
1002
0000
1003
0000
0001
0100
0001
0100
0010
0000
1000
0000
,
1001
0000
0001
1000
0010
0000
0100
0000
0101
0000
0001
0100
0010
0000
1000
0000
,
1001
0000
0001
1000
0100
0000
0010
0000
1001
0000
0001
1000
0010
0000
0100
0000
,
0101
0000
0001
0100
0010
0000
1000
0000
1001
0000
0001
1000
0100
0000
0010
0000
,
0011
0000
0001
1000
0010
0000
0100
0000
1001
0000
0001
0010
0100
0000
1000
0000
,
1001
0000
0001
0100
0010
0000
1000
0000
1001
0000
0001
1000
0010
0000
0100
0000
,
0101
0000
0001
1000
0010
0000
1000
0000
1100
0000
0100
0010
0001
0000
1000
0000
,
2010
3010
0100
0201
0301
1000
0100
1200
,
0310
0001
0010
0100
1000
0001
1000
0001
0100
0010
1000
0001
1000
0100
0010
0001
,
0200
0000
0000
0000
,
0000
0000
0000
0000
0000
0300
0000
0000
,
0000
0000
0000
0000
,
1000
0000
0100
0000
0100
0000
1000
0000
0001
0000
0001
0000
1000
0100
0010
0001
,
2000
0000
0000
0000
0010
0000
0000
0000
0200
3000
0000
0000
0010
0000
0000
0000
,
2000
0300
0000
0000
0001
0000
0000
0000
0020
3000
0000
0000
0100
0000
0000
0000
,
2000
0030
0000
0000
0100
0000
0000
0000
0002
3000
0000
0000
0010
0000
0000
0000
,
0200
0003
0000
0000
0010
0000
0000
0000
0301
0010
0100
1000
0001
0010
0100
1000
,
0002
0000
0000
0000
0000
0000
0000
0000
0000
0000
0000
0000
0000
0000
0000
0003
0102
0000
0000
0000
0000
0000
0000
0000
0000
0000
0000
0000
0000
0000
0000
0000
0203
0000
0000
0000
0000
0000
0000
0000
0000
0000
0000
0000
0000
0000
0000
0300
0210
0000
0000
0000
0000
0000
0000
0000
0000
0000
0000
0000
0000
0000
0000
0000
,
0320
0000
0000
0000
0000
0000
0000
0000
0000
0000
0000
0000
0000
0000
0000
0030
1020
0000
0000
0000
0000
0000
0000
0000
0000
0000
0000
0000
0000
0000
0000
0000
2030
0000
0000
0000
0000
0000
0000
0000
0000
0000
0000
0000
0000
0000
0000
3000
2100
0000
0000
0000
0000
0000
0000
0000
0000
0000
0000
0000
0000
0000
0000
0000
,
3200
0000
0000
0000
0000
0000
0000
0000
0000
0000
0000
0000
0000
0000
0000
0300
0210
0000
0000
0000
0000
0000
0000
0000
0000
0000
0000
0000
0000
0000
0000
0300
0200
0000
0000
0000
0000
0000
0000
0000
1300
0000
0000
0000
0000
0000
0000
0000
0001
0000
0000
0000
0100
0000
0000
0000
0010
0000
0000
0000
1000
0000
0000
0000
,
0002
0003
2000
3000
0020
0030
0200
0300
0001
1000
0001
0000
1000
0000
0010
0000
,
0110
0000
0100
0001
0100
0000
0010
1000
0010
0000
1000
0001
1000
0000
0100
1000
,
0100
0000
0010
0001
0010
0000
0100
1000
0100
0000
1000
0001
1000
0000
0001
0100
,
0001
0000
1000
0010
1000
0000
0001
1000
0001
0000
0010
0100
0010
0000
0001
0010
,
0001
0000
1000
0001
1000
0000
0001
0100
0001
0000
1000
0010
1000
0000
0100
0010
,
0100
0000
1000
0100
1000
0000
0001
0010
0001
0000
1000
0001
1000
0000
0001
0100
,
0001
0000
1000
0010
1000
0000
0001
1000
0001
0000
1000
0100
1000
0000
0001
0010
,
0001
0000
0100
0001
0100
0000
0010
1000
0010
0000
0100
0001
0100
0000
0001
1000
,
0001
0000
1000
0100
0010
0000
0000
0000
0001
1000
0001
0000
0100
0000
0001
0000
,
1000
0000
0100
0010
0001
0000
1000
0001
0010
0000
0100
1000
0001
0000
0100
0010
,
1000
0000
0100
0010
0001
0000
0010
0100
1000
0000
0001
0100
0010
0000
1000
0001
,
0100
0000
0001
1000
0010
0000
0100
0001
1000
0000
0100
0010
0001
0000
0100
0010
,
1000
0000
0001
0010
0100
0000
1000
0001
0100
0000
0001
1000
0010
0000
0100
0001
,
1000
0000
0100
0010
0001
0000
1000
0001
0100
0000
0010
1000
0001
0000
0010
0001
,
0100
0000
0010
1000
0100
0000
0010
0001
1000
0000
0001
0010
0100
0000
1000
0001
,
0100
0000
0010
1000
0001
0000
1000
0010
0100
0000
0001
1000
0100
0000
0010
0001
,
1000
0000
0001
0100
0010
0000
1000
0001
0010
0100
0010
0000
0001
0000
1000
0000
,
0010
0000
0101
0000
0000
0010
0101
0000
,
1000
0000
0011
0000
0000
1000
0011
0001
,
0100
0010
1000
0001
1000
0000
0100
0010
,
0000
0000
0000
0001
1000
0001
1000
0010
,
0100
0000
1001
0000
0000
0100
1001
0000
,
0100
0000
1010
0000
0000
0001
1010
0010
,
0100
0001
1000
0100
0010
0000
0100
1000
,
0010
0000
0100
0000
0001
0000
1000
0001
1000
0000
0010
0000
0100
0000
0002
0000
,
0000
1003
0200
0000
0000
0000
0000
0000
,
0000
0000
0000
0000
0000
0000
0000
0000
0000
0000
0000
0000
0000
0000
0000
0000
0000
0000
0000
0000
0000
0000
0000
0000
0000
0000
0000
0300
0000
0000
0000
0000
0000
0000
0000
0000
000M
0000
00M0
0000
0M00
0000
M000
0000
0000
0000
0000
0000
,
1001
0000
0001
1000
0010
0000
0100
0000
0101
0000
0001
0100
0010
0000
1000
0000
,
1001
0000
0001
1000
0100
0000
0010
0000
1001
0000
0001
1000
0010
0000
0100
0000
,
0101
0000
0001
0100
0010
0000
1000
0000
1001
0000
0001
1000
0100
0000
0010
0000
,
0011
0000
0001
1000
0010
0000
0100
0000
1001
0000
0001
0010
0100
0000
1000
0000
,
1001
0000
0001
0100
0010
0000
1000
0000
1001
0000
0001
1000
0010
0000
0100
0000
,
0101
0000
0001
1000
0010
0000
1000
0000
1100
0000
0100
0010
0001
0000
1000
0000
,
2010
3010
0100
0201
0301
1000
0100
1200
,
0310
0000
0001
0000
1002
0000
1003
0000
0001
0100
0001
0100
0010
0000
1000
0000
,
1001
0000
0001
1000
0010
0000
0100
0000
0101
0000
0001
0100
0010
0000
1000
0000
,
1001
0000
0001
1000
0100
0000
0010
0000
1001
0000
0001
1000
0010
0000
0100
0000
,
0101
0000
0001
0100
0010
0000
1000
0000
1001
0000
0001
1000
0100
0000
0010
0000
,
0011
0000
0001
1000
0010
0000
0100
0000
1001
0000
0001
0010
0100
0000
1000
0000
,
1001
0000
0001
0100
0010
0000
1000
0000
1001
0000
0001
1000
0010
0000
0100
0000
,
0101
0000
0001
1000
0010
0000
1000
0000
1100
0000
0100
0010
0001
0000
1000
0000
,
2010
3010
0100
0101
0101
0001
1000
1200
,
0310
0001
1000
0001
1000
0001
0100
0010
1000
0010
0100
0001
1000
0100
0010
0001
,
1000
0010
1000
0010
0100
0001
0010
0100
1000
0001
1000
0001
0100
0010
1000
0001
,
0010
0100
0010
0100
1000
0001
0100
0010
1000
0100
1000
0100
0010
0001
1000
0010
,
0100
0001
0100
0001
1000
0010
0100
0001
1000
0001
1000
0001
0010
0100
1000
0001
,
1000
0010
1000
0010
0100
0001
0010
0100
1000
0001
1000
0001
0100
0010
1000
0100
,
0010
0001
0010
0001
1000
0010
0100
0001
1000
0100
1000
0100
0010
0001
1000
0001
,
0100
0010
0100
0010
1000
0001
0100
0010
1000
0001
1000
0001
0010
0100
1000
0010
,
0100
0001
0100
0001
0010
0100
1000
0001
1000
0001
0100
0010
1000
0100
0010
0001
,
0010
0001
1000
0010
0100
0001
0100
0001
1000
0001
0100
0010
1000
0001
0010
0100
,
1000
0010
1000
0010
0100
0001
0010
0100
1000
0001
1000
0001
0100
0010
1000
0001
,
0010
0100
0010
0100
1000
0001
0100
0010
1000
0100
1000
0100
0010
0001
1000
0010
,
0100
0001
0100
0001
1000
0010
0100
0001
1000
0001
1000
0001
0010
0100
1000
0001
,
1000
0010
1000
0010
0100
0001
0010
0100
1000
0001
1000
0001
0100
0010
1000
0100
,
0010
0001
0010
0001
1000
0010
0100
0001
1000
0100
1000
0100
0010
0001
1000
0001
,
0100
0010
0100
0010
1000
0001
0100
0010
1000
0001
1000
0001
0010
0100
1000
0010
,
0100
0001
0100
0001
0010
0100
1000
0001
1000
0001
0100
0010
1000
0100
0010
0001
,
0020
0030
0000
0000
0001
0000
0000
0000
1000
0000
0000
0000
0010
0000
0000
0000
0100
0000
0000
0000
0001
0000
0000
0000
0100
0000
0000
0000
0001
0000
0000
0000
2000
3000
0000
0000
0001
0000
0000
0000
0100
0000
0000
0000
0010
0000
0000
0000
1000
0000
0000
0000
0001
0000
0000
0000
0010
0000
0000
0000
0100
0000
0000
0000
,
2000
3200
2300
3200
0310
0200
1300
0200
,
0320
0032
0203
0320
2030
3020
0230
0302
,
0023
0230
0320
0230
1300
0200
0310
0200
,
2300
3002
0203
0320
2030
3020
0230
0302
,
2003
3200
2300
3200
0310
0200
1300
0200
,
0320
0032
2003
3020
0230
0320
2030
3200
,
0320
0032
0023
0032
1003
0002
0013
0002
,
0203
0320
2030
3200
0320
0230
2300
3020
,
0230
0302
0203
0302
1003
0002
0103
0002
,
2003
3200
0320
0032
0203
0302
0023
0230
,
2300
3002
2003
3002
0103
0002
1003
0002
,
0203
0320
2030
3200
0320
0230
2300
3020
,
0230
0302
0203
0302
1003
0002
0103
0002
,
0023
0230
2300
3002
0203
0302
2003
3200
,
0320
0032
0023
0032
0103
0002
1003
0002
,
1003
0010
0100
0001
1000
0010
0100
0001
0010
0100
1000
0000
0001
0000
1000
0000
,
0010
1000
0100
1000
0001
1000
0001
0100
0010
1000
0100
1000
0001
1000
0001
0100
,
0010
1000
0100
1000
0001
1000
0001
0100
0010
1000
0100
0010
0001
1000
0001
0010
,
0100
1000
0010
1000
0001
1000
0001
0010
0100
1000
0010
1000
0001
1000
0001
0010
,
0100
1000
0010
1000
0001
1000
0001
0010
0100
1000
0010
0100
0001
1000
0010
0100
,
0010
1000
0100
1000
0001
1000
0010
0100
0010
1000
0100
1000
0001
1000
0010
0100
,
0010
1000
0100
1000
0001
1000
0010
0100
0010
1000
0100
0010
0001
0100
0010
1000
,
0001
0010
0100
0010
0001
1000
0100
1000
0010
0100
0001
0100
0010
1000
0001
0010
,
0100
1000
0001
1000
0100
0010
0001
1000
0010
0100
0010
1000
0001
1000
0001
0010
,
0100
1000
0010
1000
0001
1000
0001
0010
0100
1000
0010
1000
0001
1000
0001
0010
,
0100
1000
0010
1000
0001
1000
0001
0010
0100
1000
0010
0100
0001
1000
0001
0100
,
0010
1000
0100
1000
0001
1000
0001
0100
0010
1000
0100
1000
0001
1000
0001
0100
,
0010
1000
0100
1000
0001
1000
0001
0100
0010
1000
0100
0010
0001
1000
0100
0010
,
0100
1000
0010
1000
0001
1000
0100
0010
0100
1000
0010
1000
0001
1000
0100
0010
,
0100
1000
0010
1000
0001
1000
0100
0010
0100
1000
0010
0100
0001
0010
0100
1000
,
0001
0100
0010
0100
0001
1000
0010
1000
0100
0010
0001
0010
0100
1000
0001
0100
,
0010
1000
0001
1000
0010
0100
0001
1000
0100
0010
0100
0010
0001
1000
0010
1000
,
0001
0010
0100
1000
0000
1000
0000
1000
,
0010
0100
0010
1000
0100
0010
0001
0100
,
0001
1000
0100
0010
0000
0010
0000
0010
,
0001
0100
0001
0010
0100
1000
0010
0100
,
0001
0100
0001
1000
0000
1000
0000
1000
,
0100
0010
0001
1000
0010
0100
0010
1000
,
0001
0010
0001
0100
0000
0100
0000
0100
,
0010
0000
1000
0000
0000
0000
0001
0000
0010
0001
0010
0000
0001
0000
1000
0000
,
1001
0001
1000
0100
0000
0100
0000
0100
,
0010
0001
1000
0010
0100
0010
1000
0100
,
1000
0001
0010
0100
0000
0100
0000
0100
,
1000
0010
1000
0100
0010
0001
0100
0010
,
1000
0100
1000
0001
0000
0001
0000
0001
,
0010
0100
1000
0001
0100
0010
0100
0001
,
1000
0000
0100
0000
1000
0000
0010
0000
1000
0001
0100
0010
0100
0001
1000
0001
,
0010
0100
0010
0001
1000
0100
0010
0001
1000
0010
0100
0010
1000
0001
1000
0001
,
0200
0301
0200
0301
0020
0130
1000
0100
,
1000
0100
0020
0032
2003
3001
0200
0320
,
2030
3002
0023
0130
1000
0100
1000
0100
,
0010
0001
0200
0301
0020
0230
2300
3001
,
0200
0301
0200
0301
0020
0130
1000
0100
,
1000
0001
0200
0301
2000
3100
0020
0032
,
0023
0032
0203
0310
1000
0010
1000
0010
,
0100
0000
0001
0000
1000
0000
0100
0000
0010
0001
0010
0000
0001
0000
1000
0000
,
0020
0130
0020
0130
0002
1003
0100
1000
,
0100
1000
0002
0203
0320
1030
0002
2003
,
3200
0320
0032
0013
0001
0010
0001
0010
,
0100
1000
0020
1030
0200
0320
0032
1003
,
0020
1030
0020
1030
0200
0310
0001
0010
,
0001
1000
0020
1030
0002
0013
0200
2300
,
3002
0000
0203
0000
0320
0000
1030
0000
0001
1000
0010
1000
0001
0010
0100
1000
,
0010
0100
0001
1000
0001
0100
0010
1000
0100
0010
0100
0000
1000
0000
1000
0000
,
2001
3001
2000
3001
0020
0130
1000
0100
,
1000
0100
0020
0032
2003
3001
0200
0320
,
2030
3002
0023
0130
1000
0100
1000
0100
,
0010
0001
0200
0301
0020
0230
2300
3001
,
0200
0301
0200
0301
0020
0130
1000
0100
,
1000
0001
0200
0301
2000
3100
0020
0032
,
0023
0032
0203
0310
1000
0010
1000
0010
,
0100
0000
0001
0000
1000
0000
0100
0000
0010
0001
0010
0000
0001
0000
1000
0000
,
2010
3010
2000
3010
0200
0301
0100
0001
,
0100
0001
2000
3200
0320
0031
2000
3002
,
0203
0320
2030
3010
1000
0010
1000
0010
,
0100
0001
0020
0031
0200
0320
2030
3001
,
0020
0031
0020
0031
0200
0310
1000
0010
,
1000
0001
0020
0031
2000
3010
0200
0302
,
2003
0000
3200
0000
0320
0000
0031
0000
1000
0001
0010
0001
1000
0010
0100
0001
,
0010
0100
1000
0001
1000
0100
0010
0001
0100
0010
0100
0000
0001
0000
0001
0000
,
2000
3000
2000
3000
0200
0000
0000
0000
,
0000
0000
1300
0100
0020
0000
0031
1000
,
0010
0100
0002
0000
0000
0000
0000
0000
,
0000
0000
1003
0000
0001
0100
0020
0000
,
1030
0000
0000
0000
1000
0000
0000
0000
0002
0003
0000
0000
0000
0000
0000
0000
,
0000
0000
0010
0000
0001
0000
0100
0010
,
0100
0010
2000
0000
3000
0000
0000
0010
,
0100
0010
0000
2000
0000
3001
0010
0001
,
0200
0300
0000
0000
,
0000
0000
0000
0000
0000
00M0
0000
0000
0000
00M0
0000
0000
0000
0M00
0000
0000
;
