#TITLE:Dimelo;
#SUBTITLE:;
#ARTIST:Enrique Iglesias;
#TITLETRANSLIT:;
#SUBTITLETRANSLIT:;
#ARTISTTRANSLIT:;
#CREDIT:;
#BANNER:dimelo.png;
#BACKGROUND:dimeloBG.png;
#LYRICSPATH:;
#CDTITLE:;
#MUSIC:Dimelo.ogg;
#OFFSET:0.120;
#SAMPLESTART:2.940;
#SAMPLELENGTH:15.000;
#SELECTABLE:YES;
#BPMS:0.000=115.000;
#STOPS:;
#BGCHANGES:;
// cache tags:
#FIRSTBEAT:6.000;
#LASTBEAT:245.750;
#SONGFILENAME:Songs/Rodd's Revival/Dimelo (Rodd Steps)/Dimelo (Rodd Steps).sm;
#HASMUSIC:1;
#HASBANNER:1;
#MUSICLENGTH:128.245;
// end cache tags

//---------------dance-single - R. Farias----------------
#NOTES:
     dance-single:
     R. Farias:
     Challenge:
     9:
     0.636,0.671,0.047,0.600,0.382,488.000,6.000,77.000,0.000,0.000:

0000
0000
0000
0000
,
0000
0000
0000
0000
0000
0000
0000
0000
0001
0100
0001
0000
0100
0000
0020
0000
,
0000
2030
0000
0000
3200
0000
0310
0002
,
0000
2003
0000
3001
0200
0000
0310
0100
,
0001
0000
2000
0000
0000
0000
3100
0000
0010
0000
0001
0000
0100
0010
1000
0000
,
0100
0010
0001
0000
0100
0010
0100
0000
0010
1000
0010
0000
1000
0000
0200
0000
,
0000
0320
0000
0000
0032
0000
0103
0020
,
0000
2030
0000
3100
0020
0000
0130
1000
,
0001
0000
0200
0000
0000
0000
0310
0000
0100
0000
0001
0000
1000
0100
0010
0000
,
0010
0001
0100
0000
0100
0010
1000
0000
1000
0001
0100
0010
1000
0001
0100
0000
,
0010
0200
0000
0001
0301
0002
0000
1003
,
0100
0001
0100
0010
0001
0200
0000
0000
,
0320
0000
0000
0000
1030
0001
1000
0000
0001
0000
0100
0000
0010
0000
1000
0010
,
2000
0000
0000
0000
3100
0000
0010
0100
0020
0000
0000
0000
0032
0000
0003
0000
,
0201
0000
0310
0010
1000
0100
0001
0100
,
0010
0001
0100
0010
1000
0002
0000
0103
,
0020
0000
0030
0000
0100
0010
0100
0000
0010
0000
1000
0000
0100
0000
0001
0000
,
0200
0000
0000
0000
0310
0000
0001
0000
0100
0000
0010
0000
1000
0100
0010
0001
,
0010
0100
1000
0001
0100
0000
0010
0000
0100
0000
0001
0000
1000
0000
0100
0000
,
0010
0001
0000
0000
0100
0000
0000
0000
0010
0000
1000
0000
0100
0010
0001
0010
,
0100
1000
0001
0100
0010
0100
0001
1000
0001
0100
0010
0000
1000
0000
0100
1000
,
0200
0000
0000
0000
0310
0000
0100
0010
0200
0000
0000
0000
0310
0000
0001
0000
,
0100
0000
0010
1000
0001
0100
0010
0000
1000
0000
0010
0000
0100
0000
0001
0000
,
2000
0000
0000
0000
0100
0000
3100
0000
0010
0001
0100
0010
0100
0001
1000
0100
,
0010
0000
0100
0000
1000
0000
0001
0000
0200
0000
0000
0300
0200
0000
0000
0300
,
0200
0000
0000
0000
0310
0000
0010
0000
1000
0001
1000
0000
0100
0000
0020
0000
,
0000
0032
0000
0000
0203
0000
0310
2000
,
0000
3200
0000
0310
0200
0000
1300
0001
,
0100
0000
0020
0000
0000
0000
0130
0000
0001
0000
1000
0000
0100
0010
0001
0000
,
0001
0010
0100
0000
0100
1000
0010
0000
0010
0100
0001
0000
1000
0000
0200
0000
,
0000
0320
0000
0000
0032
0000
0103
0020
,
0000
2030
0000
3100
0020
0000
0130
1000
,
0001
0000
0200
0000
0000
0000
0310
0000
1000
0000
1000
0000
0100
0010
0001
0000
,
0100
0010
0100
0000
0010
1000
0100
0000
0010
0001
0010
0000
0001
0100
0010
0000
,
0010
0000
1000
0000
0100
0010
0001
0000
0001
0000
0100
0000
0010
1000
0100
0000
,
0100
0000
0010
0000
0001
1000
0001
0000
0001
0000
0100
0010
1000
0100
0010
0000
,
0100
1000
0000
0001
0100
0000
0010
0100
0000
0100
0001
0000
1000
0000
0100
0000
,
0010
0000
0100
0000
1000
0000
0001
0000
0100
0000
0110
0000
0010
0100
0010
0000
,
1000
0100
0000
0010
0001
0000
0101
0000
0100
0000
0010
0000
1000
0100
0010
0000
,
0001
0100
0000
0010
1000
0000
1100
0000
0100
0000
0010
0000
0001
0010
0001
0000
,
0100
0010
0000
1000
0100
0000
0110
0000
0010
0001
1000
0000
0001
0000
0100
0001
,
0100
0000
0000
0000
0010
0000
1000
0010
2000
0000
0000
0000
3100
0000
0010
0000
,
0001
0000
0100
0001
0100
0010
0100
0001
1000
0000
0200
0000
0000
0000
0310
0000
,
0002
0000
0000
0000
0103
0000
0100
0000
0010
0100
0010
0000
0100
0000
0001
0000
,
1000
0100
0010
0100
1000
0002
0000
0103
,
0200
0000
0000
0000
0310
0000
0010
0000
1000
0001
1000
0100
0010
0001
0010
0100
,
1000
0001
0200
0000
0000
0000
2300
0000
0000
0000
3200
0000
0000
0000
0320
0000
,
0000
0000
1030
0000
0100
0000
0020
0000
0000
0000
0031
0000
0100
0000
0010
1000
,
0100
0010
0001
0010
0100
1000
0001
0100
0010
0100
0010
0000
0100
0000
0001
1000
,
0002
0000
0000
0000
1003
0000
0100
1000
0100
0010
0001
0100
0001
0100
0010
0100
,
0010
0000
1000
0010
1000
0010
1000
0000
0100
0000
0020
0000
0000
0000
0031
0000
,
0200
0000
0300
0000
0210
0000
0310
0000
1000
0100
0010
0000
0001
0000
0100
0000
,
1000
0000
0100
0000
0010
0000
1000
0000
0100
0000
0020
0000
0000
0030
0020
0000
,
0000
0030
0020
0000
0000
0000
0030
0000
0001
0010
0001
0000
0100
0000
0020
0000
,
0000
2030
0000
0000
3200
0000
0301
0200
,
0000
0320
0000
0031
0200
0000
0310
1000
,
0100
0000
0020
0000
0000
0000
0130
0000
1000
0000
0001
0000
0100
0010
1000
0000
,
0100
0010
0001
0000
0100
0010
1000
0000
0100
0010
0100
0000
0010
0000
0002
0000
,
0000
2003
0000
3001
0200
0000
0310
2000
,
0000
3200
0000
0310
0002
0000
0103
0010
,
0100
0000
0002
0000
0000
0000
1003
0000
0100
0000
0010
0000
0001
0100
0010
0000
,
0010
1000
0100
0000
0100
0010
0002
0003
0000
0000
0000
0000
0000
0000
0000
0000
;
