#TITLE:Entangle Night;
#SUBTITLE:;
#ARTIST:DJ Sharpnel;
#TITLETRANSLIT:;
#SUBTITLETRANSLIT:;
#ARTISTTRANSLIT:;
#CREDIT:T. Moore;
#BANNER:entangle bn.png;
#BACKGROUND:entangle bg.png;
#LYRICSPATH:;
#CDTITLE:;
#MUSIC:Entangle Night.ogg;
#OFFSET:-0.384;
#SAMPLESTART:138.726;
#SAMPLELENGTH:21.333;
#SELECTABLE:YES;
#DISPLAYBPM:180.000;
#BPMS:0.000=180.000,256.000=90.000,304.000=180.000,688.000=90.000;
#STOPS:;
#BGCHANGES:;
// cache tags:
#FIRSTBEAT:10.000;
#LASTBEAT:701.500;
#SONGFILENAME:Songs/SHARPNELSTREAMZ v2/Entangle Night/Entangle Night.sm;
#HASMUSIC:1;
#HASBANNER:1;
#MUSICLENGTH:257.724;
// end cache tags

//---------------dance-single - 16- (TYLR)----------------
#NOTES:
     dance-single:
     16- (TYLR):
     Hard:
     16:
     1.000,1.000,0.035,0.493,1.000,2080.000,9.000,127.000,33.000,0.000:
0000
0000
0000
0000
,
0000
0000
0000
0000
,
0000
0000
00M0
0000
,
0000
0000
0000
0000
,
2000
3M00
0000
0000
,
0000
0000
0000
0000
0000
0000
0000
000M
,
0000
0000
0000
0000
,
0000
0000
0000
0000
,
1002
1003
0010
0100
,
0001
1000
0100
1000
,
0001
0010
0100
1000
,
0001
0000
0000
0000
0000
0000
0000
0000
0000
0000
0000
0000
0100
0000
0000
0000
0000
0000
0000
0000
0000
0000
0000
0000
0010
0000
0000
0000
0000
0000
1000
0000
0000
0001
0000
0000
1000
0000
0100
0000
1000
0000
0100
0000
1000
0000
0100
0000
,
1000
0001
0100
0010
,
1000
0001
0010
0100
,
1000
0001
0100
0010
,
4000
0004
0000
0000
0000
0000
0000
0000
0000
0000
0000
0000
0000
0000
0000
3000
,
0013
0100
1000
0001
0100
0000
0001
0000
0010
0100
1000
0000
0001
0100
0000
0100
,
0010
1000
0100
1000
0001
0000
0100
0000
0010
1000
0001
0000
0010
0100
0000
0100
,
1000
0010
0100
0001
1000
0000
0100
0000
0010
0001
1000
0000
0010
0100
0000
0100
,
0001
0000
0000
0010
0000
0000
0100
0000
0000
1000
0000
0000
0001
0000
0000
0000
0000
0000
0100
0000
0000
0000
0000
0000
0010
0000
0000
1000
0000
0000
0100
0000
0000
0010
0000
0000
0001
0000
1000
0000
0001
0000
1000
0000
0001
0000
1000
0000
,
0001
0010
0100
1000
0001
0000
0100
0000
0010
1000
0001
0000
0010
0100
0000
0100
,
1000
0001
0100
0010
1000
0000
0001
0000
0010
0100
1000
0000
0001
0100
0000
0100
,
0010
1000
0001
1000
0010
0000
0100
0000
0001
1000
0100
0000
0010
0001
0000
0001
,
1000
0000
0000
0010
0000
0000
0100
0000
0000
0001
0000
0000
1000
0000
0000
0000
0000
0000
0100
0000
0000
0000
0000
0000
1000
0000
0000
0000
0000
0000
0010
0000
0000
0100
0000
0000
0001
0000
0100
0000
0001
0000
0100
0000
0001
0000
0100
0000
,
0001
1000
0010
1000
0001
0000
0100
0000
0001
1000
0001
0000
0010
0100
0000
0100
,
1000
0001
0100
0001
1000
0000
0100
0000
0010
0001
0010
0000
0100
1000
0000
1000
,
0001
0100
0010
0100
0001
0000
1000
0000
0100
0010
M001
M000
M100
M001
M000
M001
,
M010
0000
0000
0000
0000
0000
0000
0000
0000
0000
0000
0000
M100
0000
0000
0000
0000
0000
0000
0000
0000
0000
0000
0000
M010
0000
0000
0000
0000
0000
0000
0000
0000
0000
0000
0000
M001
0000
0000
0000
0000
0000
0000
0000
0000
0000
0000
0000
M100
0000
0000
0000
0000
0000
0000
0000
0000
0000
0000
0000
0000
0000
0000
M000
0000
0000
0000
0000
0000
0000
0000
0000
0001
0000
0000
0000
0000
0000
M000
0000
0000
0000
0000
0000
0000
0000
0000
0000
0000
0000
0000
0000
0000
M000
0000
0000
0100
0000
0000
0000
0000
0000
0000
0000
0000
0000
0000
0000
0000
0000
0000
M000
0000
0000
0000
0000
0000
0000
0000
0000
0010
0000
0000
0000
0000
0000
0000
0000
0000
M000
0000
0000
0100
0000
0000
0000
0000
0000
0000
0000
0000
0000
0000
0000
0001
0000
0000
0000
0000
0000
M000
0000
0100
0000
0000
0000
0000
0000
0000
0000
0001
0000
0000
0000
0000
0000
0000
0000
0100
0000
0000
0000
0000
0000
M000
0000
0001
0000
0000
0000
0000
0000
0000
0000
0100
0000
0000
0000
0000
0000
0000
0000
,
00M1
0100
0010
1000
0001
0000
1000
0000
0010
0100
0001
0000
1000
0001
0000
0001
,
0010
0100
1000
0001
0010
0000
0001
0000
1000
0001
1000
0000
0001
0100
0000
0100
,
0010
1000
0001
1000
0010
0000
0100
0000
0001
1000
0001
0000
1000
0001
0000
0001
,
0400
0040
0000
0000
0000
0000
0000
0000
0000
0000
0000
0000
0000
0000
0000
0300
,
1030
0001
0100
0010
1000
0001
0100
0010
1000
0010
0100
0001
1000
0100
0010
0000
,
0002
0000
0013
0100
1000
0001
0010
0001
1000
0001
0100
0010
1000
0001
0100
0000
,
0002
0000
1003
0100
0010
0001
1000
0001
0010
0100
1000
0001
0100
0010
1000
0000
,
0020
0000
0000
0000
0000
0000
0130
0000
0000
0001
0000
0000
1000
0000
0000
0001
0000
0000
0100
0000
0000
0010
0000
0000
1000
0000
0000
0001
0000
0000
1000
0000
0000
0100
0000
0000
0010
0000
0000
0001
0000
0000
1000
0000
0001
0000
1000
0000
,
0002
0000
1003
0001
0010
0001
1000
0100
0010
0100
1000
0001
1000
0001
0100
0000
,
0020
0000
0130
0001
1000
0001
0010
0100
1000
0001
1000
0100
0010
0001
1000
0000
,
0002
0000
0103
0010
1000
0010
0100
0001
1000
0100
0010
0001
1000
0001
0010
0000
,
0200
0000
0000
0000
0000
0000
0310
0000
0000
0001
0000
0000
1000
0000
0000
0001
0000
0000
0010
0000
0000
0001
0000
0000
1000
0000
0000
0010
0000
0000
0100
0000
0000
0001
0000
0000
1000
0000
0000
0001
0000
0000
1000
0000
0001
0000
1000
0000
,
0002
0000
0013
0001
1000
0100
0010
0100
1000
0001
0010
0001
1000
0010
0100
0000
,
0002
0000
0103
0010
1000
0001
1000
0010
0100
0001
0010
0100
1000
0001
0010
0000
,
0200
0000
0310
0001
1000
0001
0100
0010
1000
0010
0100
0001
1000
0100
0010
0000
,
0002
0000
0000
0000
0000
0000
0013
0000
0000
0100
0000
0000
1000
0000
0000
0001
0000
0000
1000
0000
0000
0100
0000
0000
0010
0000
0000
0001
0000
0000
1000
0000
0000
0010
0000
0000
0100
0000
0000
0001
0000
0000
1000
0000
0001
0000
1000
0000
,
0002
0000
0013
0001
1000
0100
0010
0100
1000
0001
0100
0010
1000
0001
1000
0000
,
0020
0000
1030
0001
0100
0001
1000
0010
1000
0001
0010
0100
1000
0001
0010
0000
,
0002
0000
1003
0001
0100
0010
1000
0001
1000
0010
0100
0001
0010
0100
1000
0000
,
0002
0000
4003
0004
0000
0000
0000
0000
0000
0000
0000
0000
0000
0000
3000
0000
,
0203
0000
0301
1000
0100
1000
0001
0010
0100
1000
0001
1000
0100
0010
0001
0000
,
2000
0000
3001
0010
0001
0100
0010
1000
0001
1000
0010
0100
0001
1000
0001
0000
,
2000
0000
3100
1000
0001
0100
0010
1000
0001
1000
0010
0100
0001
1000
0100
0000
,
0020
0000
0000
0000
0000
0000
0130
0000
0000
1000
0000
0000
0001
0000
0000
1000
0000
0000
0100
0000
0000
0010
0000
0000
0001
0000
0000
1000
0000
0000
0001
0000
0000
0100
0000
0000
0010
0000
0000
1000
0000
0000
0001
0000
1000
0000
0001
0000
,
2000
0000
3001
1000
0010
0100
0001
0100
0010
1000
0001
1000
0100
0010
0001
0000
,
0200
0000
0301
0010
0100
1000
0001
1000
0100
0010
0001
1000
0010
0100
0001
0000
,
2000
0000
3001
0100
0010
1000
0001
0010
0100
1000
0010
0100
0001
0010
0100
0000
,
2000
0000
0000
0000
0000
0000
3100
0000
0000
0010
0000
0000
0001
0000
0000
1000
0000
0000
0010
0000
0000
0100
0000
0000
0001
0000
0000
0010
0000
0000
0100
0000
0000
0010
0000
0000
0001
0000
0000
1000
0000
0000
0001
0000
1000
0000
0001
0000
,
2000
0000
3001
0010
0001
1000
0010
0100
0001
1000
0010
1000
0100
0010
0001
0000
,
2000
0000
3001
0010
0100
1000
0010
0100
0001
0100
0010
1000
0001
0010
0100
0000
,
2000
0000
3100
0010
0001
1000
0010
0100
0001
0010
0100
1000
0001
0100
0010
0000
,
0200
0000
0000
0000
0000
0000
0301
0000
0000
0010
0000
0000
0100
0000
0000
1000
0000
0000
0001
0000
0000
0100
0000
0000
0001
0000
0000
0010
0000
0000
0100
0000
0000
1000
0000
0000
0010
0000
0000
0100
0000
0000
0001
0000
1000
0000
0001
0000
,
2000
0000
3001
0010
0001
1000
0010
0100
0001
0010
0100
1000
0001
0100
0010
0000
,
0200
0000
0301
1000
0100
0010
0001
0100
0001
1000
0100
0010
0001
1000
0010
0000
,
0200
0000
0310
1000
0001
0010
0100
1000
0001
1000
0100
0010
0001
1000
0010
0000
,
0200
0000
0310
1000
0004
4000
0000
0000
0000
0000
0000
0000
0000
0000
0000
0003
,
3020
0000
0130
0001
0000
1000
0000
2000
0000
0000
0000
0000
0000
0000
0000
0000
,
3001
0000
0000
0010
0002
0000
1003
2000
,
0000
0000
3010
0100
0000
0001
2000
0000
0000
0000
0000
0000
3000
0000
0100
0000
,
0020
0000
0031
2000
0000
3002
0000
0013
,
0200
0000
1300
0001
0000
1000
0000
2000
0000
0000
0000
0000
0000
0000
0000
0000
,
3010
0000
0000
0100
0002
0000
1003
2000
,
0000
0000
3100
0010
0000
0001
0000
0002
0000
0000
0000
0000
0000
0000
0000
0000
,
0003
0000
0010
0001
0100
0010
1000
0001
,
0021
0000
0000
0000
0000
0000
0001
0032
0000
0000
0000
0000
0003
0000
1000
0000
,
0010
0000
0100
0001
0000
0010
0200
0000
0000
0000
0000
0000
1300
0000
0020
0000
,
0000
0000
0000
0000
,
0030
0000
0000
0000
2000
0000
3010
1000
,
0100
0010
0001
1000
0010
0100
0001
1000
0100
1000
0010
0100
0001
1000
0010
1000
,
0001
0010
0100
1000
0010
1000
0001
0010
0100
1000
0010
1000
0001
1000
0010
1000
,
0100
0010
0001
0100
0010
0100
0001
1000
0100
1000
0010
1000
0001
1000
0010
1000
,
0100
0000
0000
0010
0000
0000
0001
0000
0000
1000
0000
0000
0010
0000
0000
1000
0000
0000
0001
0000
0000
1000
0000
0000
0100
0000
0000
1000
0000
0000
0010
0000
0000
0100
0000
0000
0001
0000
1000
0000
0001
0000
1000
0000
0001
0000
1000
0000
,
0100
0010
0001
1000
0010
0100
0001
1000
0100
1000
0010
0100
0001
1000
0010
1000
,
0001
0010
0100
1000
0010
1000
0001
0010
0100
1000
0010
1000
0001
1000
0010
1000
,
0100
0010
0001
0100
0010
0100
0001
1000
0100
1000
0010
1000
0001
1000
0010
1000
,
0100
0000
0000
0010
0000
0000
0001
0000
0000
1000
0000
0000
0010
0000
0000
1000
0000
0000
0001
0000
0000
1000
0000
0000
0100
0000
0000
1000
0000
0000
0010
0000
0000
0100
0000
0000
0001
0000
1000
0000
0001
0000
1000
0000
0001
0000
1000
0000
,
0100
0010
0001
1000
0010
0100
0001
1000
0100
1000
0010
0100
0001
1000
0010
1000
,
0001
0010
0100
1000
0010
1000
0001
0010
0100
1000
0010
1000
0001
1000
0010
1000
,
0100
0010
0001
0100
0010
0100
0001
1000
0100
1000
0010
1000
0001
1000
0010
1000
,
0100
0000
0000
0010
0000
0000
0001
0000
0000
1000
0000
0000
0010
0000
0000
1000
0000
0000
0001
0000
0000
1000
0000
0000
0100
0000
0000
1000
0000
0000
0010
0000
0000
0100
0000
0000
0001
0000
1000
0000
0001
0000
1000
0000
0001
0000
1000
0000
,
0100
0010
0001
1000
0010
0100
0001
1000
0100
1000
0010
0100
0001
1000
0010
1000
,
0001
0010
0100
1000
0010
1000
0001
0010
0100
1000
0010
1000
0001
1000
0010
1000
,
0100
0010
0001
0100
0010
0100
0001
1000
0100
0010
0100
0010
0001
0010
0001
0010
,
0002
0000
0000
0003
0000
0000
0000
0000
0000
0000
0000
0000
0200
0000
0000
0300
0000
0000
0000
0000
0000
0000
0000
0000
0002
0000
0000
0003
0000
0000
0000
0000
0000
0000
0000
0000
0200
0000
0000
0300
0000
0000
0000
0000
0000
0000
0000
0000
0020
0000
0000
0000
0030
0000
0000
0000
0000
0000
0000
0000
2000
0000
0000
0000
3000
0000
0000
0000
0000
0000
0000
0000
0020
0000
0000
0000
0030
0000
0000
0000
0000
0000
0000
0000
2000
0000
0000
0000
3000
0000
0000
0000
0000
0000
0000
0000
0002
0000
0000
0000
0000
0000
0003
0000
0000
0000
0000
0000
2000
0000
0000
0000
0000
0000
3000
0000
0000
0000
0000
0000
0002
0000
0000
0000
0000
0000
0003
0000
0000
0000
0000
0000
2000
0000
0000
0000
0000
0000
3000
0000
0000
0000
0000
0000
0020
0000
0000
0000
0000
0000
0000
0000
0030
0000
0000
0000
2000
0000
0000
0000
0000
0000
0000
0000
3000
0000
0000
0000
0020
0000
0000
0000
0000
0000
0000
0000
0030
0000
0000
0000
2000
0000
0000
0000
0000
0000
0000
0000
3000
0000
0000
0000
,
0100
0010
0001
1000
0010
0100
0001
1000
0100
1000
0010
0100
0001
1000
0010
1000
,
0001
0010
0100
1000
0010
1000
0001
0010
0100
1000
0010
1000
0001
1000
0010
1000
,
0100
0010
0001
0100
0010
0100
0001
1000
0100
1000
0010
1000
0001
1000
0010
1000
,
0100
0000
0000
0010
0000
0000
0001
0000
0000
1000
0000
0000
0010
0000
0000
1000
0000
0000
0001
0000
0000
1000
0000
0000
0100
0000
0000
1000
0000
0000
0010
0000
0000
0100
0000
0000
0001
0000
1000
0000
0001
0000
1000
0000
0001
0000
1000
0000
,
0100
0010
0001
1000
0010
0100
0001
1000
0100
1000
0010
0100
0001
1000
0010
1000
,
0001
0010
0100
1000
0010
1000
0001
0010
0100
1000
0010
1000
0001
1000
0010
1000
,
0100
0010
0001
0100
0010
0100
0001
1000
0100
1000
0010
1000
0001
1000
0010
1000
,
0100
0000
0000
0010
0000
0000
0001
0000
0000
1000
0000
0000
0010
0000
0000
1000
0000
0000
0001
0000
0000
1000
0000
0000
0100
0000
0000
1000
0000
0000
0010
0000
0000
0100
0000
0000
0001
0000
1000
0000
0001
0000
1000
0000
0001
0000
1000
0000
,
0100
0010
0001
1000
0010
0100
0001
1000
0100
1000
0010
0100
0001
1000
0010
1000
,
0001
0010
0100
1000
0010
1000
0001
0010
0100
1000
0010
1000
0001
1000
0010
1000
,
0100
0010
0001
0100
0010
0100
0001
1000
0100
1000
0010
1000
0001
1000
0010
1000
,
0100
0000
0000
0010
0000
0000
0001
0000
0000
1000
0000
0000
0010
0000
0000
1000
0000
0000
0001
0000
0000
1000
0000
0000
0100
0000
0000
1000
0000
0000
0010
0000
0000
0100
0000
0000
0001
0000
1000
0000
0001
0000
1000
0000
0001
0000
1000
0000
,
0100
0010
0001
1000
0010
0100
0001
1000
0100
1000
0010
0100
0001
1000
0010
1000
,
0001
0010
0100
1000
0010
1000
0001
0010
0100
1000
0010
1000
0001
1000
0010
1000
,
0100
0010
0001
0100
0010
0100
0001
1000
0100
1000
0100
1000
0001
1000
0001
1000
,
0002
0000
0000
0003
0000
0000
0000
0000
0000
0000
0000
0000
0200
0000
0000
0300
0000
0000
0000
0000
0000
0000
0000
0000
0002
0000
0000
0003
0000
0000
0000
0000
0000
0000
0000
0000
0200
0000
0000
0300
0000
0000
0000
0000
0000
0000
0000
0000
0020
0000
0000
0000
0030
0000
0000
0000
0000
0000
0000
0000
2000
0000
0000
0000
3000
0000
0000
0000
0000
0000
0000
0000
0020
0000
0000
0000
0030
0000
0000
0000
0000
0000
0000
0000
2000
0000
0000
0000
3000
0000
0000
0000
0000
0000
0000
0000
0002
0000
0000
0000
0000
0000
0003
0000
0000
0000
0000
0000
2000
0000
0000
0000
0000
0000
3000
0000
0000
0000
0000
0000
0002
0000
0000
0000
0000
0000
0003
0000
0000
0000
0000
0000
2000
0000
0000
0000
0000
0000
3000
0000
0000
0000
0000
0000
0200
0000
0000
0000
0000
0000
0000
0000
0300
0000
0000
0000
0020
0000
0000
0000
0000
0000
0000
0000
0030
0000
0000
0000
0200
0000
0000
0000
0000
0000
0000
0000
0300
0000
0000
0000
0020
0000
0000
0000
0000
0000
0000
0000
0030
0000
0000
0000
,
0001
1000
0001
1000
0100
0010
0001
1000
0010
1000
0100
0010
0001
1000
0100
1000
,
0001
0100
0010
1000
0100
1000
0001
0100
0010
1000
0100
1000
0001
1000
0100
1000
,
0010
0100
0001
0010
0100
0010
0001
1000
0010
1000
0100
1000
0001
1000
0100
1000
,
0010
0000
0000
0100
0000
0000
0001
0000
0000
1000
0000
0000
0100
0000
0000
1000
0000
0000
0001
0000
0000
1000
0000
0000
0010
0000
0000
1000
0000
0000
0100
0000
0000
0010
0000
0000
0001
0000
1000
0000
0001
0000
1000
0000
0001
0000
1000
0000
,
0010
0100
0001
1000
0100
0010
0001
1000
0010
1000
0100
0010
0001
1000
0100
1000
,
0001
0100
0010
1000
0100
1000
0001
0100
0010
1000
0100
1000
0001
1000
0100
1000
,
0010
0100
0001
0010
0100
0010
0001
1000
0010
1000
0100
1000
0001
1000
0100
1000
,
0010
0000
0000
0100
0000
0000
0001
0000
0000
1000
0000
0000
0100
0000
0000
1000
0000
0000
0001
0000
0000
1000
0000
0000
0010
0000
0000
1000
0000
0000
0100
0000
0000
0010
0000
0000
0001
0000
1000
0000
0001
0000
1000
0000
0001
0000
1000
0000
,
0010
0100
0001
1000
0100
0010
0001
1000
0010
1000
0100
0010
0001
1000
0100
1000
,
0001
0100
0010
1000
0100
1000
0001
0100
0010
1000
0100
1000
0001
1000
0100
1000
,
0010
0100
0001
0010
0100
0010
0001
1000
0010
1000
0100
1000
0001
1000
0100
1000
,
0010
0000
0000
0100
0000
0000
0001
0000
0000
1000
0000
0000
0100
0000
0000
1000
0000
0000
0001
0000
0000
1000
0000
0000
0010
0000
0000
1000
0000
0000
0100
0000
0000
0010
0000
0000
0001
0000
1000
0000
0001
0000
1000
0000
0001
0000
1000
0000
,
0010
0100
0001
1000
0100
0010
0001
1000
0010
1000
0100
0010
0001
1000
0100
1000
,
0001
0100
0010
1000
0100
1000
0001
0100
0010
1000
0100
1000
0001
1000
0100
1000
,
0010
0100
0001
0010
0100
0010
0001
1000
0010
0100
0010
0100
0001
0100
0001
0100
,
0002
0000
0000
0003
0000
0000
0000
0000
0000
0000
0000
0000
2000
0000
0000
3000
0000
0000
0000
0000
0000
0000
0000
0000
0002
0000
0000
0003
0000
0000
0000
0000
0000
0000
0000
0000
2000
0000
0000
3000
0000
0000
0000
0000
0000
0000
0000
0000
0200
0000
0000
0000
0300
0000
0000
0000
0000
0000
0000
0000
2000
0000
0000
0000
3000
0000
0000
0000
0000
0000
0000
0000
0200
0000
0000
0000
0300
0000
0000
0000
0000
0000
0000
0000
2000
0000
0000
0000
3000
0000
0000
0000
0000
0000
0000
0000
0200
0000
0000
0000
0000
0000
0300
0000
0000
0000
0000
0000
0020
0000
0000
0000
0000
0000
0030
0000
0000
0000
0000
0000
0200
0000
0000
0000
0000
0000
0300
0000
0000
0000
0000
0000
0020
0000
0000
0000
0000
0000
0030
0000
0000
0000
0000
0000
0002
0000
0000
0000
0000
0000
0000
0000
0003
0000
0000
0000
2000
0000
0000
0000
0000
0000
0000
0000
3000
0000
0000
0000
0002
0000
0000
0000
0000
0000
0000
0000
0003
0000
0000
0000
2000
0000
0000
0000
0000
0000
0000
0000
3000
0000
0000
0000
,
0010
0100
0001
1000
0100
0010
0001
1000
0010
1000
0100
0010
0001
1000
0100
1000
,
0001
0100
0010
1000
0100
1000
0001
0100
0010
1000
0100
1000
0001
1000
0100
1000
,
0010
0100
0001
0010
0100
0010
0001
1000
0010
1000
0100
1000
0001
1000
0100
1000
,
0010
0000
0000
0100
0000
0000
0001
0000
0000
1000
0000
0000
0100
0000
0000
1000
0000
0000
0001
0000
0000
1000
0000
0000
0010
0000
0000
1000
0000
0000
0100
0000
0000
0010
0000
0000
0001
0000
1000
0000
0001
0000
1000
0000
0001
0000
1000
0000
,
0010
0100
0001
1000
0100
0010
0001
1000
0010
1000
0100
0010
0001
1000
0100
1000
,
0001
0100
0010
1000
0100
1000
0001
0100
0010
1000
0100
1000
0001
1000
0100
1000
,
0010
0100
0001
0010
0100
0010
0001
1000
0010
1000
0100
1000
0001
1000
0100
1000
,
0010
0000
0000
0100
0000
0000
0001
0000
0000
1000
0000
0000
0100
0000
0000
1000
0000
0000
0001
0000
0000
1000
0000
0000
0010
0000
0000
1000
0000
0000
0100
0000
0000
0010
0000
0000
0001
0000
1000
0000
0001
0000
1000
0000
0001
0000
1000
0000
,
0010
0100
0001
1000
0100
0010
0001
1000
0010
1000
0100
0010
0001
1000
0100
1000
,
0001
0100
0010
1000
0100
1000
0001
0100
0010
1000
0100
1000
0001
1000
0100
1000
,
0010
0100
0001
0010
0100
0010
0001
1000
0010
1000
0100
1000
0001
1000
0100
1000
,
0010
0000
0000
0100
0000
0000
0001
0000
0000
1000
0000
0000
0100
0000
0000
1000
0000
0000
0001
0000
0000
1000
0000
0000
0010
0000
0000
1000
0000
0000
0100
0000
0000
0010
0000
0000
0001
0000
1000
0000
0001
0000
1000
0000
0001
0000
1000
0000
,
0010
0100
0001
1000
0100
0010
0001
1000
0010
1000
0100
0010
0001
1000
0100
1000
,
0001
0100
0010
1000
0100
1000
0001
0100
0010
1000
0100
1000
0001
1000
0100
1000
,
0010
0100
0001
0010
0100
0010
0001
1000
0010
0100
0010
0100
0001
0100
0001
0100
,
0002
0000
0000
0003
0000
0000
0000
0000
0000
0000
0000
0000
2000
0000
0000
3000
0000
0000
0000
0000
0000
0000
0000
0000
0002
0000
0000
0003
0000
0000
0000
0000
0000
0000
0000
0000
2000
0000
0000
3000
0000
0000
0000
0000
0000
0000
0000
0000
0200
0000
0000
0000
0300
0000
0000
0000
0000
0000
0000
0000
2000
0000
0000
0000
3000
0000
0000
0000
0000
0000
0000
0000
0200
0000
0000
0000
0300
0000
0000
0000
0000
0000
0000
0000
2000
0000
0000
0000
3000
0000
0000
0000
0000
0000
0000
0000
0200
0000
0000
0000
0000
0000
0300
0000
0000
0000
0000
0000
0020
0000
0000
0000
0000
0000
0030
0000
0000
0000
0000
0000
0200
0000
0000
0000
0000
0000
0300
0000
0000
0000
0000
0000
0020
0000
0000
0000
0000
0000
0030
0000
0000
0000
0000
0000
0002
0000
0000
0000
0000
0000
0000
0000
0003
0000
0000
0000
0020
0000
0000
0000
0000
0000
0000
0000
0030
0000
0000
0000
0002
0000
0000
0000
0000
0000
0000
0000
0003
0000
0000
0000
0020
0000
0000
0000
0000
0000
0000
0000
0030
0000
0000
0000
,
0002
0000
1000
0000
0100
0000
1003
0020
,
0100
1000
0130
1002
,
2003
0000
3100
0020
0000
0031
2000
0000
,
0100
0000
0000
0000
0000
0000
0000
0000
0000
0000
0000
0000
0001
0000
0000
0000
0000
0000
0000
0000
0000
0000
0000
0000
3200
0000
0000
0000
0000
0000
0310
0000
0000
0001
0000
0000
1000
0000
0001
0000
1000
0000
0001
0000
1000
0000
0001
0000
,
2000
0010
0001
0010
,
0001
0010
0100
0001
,
3200
0010
2300
0010
,
3002
0000
0000
0000
0000
0000
0000
0000
0000
0000
0000
0000
0010
0000
0000
0000
0000
0000
0000
0000
0000
0000
0000
0000
1003
0000
0000
0000
0000
0000
0001
0000
0000
0100
0000
0000
0001
0000
1000
0000
0001
0000
1000
0000
0001
0000
1000
0000
,
0001
0010
0100
1000
0001
0000
1000
0000
0100
0010
0001
0000
1000
0001
0000
0001
,
0100
0010
1000
0001
1000
0000
0001
0000
1000
0010
0100
0000
0001
1000
0000
1000
,
0001
0010
0100
1000
0001
0000
1000
0000
0010
1000
0001
0000
0010
0100
0000
0100
,
1000
0000
0000
0001
0000
0000
0100
0000
0000
0010
0000
0000
1000
0000
0000
0000
0000
0000
0010
0000
0000
0000
0000
0000
0100
0000
0000
0001
0000
0000
0100
0000
0000
0010
0000
0000
1000
0000
0001
0000
1000
0000
0001
0000
1000
0000
0001
0000
,
1000
0100
0010
0001
1000
0000
0010
0000
0100
0001
1000
0000
0100
0010
0000
0010
,
0001
1000
0010
0100
0001
0000
1000
0000
0100
0010
0001
0000
1000
0010
0000
0010
,
0100
0001
1000
0001
0100
0000
0010
0000
1000
0001
0010
0000
0100
1000
0000
1000
,
0004
4000
0000
0000
0000
0000
0000
0000
0000
0000
0000
0000
0000
0000
0000
0003
,
3010
0100
0001
1000
0100
0000
1000
0000
0100
0010
0001
0000
1000
0010
0000
0010
,
0100
0001
0010
0001
1000
0000
0010
0000
0100
0001
1000
0000
0100
0010
0000
0010
,
0001
0100
0010
1000
0001
0000
0010
0000
0100
1000
0001
0000
0100
0010
0000
0010
,
1000
0000
0000
0100
0000
0000
0010
0000
0000
0001
0000
0000
1000
0000
0000
0000
0000
0000
0010
0000
0000
0000
0000
0000
0100
0000
0000
0001
0000
0000
0010
0000
0000
0100
0000
0000
1000
0000
0001
0000
1000
0000
0001
0000
1000
0000
0001
0000
,
1000
0100
0010
0001
1000
0000
0010
0000
0100
0001
1000
0000
0100
0010
0000
0010
,
0001
1000
0010
0100
0001
0000
1000
0000
0100
0010
0001
0000
1000
0010
0000
0010
,
0100
0001
1000
0001
0100
0000
0010
0000
1000
0001
0010
0000
0100
1000
0000
1000
,
0001
0000
0000
0100
0000
0000
0010
0000
0000
1000
0000
0000
0001
0000
0000
0000
0000
0000
0010
0000
0000
0000
0000
0000
0001
0000
0000
0000
0000
0000
0100
0000
0000
0010
0000
0000
1000
0000
0001
0000
1000
0000
0001
0000
1000
0000
0001
0000
,
1000
0100
0010
0001
1000
0000
0001
0000
0010
0100
1000
0000
0001
0100
0000
0100
,
0010
1000
0001
1000
0100
0000
0010
0000
0001
1000
0100
0000
0010
0100
0000
0100
,
1000
0001
1000
0010
0100
0000
0001
0000
1000
0001
0100
0000
0010
1000
0000
1000
,
0001
0000
0000
0100
0000
0000
0010
0000
0000
1000
0000
0000
0001
0000
0000
0000
0000
0000
1000
0000
0000
0000
0000
0000
0010
0000
0000
0100
0000
0000
0001
0000
0000
1000
0000
0000
0001
0000
1000
0000
0001
0000
1000
0000
0001
0000
1000
0000
,
0002
1003
0010
1000
0001
0100
0010
0100
,
0001
1000
0100
1000
0001
0010
0100
0010
,
0001
1000
0100
1000
0010
0100
0001
0100
,
0004
4000
0000
0000
0000
0000
0000
0000
0000
0000
0000
0000
0000
0000
0000
0000
,
30M3
0000
0000
00M0
0000
0000
00M0
0000
0000
0000
0M00
0000
0000
0M00
0000
0000
,
0M00
0000
0000
0000
0000
0000
000M
0000
0000
0000
0000
000M
0000
0000
0000
0000
000M
0000
0000
0000
0000
000M
0000
0000
0000
0000
0000
0000
0000
0000
0000
0000
,
0000
0000
0000
0000
,
M000
0000
0000
0000
;

//---------------dance-single - 15 (TYLR)----------------
#NOTES:
     dance-single:
     15 (TYLR):
     Medium:
     15:
     1.000,1.000,0.155,0.244,1.000,1830.000,40.000,63.000,32.000,0.000:
0000
0000
0000
0000
,
0000
0000
0000
0000
,
0000
0000
00M0
0000
,
0000
0000
0000
0000
,
2000
3M00
0000
0000
,
0000
0000
0000
0000
0000
0000
0000
000M
,
0000
0000
0000
0000
,
0000
0000
0000
0000
,
1002
1003
0010
0100
,
0001
1000
0100
1000
,
0001
0010
0100
1000
,
0001
0000
0000
0000
0100
0000
0000
0000
0010
0000
1000
0001
4000
0400
0000
3000
,
0310
0001
0100
0010
,
1000
0001
0010
0100
,
1000
0001
0100
0010
,
4000
0004
0000
0000
0000
0000
0000
0000
0000
0000
0000
0000
0000
0000
0000
3000
,
0013
0100
1000
0001
0100
0000
0001
0000
0010
0100
1000
0000
0001
0100
0000
0100
,
0010
1000
0100
1000
0001
0000
0100
0000
0010
1000
0001
0000
0010
0100
0000
0100
,
1000
0010
0100
0001
1000
0000
0100
0000
0010
0001
1000
0000
0010
0100
0000
0100
,
0001
0010
0100
1000
0001
0000
0100
0000
0010
0000
1000
0001
4000
0400
0000
3000
,
0310
0001
0100
0010
1000
0000
0010
0000
0100
0001
1000
0000
0100
0010
0000
0010
,
0001
1000
0010
0100
0001
0000
1000
0000
0100
0010
0001
0000
1000
0010
0000
0010
,
0100
0001
1000
0001
0100
0000
0010
0000
1000
0001
0010
0000
0100
1000
0000
1000
,
0001
0100
0010
1000
0001
0000
0010
0000
0001
0000
0100
0001
4000
0004
0000
3000
,
0013
0100
1000
0001
0010
0000
0001
0000
1000
0001
1000
0000
0010
0100
0000
0100
,
0001
1000
0100
1000
0001
0000
0010
0000
0100
1000
0100
0000
0010
0001
0000
0001
,
1000
0010
0100
0010
1000
0000
0001
0000
0010
0100
100M
000M
001M
100M
000M
100M
,
010M
0000
0000
0000
001M
0000
0000
0000
010M
0000
0000
0000
100M
0000
0000
0000
001M
0000
0000
0000
0000
000M
0000
0000
0100
0000
000M
0000
0000
0000
0000
000M
0010
0000
0000
0000
0000
000M
0000
0000
1000
0000
0000
000M
0010
0000
0000
0000
4000
0000
000M
0000
0400
0000
0000
0000
0000
0000
000M
0000
3000
0000
0000
0000
,
0310
0001
1000
0001
0100
0000
0001
0000
0010
0100
1000
0000
0001
1000
0000
1000
,
0100
0010
0001
1000
0100
0000
1000
0000
0001
1000
0001
0000
1000
0010
0000
0010
,
0100
0001
1000
0001
0100
0000
0010
0000
1000
0001
1000
0000
0001
1000
0000
1000
,
0400
0040
0000
0000
0000
0000
0000
0000
0000
0000
0000
0000
0000
0000
0000
0300
,
0031
1000
0100
0010
0001
1000
0100
0010
0001
0010
0100
1000
0001
0100
0010
0000
,
2000
0000
3010
0100
0001
1000
0010
1000
0001
1000
0100
0010
0001
1000
0100
0000
,
2000
0000
3001
0100
0010
1000
0001
1000
0010
0100
0001
1000
0100
0010
0001
0000
,
0020
0000
0130
1000
0001
1000
0100
0010
0001
1000
0001
0100
0040
4000
0000
0030
,
3002
0000
1003
0001
0010
0001
1000
0100
0010
0100
1000
0001
1000
0001
0100
0000
,
0020
0000
0130
0001
1000
0001
0010
0100
1000
0001
1000
0100
0010
0001
1000
0000
,
0002
0000
0103
0010
1000
0010
0100
0001
1000
0100
0010
0001
1000
0001
0010
0000
,
0200
0000
0310
0001
1000
0001
0010
0001
1000
0010
0100
0001
4000
0004
0000
3000
,
0023
0000
0031
1000
0100
1000
0001
0010
0001
0100
0010
1000
0001
0100
0010
0000
,
2000
0000
3010
0100
0001
1000
0001
0100
0010
1000
0100
0010
0001
1000
0100
0000
,
0020
0000
0130
1000
0001
1000
0010
0100
0001
0100
0010
1000
0001
0010
0100
0000
,
2000
0000
3100
0010
0001
1000
0001
0010
0100
1000
0001
0100
0040
4000
0000
0030
,
3200
0000
1300
0100
0010
0001
0010
0100
1000
0001
0100
0010
1000
0001
1000
0000
,
0020
0000
1030
0001
0100
0001
1000
0010
1000
0001
0010
0100
1000
0001
0010
0000
,
0002
0000
1003
0001
0100
0010
1000
0001
1000
0010
0100
0001
0010
0100
1000
0000
,
0002
0000
4003
0004
0000
0000
0000
0000
0000
0000
0000
0000
0000
0000
3000
0000
,
0203
0000
0301
1000
0100
1000
0001
0010
0100
1000
0001
1000
0100
0010
0001
0000
,
2000
0000
3001
0010
0001
0100
0010
1000
0001
1000
0010
0100
0001
1000
0001
0000
,
2000
0000
3100
1000
0001
0100
0010
1000
0001
1000
0010
0100
0001
1000
0100
0000
,
0020
0000
0130
1000
0001
1000
0100
0010
0001
1000
0001
0100
0040
4000
0000
0030
,
3002
0000
1003
0001
0010
0100
1000
0100
0010
0001
1000
0001
0100
0010
1000
0000
,
0200
0000
1300
0010
0100
0001
1000
0001
0100
0010
1000
0001
0010
0100
1000
0000
,
0002
0000
1003
0100
0010
0001
1000
0010
0100
0001
0010
0100
1000
0010
0100
0000
,
0002
0000
0103
0010
1000
0001
0010
0100
1000
0010
0100
0010
4000
0004
0000
3000
,
0023
0000
0031
1000
0001
1000
0010
0100
0001
1000
0010
1000
0100
0010
0001
0000
,
2000
0000
3001
0010
0100
1000
0010
0100
0001
0100
0010
1000
0001
0010
0100
0000
,
2000
0000
3100
0010
0001
1000
0010
0100
0001
0010
0100
1000
0001
0100
0010
0000
,
0200
0000
0301
0010
0100
1000
0001
0100
0001
0010
0100
1000
0040
0400
0000
0030
,
0302
0000
1003
0010
1000
0001
0010
0100
1000
0010
0100
0001
1000
0100
0010
0000
,
0200
0000
1300
0001
0100
0010
1000
0100
1000
0001
0100
0010
1000
0001
0010
0000
,
0200
0000
0310
0001
1000
0010
0100
0001
1000
0001
0100
0010
1000
0001
0010
0000
,
0200
0000
0310
0001
4000
0004
0000
0000
0000
0000
0000
0000
0000
0000
0000
3000
,
0023
0000
0130
1000
0000
0001
0000
0002
0000
0000
0000
0000
0000
0000
0000
0000
,
1003
0000
0000
0100
2000
0000
3001
0002
,
0000
0000
0103
0010
0000
1000
0002
0000
0000
0000
0000
0000
0003
0000
0010
0000
,
0200
0000
1300
0002
0000
2003
0000
3100
,
0020
0000
0031
1000
0000
0001
0000
0002
0000
0000
0000
0000
0000
0000
0000
0000
,
0103
0000
0000
0010
2000
0000
3001
0002
,
0000
0000
0013
0100
0000
1000
0000
2000
0000
0000
0000
0000
0000
0000
0000
0000
,
3000
0000
0000
0000
0100
0000
1000
0000
0010
0000
0100
0000
0001
0000
1000
0200
,
0010
0000
0000
0000
0000
0000
1000
2300
0000
0000
0000
0000
3000
0000
0001
0000
,
0100
0000
0010
1000
0000
0100
0020
0000
0000
0000
0000
0000
0031
0000
0200
0000
,
0000
0000
0000
0000
,
0300
0000
0000
0000
0002
0000
0103
0001
,
1000
0010
0100
0001
1000
0001
1000
0100
0010
0001
1000
0001
0010
0100
1000
0001
,
1000
0010
0100
0001
1000
0001
0100
0010
1000
0010
0100
0001
1000
0010
0100
0010
,
1000
0001
1000
0100
0010
0100
1000
0001
0010
0001
1000
0001
0100
0001
0100
0010
,
1000
0001
0010
0100
1000
0100
0010
0001
1000
0001
0400
0004
0000
0000
0000
0300
,
1003
0010
1000
0001
1000
0100
0010
0100
1000
0001
0010
0001
1000
0001
0010
0100
,
0010
0001
1000
0001
0100
0010
1000
0010
0100
0001
1000
0001
1000
0100
0010
0001
,
1000
0001
0100
0010
1000
0010
0100
0001
1000
0001
1000
0100
0010
0001
1000
0001
,
0010
0100
1000
0001
0010
0001
1000
0001
0100
0010
4000
0004
0000
0000
0000
3000
,
0013
0100
1000
0001
0010
0001
1000
0001
0100
0010
1000
0001
1000
0010
0100
0001
,
1000
0001
0100
0010
1000
0001
1000
0001
0010
0100
1000
0001
0010
0001
1000
0010
,
0100
0001
0100
0001
1000
0001
0100
0010
1000
0001
1000
0001
0010
0001
1000
0001
,
0100
0010
1000
0001
1000
0010
0100
0001
1000
0010
4000
0004
0000
0000
0000
3000
,
0013
0100
1000
0001
0100
0001
1000
0010
0100
0001
1000
0001
0100
0010
1000
0001
,
1000
0100
0010
0001
1000
0001
0010
0100
1000
0001
0010
0001
1000
0001
0100
0010
,
1000
0010
0100
0001
1000
0001
0100
0010
1000
0001
1000
0001
0010
0001
0010
0001
,
0040
0400
0000
0000
0000
0000
0000
0000
0000
0000
0000
0000
0000
0000
0000
0030
,
1300
0001
0010
0100
1000
0001
1000
0100
0010
0001
1000
0001
0010
0100
1000
0001
,
1000
0010
0100
0001
1000
0001
0100
0010
1000
0010
0100
0001
1000
0010
0100
0010
,
1000
0001
1000
0100
0010
0100
1000
0001
0010
0001
1000
0001
0100
0001
0100
0010
,
1000
0001
0010
0100
1000
0100
0010
0001
1000
0001
0400
0004
0000
0000
0000
0300
,
1003
0010
1000
0001
1000
0100
0010
0100
1000
0001
0010
0001
1000
0001
0010
0100
,
0010
0001
1000
0001
0100
0010
1000
0010
0100
0001
1000
0001
1000
0100
0010
0001
,
1000
0001
0100
0010
1000
0010
0100
0001
1000
0001
1000
0100
0010
0001
1000
0001
,
0010
0100
1000
0001
0010
0001
1000
0001
0100
0010
4000
0004
0000
0000
0000
3000
,
0013
0100
1000
0001
0010
0001
1000
0001
0100
0010
1000
0001
1000
0010
0100
0001
,
1000
0001
0100
0010
1000
0001
1000
0001
0010
0100
1000
0001
0010
0001
1000
0010
,
0100
0001
0100
0001
1000
0001
0100
0010
1000
0001
1000
0001
0010
0001
1000
0001
,
0100
0010
1000
0001
1000
0010
0100
0001
1000
0010
4000
0004
0000
0000
0000
3000
,
0013
0100
1000
0001
0100
0001
1000
0010
0100
0001
1000
0001
0100
0010
1000
0001
,
1000
0100
0010
0001
1000
0001
0010
0100
1000
0001
0010
0001
1000
0001
0100
0010
,
1000
0010
0100
0001
1000
0001
0100
0010
1000
0001
1000
0001
0010
0001
0010
0001
,
0040
0400
0000
0000
0000
0000
0000
0000
0000
0000
0000
0000
0000
0000
0000
0030
,
1300
0010
0100
0001
1000
0001
1000
0100
0010
0001
1000
0001
0010
0100
1000
0001
,
1000
0010
0100
0001
1000
0001
0100
0010
1000
0010
0100
0001
1000
0010
0100
0010
,
1000
0001
1000
0100
0010
0100
1000
0001
0010
0001
1000
0001
0100
0001
0100
0010
,
1000
0001
0010
0100
1000
0100
0010
0001
1000
0001
0400
0004
0000
0000
0000
0300
,
1003
0010
1000
0001
1000
0100
0010
0100
1000
0001
0010
0001
1000
0001
0010
0100
,
0010
0001
1000
0001
0100
0010
1000
0010
0100
0001
1000
0001
1000
0100
0010
0001
,
1000
0001
0100
0010
1000
0010
0100
0001
1000
0001
1000
0100
0010
0001
1000
0001
,
0010
0100
1000
0001
0010
0001
1000
0001
0100
0010
4000
0004
0000
0000
0000
3000
,
0013
0100
1000
0001
0010
0001
1000
0001
0100
0010
1000
0001
1000
0010
0100
0001
,
1000
0001
0100
0010
1000
0001
1000
0001
0010
0100
1000
0001
0010
0001
1000
0010
,
0100
0001
0100
0001
1000
0001
0100
0010
1000
0001
1000
0001
0010
0001
1000
0001
,
0100
0010
1000
0001
1000
0010
0100
0001
1000
0010
4000
0004
0000
0000
0000
3000
,
0013
0100
1000
0001
0100
0001
1000
0010
0100
0001
1000
0001
0100
0010
1000
0001
,
1000
0100
0010
0001
1000
0001
0010
0100
1000
0001
0010
0001
1000
0001
0100
0010
,
1000
0010
0100
0001
1000
0001
0100
0010
1000
0001
1000
0001
0010
0001
0010
0001
,
0040
0400
0000
0000
0000
0000
0000
0000
0000
0000
0000
0000
0000
0000
0000
0030
,
1300
0010
0100
0001
1000
0001
1000
0100
0010
0001
1000
0001
0010
0100
1000
0001
,
1000
0010
0100
0001
1000
0001
0100
0010
1000
0010
0100
0001
1000
0010
0100
0010
,
1000
0001
1000
0100
0010
0100
1000
0001
0010
0001
1000
0001
0100
0001
0100
0010
,
1000
0001
0010
0100
1000
0100
0010
0001
1000
0001
0400
0004
0000
0000
0000
0300
,
1003
0010
1000
0001
1000
0100
0010
0100
1000
0001
0010
0001
1000
0001
0010
0100
,
0010
0001
1000
0001
0100
0010
1000
0010
0100
0001
1000
0001
1000
0100
0010
0001
,
1000
0001
0100
0010
1000
0010
0100
0001
1000
0001
1000
0100
0010
0001
1000
0001
,
0010
0100
1000
0001
0010
0001
1000
0001
0100
0010
4000
0004
0000
0000
0000
3000
,
0013
0100
1000
0001
0010
0001
1000
0001
0100
0010
1000
0001
1000
0010
0100
0001
,
1000
0001
0100
0010
1000
0001
1000
0001
0010
0100
1000
0001
0010
0001
1000
0010
,
0100
0001
0100
0001
1000
0001
0100
0010
1000
0001
1000
0001
0010
0001
1000
0001
,
0100
0010
1000
0001
1000
0010
0100
0001
1000
0010
4000
0004
0000
0000
0000
3000
,
0013
0100
1000
0001
0100
0001
1000
0010
0100
0001
1000
0001
0100
0010
1000
0001
,
1000
0100
0010
0001
1000
0001
0010
0100
1000
0001
0010
0001
1000
0001
0100
0010
,
1000
0010
0100
0001
1000
0001
0100
0010
1000
0001
1000
0001
0010
0001
0010
0001
,
0040
0400
0000
0000
0000
0000
0000
0000
0000
0000
0000
0000
0000
0000
0000
0030
,
2300
0000
0001
0000
0010
0000
3001
0200
,
0010
0001
0310
2001
,
3002
0000
0013
0200
0000
1300
0002
0000
,
0010
0000
0000
0000
1000
0000
0000
0000
0023
0000
0130
1000
0004
4000
0000
0003
,
3020
0100
1000
0100
,
1000
0100
0001
0100
,
2030
0100
3002
0100
,
2003
0000
0000
0000
0100
0000
0000
0000
3001
0000
1000
0001
0400
0040
0000
0300
,
1030
0001
1000
0100
0010
0000
0001
0000
0010
0100
1000
0000
0001
1000
0000
1000
,
0010
0100
0001
1000
0001
0000
1000
0000
0001
0100
0010
0000
1000
0001
0000
0001
,
1000
0100
0010
0001
1000
0000
0001
0000
0100
0001
1000
0000
0100
0010
0000
0010
,
0001
1000
0010
0100
0001
0000
0100
0000
0010
1000
0010
0100
0004
4000
0000
0003
,
3100
0010
0100
1000
0001
0000
0100
0000
0010
1000
0001
0000
0010
0100
0000
0100
,
1000
0001
0100
0010
1000
0000
0001
0000
0010
0100
1000
0000
0001
0100
0000
0100
,
0010
1000
0001
1000
0010
0000
0100
0000
0001
1000
0100
0000
0010
0001
0000
0001
,
4000
0004
0000
0000
0000
0000
0000
0000
0000
0000
0000
0000
0000
0000
0000
3000
,
0103
0010
1000
0001
0010
0000
0001
0000
0010
0100
1000
0000
0001
0100
0000
0100
,
0010
1000
0100
1000
0001
0000
0100
0000
0010
1000
0001
0000
0010
0100
0000
0100
,
1000
0010
0100
0001
1000
0000
0100
0000
0010
0001
1000
0000
0010
0100
0000
0100
,
0001
0010
0100
1000
0001
0000
0100
0000
0010
1000
0001
0010
0400
4000
0000
0300
,
3001
0010
0001
1000
0010
0000
0100
0000
0001
0100
0010
0000
1000
0001
0000
0001
,
1000
0010
0100
0001
1000
0000
0100
0000
0010
0100
1000
0000
0001
0100
0000
0100
,
0010
1000
0001
1000
0010
0000
0100
0000
0001
1000
0100
0000
0010
0001
0000
0001
,
1000
0010
0100
0001
1000
0000
0100
0000
1000
0000
0010
0100
0004
0400
0000
0003
,
0310
1000
0001
1000
0100
0000
0010
0000
0001
0010
0100
0000
1000
0001
0000
0001
,
0100
0010
1000
0010
0100
0000
0001
0000
1000
0001
0010
0000
0100
0010
0000
0010
,
0001
1000
0001
0100
0010
0000
1000
0000
0001
1000
0010
0000
0100
0001
0000
0001
,
1000
0010
0100
0001
1000
0000
0001
0000
0100
0010
1000
0001
4000
0004
0000
3000
,
0023
0031
0100
0001
1000
0010
0100
0010
,
1000
0001
0010
0001
1000
0100
0010
0100
,
1000
0001
0010
0001
0100
0010
1000
0010
,
4000
0004
0000
0000
0000
0000
0000
0000
0000
0000
0000
0000
0000
0000
0000
0000
,
3M03
0000
0000
0M00
0000
0000
0M00
0000
0000
0000
00M0
0000
0000
00M0
0000
0000
,
00M0
0000
0000
0000
0000
0000
M000
0000
0000
0000
0000
M000
0000
0000
0000
0000
M000
0000
0000
0000
0000
M000
0000
0000
0000
0000
0000
0000
0000
0000
0000
0000
,
0000
0000
0000
0000
,
0000
0000
0000
000M
0000
0000
0000
0000
;

//---------------dance-single - 17- (CTalon)----------------
#NOTES:
     dance-single:
     17- (CTalon):
     Challenge:
     17:
     1.000,1.000,0.004,0.206,1.000,2641.000,1.000,53.000,5.000,0.000:
0000
0000
0000
0000
,
0000
0000
0000
0000
,
0000
0000
00M0
0000
,
0000
0000
0000
0000
,
2000
3M00
0000
0000
,
0000
0000
0000
0000
0000
0000
0000
000M
,
0000
0000
0000
0000
,
0000
0000
0000
0000
,
1002
1003
0010
0100
,
0001
1000
0100
1000
,
0001
0010
0100
1000
,
0001
0000
0000
0000
0000
0000
0000
0000
0000
0000
0000
0000
0100
0000
0000
0000
0000
0000
0000
0000
0000
0000
0000
0000
0010
0000
0000
0000
0000
0000
1000
0000
0000
0001
0000
0000
1000
0000
0100
0000
0010
0000
0001
0000
1000
0000
0100
0000
,
0010
0001
0100
0010
,
1000
0001
0010
0100
,
1000
0001
0100
0010
,
1000
0000
0000
0000
0000
0000
0000
0000
0000
0000
0001
0000
0000
0000
0000
0000
0000
0000
0000
1000
0000
0000
0000
0000
0000
0000
0000
0000
0000
0100
0000
0000
0000
0000
0000
0000
0000
0000
0010
0000
0000
0000
0000
0000
0000
0000
0000
0000
0001
0000
0000
0000
0000
0000
0000
0000
0000
0000
0010
0000
0000
0000
0000
0000
0000
0000
0000
0100
0000
0000
0000
0000
0000
0000
0000
0000
0000
1000
0000
0000
0000
0000
0000
0000
0000
0000
0001
0000
0000
0000
0000
0000
0000
0000
0000
0000
1000
0000
0000
0000
0000
0000
0000
0000
0000
0000
0001
0000
0000
0000
0000
0000
0000
0000
0000
0010
0000
0000
0000
0000
0000
0000
0000
0000
0000
0100
0000
0000
0000
0000
0000
0000
0000
0000
1000
0000
0000
0000
0000
0000
0000
0000
0000
0000
0001
0000
0000
0000
0000
0000
0000
0000
0000
0000
0010
0000
0000
0000
0000
0000
0000
0000
0000
0001
0000
0000
0000
0000
0000
0000
0000
0000
0000
0010
0000
0000
0000
0000
0000
0000
0000
0000
0100
0000
0000
0000
0000
0000
0000
0000
0000
0000
,
1000
0001
0100
0001
1000
0001
0100
0010
1000
0010
0100
0001
1000
0001
1000
0010
,
1000
0100
0010
0001
0010
0100
1000
0001
0010
0100
1000
0001
0010
0001
0010
0100
,
1000
0010
0100
0010
1000
0001
0100
0001
1000
0010
0100
0001
1000
0010
0100
0010
,
1000
0000
0000
0100
0000
0000
0010
0000
0000
0001
0000
0000
0010
0000
0000
0100
0000
0000
1000
0000
0000
0001
0000
0000
1000
0000
0000
0001
0000
0000
0010
0000
0000
0100
0000
0000
1000
0000
0100
0000
0010
0000
0001
0000
1000
0000
0100
0000
,
1000
0001
0100
0001
1000
0001
0100
0010
1000
0010
0100
0001
1000
0001
1000
0010
,
1000
0100
0010
0001
0010
0100
1000
0001
0010
0100
1000
0001
0010
0001
0010
0100
,
1000
0010
0100
0010
1000
0001
0100
0001
1000
0010
0100
0001
1000
0010
0100
0010
,
1000
0000
0000
0100
0000
0000
0010
0000
0000
0001
0000
0000
0010
0000
0000
0100
0000
0000
1000
0000
0000
0001
0000
0000
1000
0000
0000
0001
0000
0000
0010
0000
0000
0100
0000
0000
1000
0000
0001
0000
1000
0000
0001
0000
0010
0000
0100
0000
,
1000
0001
0100
0001
1000
0001
0100
0010
1000
0010
0100
0001
1000
0001
1000
0010
,
1000
0100
0010
0001
0010
0100
1000
0001
0010
0100
1000
0001
0010
0001
0010
0100
,
1000
0010
0100
0010
1000
0001
0100
0001
1000
0010
0100
0001
1000
0010
0100
0010
,
1000
0000
0000
0100
0000
0000
0010
0000
0000
0001
0000
0000
0010
0000
0000
0100
0000
0000
1000
0000
0000
0001
0000
0000
1000
0000
0000
0001
0000
0000
0010
0000
0000
0100
0000
0000
1000
0000
0100
0000
0010
0000
0100
0000
0010
0000
0001
0000
,
1000
0001
0100
0001
1000
0001
0100
0010
1000
0010
0100
0001
1000
0001
1000
0010
,
1000
0100
0010
0001
0010
0100
1000
0001
0010
0100
1000
0001
0010
0001
0010
0100
,
1000
0010
0100
0010
1000
0001
0100
0001
1000
0010
0100
0001
1000
0010
0100
0010
,
1000
0000
0000
0000
0000
0000
0000
0000
0000
0000
0001
0000
0000
0000
0000
0000
0000
0000
0000
0010
0000
0000
0000
0000
0000
0000
0000
0000
0000
0100
0000
0000
0000
0000
0000
0000
0000
0000
0010
0000
0000
0000
0000
0000
0000
0000
0000
0000
0001
0000
0000
0000
0000
0000
0000
0000
0000
0000
1000
0000
0000
0000
0000
0000
0000
0000
0000
0001
0000
0000
0000
0000
0000
0000
0000
0000
0000
1000
0000
0000
0000
0000
0000
0000
0000
0000
0100
0000
0000
0000
0000
0000
0000
0000
0000
0000
0010
0000
0000
0000
0000
0000
0000
0000
0000
0000
0001
0000
0000
0000
0000
0000
0000
0000
0000
1000
0000
0000
0000
0000
0000
0000
0000
0000
0000
0100
0000
0000
0000
0000
0000
0000
0000
0000
0010
0000
0000
0000
0000
0000
0000
0000
0000
0000
0100
0000
0000
0000
0000
0000
0000
0000
0000
0000
1000
0000
0000
0000
0000
0000
0000
0000
0000
0001
0000
0000
0000
0000
0000
0000
0000
0000
0000
1000
0000
0000
0000
0000
0000
0000
0000
0000
0001
0000
0000
0000
0000
0000
0000
0000
0000
0000
,
2000
3000
0010
0000
0100
0000
0001
0000
0010
0000
0001
0000
0100
0000
0010
0000
0100
0000
0001
0000
0010
0000
0100
0000
1000
0000
0010
0000
0100
0000
0001
0000
,
2000
3000
0100
0000
0010
0000
0100
0000
1000
0000
0010
0000
0100
0000
0001
0000
0010
0000
0100
0000
0010
0000
0001
0000
0100
0000
0010
0000
0100
0000
0010
0000
,
2000
3000
0100
0000
1000
0000
0010
0000
0100
0000
0010
0000
1000
0000
0100
0000
1000
0000
0010
0000
0100
0000
0001
0000
0010
0000
0001
0000
0100
0000
0010
0000
,
0200
0000
0000
0000
0000
0000
0300
0000
0000
0000
0000
0000
0001
0000
0000
0000
0000
0000
0000
0000
0000
0000
0000
0000
1000
0000
0000
0000
0000
0000
0000
0000
0000
0000
0000
0000
0100
0000
0000
0000
0000
0000
0000
0000
0000
0000
0000
0000
0010
0000
0000
0000
0000
0000
0000
0000
0000
0000
0000
0000
0001
0000
0000
0000
0000
0000
0000
0000
0000
0000
0000
0000
0100
0000
0000
0000
0000
0000
0000
0000
0000
0000
0000
0000
0010
0000
0000
0000
0000
0000
0000
0000
0000
0000
0000
0000
0100
0000
0000
0000
0000
0000
0000
0000
0000
0000
0000
0000
0001
0000
0000
0000
0000
0000
0000
0000
0000
0000
0000
0000
0010
0000
0000
0000
0000
0000
0000
0000
0000
0000
0000
0000
0100
0000
0000
0000
0000
0000
0000
0000
0000
0000
0000
0000
0010
0000
0000
0000
0000
0000
0000
0000
0001
0000
0000
0000
0000
0000
0000
0000
1000
0000
0000
0000
0000
0000
0000
0000
0100
0000
0000
0000
0000
0000
0000
0000
0010
0000
0000
0000
0000
0000
0000
0000
0001
0000
0000
0000
0000
0000
0000
0000
,
2000
3000
0001
0000
0010
0000
0001
0000
0100
0000
0010
0000
0100
0000
0001
0000
0010
0000
0001
0000
0100
0000
0010
0000
1000
0000
0100
0000
1000
0000
0010
0000
,
0200
0300
0001
0000
0010
0000
0001
0000
0100
0000
0010
0000
0100
0000
0001
0000
0010
0000
0100
0000
1000
0000
0010
0000
0100
0000
0010
0000
1000
0000
0100
0000
,
2000
3000
0010
0000
0100
0000
0010
0000
0100
0000
0001
0000
0010
0000
0001
0000
0100
0000
0010
0000
0100
0000
0010
0000
1000
0000
0100
0000
0010
0000
0001
0000
,
0200
0000
0000
0000
0000
0000
0300
0000
0000
0000
0000
0000
0001
0000
0000
0000
0000
0000
0000
0000
0000
0000
0000
0000
0010
0000
0000
0000
0000
0000
0000
0000
0000
0000
0000
0000
0100
0000
0000
0000
0000
0000
0000
0000
0000
0000
0000
0000
1000
0000
0000
0000
0000
0000
0000
0000
0000
0000
0000
0000
0010
0000
0000
0000
0000
0000
0000
0000
0000
0000
0000
0000
0100
0000
0000
0000
0000
0000
0000
0000
0000
0000
0000
0000
0001
0000
0000
0000
0000
0000
0000
0000
0000
0000
0000
0000
0010
0000
0000
0000
0000
0000
0000
0000
0000
0000
0000
0000
0001
0000
0000
0000
0000
0000
0000
0000
0000
0000
0000
0000
0100
0000
0000
0000
0000
0000
0000
0000
0000
0000
0000
0000
0010
0000
0000
0000
0000
0000
0000
0000
0000
0000
0000
0000
1000
0000
0000
0000
0000
0000
0000
0000
0001
0000
0000
0000
0000
0000
0000
0000
0100
0000
0000
0000
0000
0000
0000
0000
0010
0000
0000
0000
0000
0000
0000
0000
1000
0000
0000
0000
0000
0000
0000
0000
0001
0000
0000
0000
0000
0000
0000
0000
,
2000
3000
0100
0000
0010
0000
0001
0000
0100
0000
0001
0000
0010
0000
0100
0000
0010
0000
0001
0000
0100
0000
0010
0000
1000
0000
0100
0000
0010
0000
0001
0000
,
2000
3000
0010
0000
0100
0000
0010
0000
1000
0000
0100
0000
0010
0000
0001
0000
0100
0000
0010
0000
0100
0000
0001
0000
0010
0000
0100
0000
0010
0000
0100
0000
,
2000
3000
0010
0000
1000
0000
0100
0000
0010
0000
0100
0000
1000
0000
0010
0000
1000
0000
0100
0000
0010
0000
0001
0000
0100
0000
0001
0000
0010
0000
0100
0000
,
0020
0000
0000
0000
0000
0000
0030
0000
0000
0000
0000
0000
0001
0000
0000
0000
0000
0000
0000
0000
0000
0000
0000
0000
1000
0000
0000
0000
0000
0000
0000
0000
0000
0000
0000
0000
0010
0000
0000
0000
0000
0000
0000
0000
0000
0000
0000
0000
0100
0000
0000
0000
0000
0000
0000
0000
0000
0000
0000
0000
0001
0000
0000
0000
0000
0000
0000
0000
0000
0000
0000
0000
0010
0000
0000
0000
0000
0000
0000
0000
0000
0000
0000
0000
0100
0000
0000
0000
0000
0000
0000
0000
0000
0000
0000
0000
0010
0000
0000
0000
0000
0000
0000
0000
0000
0000
0000
0000
0001
0000
0000
0000
0000
0000
0000
0000
0000
0000
0000
0000
0100
0000
0000
0000
0000
0000
0000
0000
0000
0000
0000
0000
0010
0000
0000
0000
0000
0000
0000
0000
0000
0000
0000
0000
0100
0000
0000
0000
0000
0000
0000
0000
0001
0000
0000
0000
0000
0000
0000
0000
1000
0000
0000
0000
0000
0000
0000
0000
0010
0000
0000
0000
0000
0000
0000
0000
0100
0000
0000
0000
0000
0000
0000
0000
0001
0000
0000
0000
0000
0000
0000
0000
,
2000
3000
0001
0000
0100
0000
0001
0000
0010
0000
0100
0000
0010
0000
0001
0000
0100
0000
0001
0000
0010
0000
0100
0000
1000
0000
0010
0000
1000
0000
0100
0000
,
0020
0030
0001
0000
0100
0000
0001
0000
0010
0000
0100
0000
0010
0000
0001
0000
0100
0000
0010
0000
1000
0000
0100
0000
0010
0000
0100
0000
1000
0000
0010
0000
,
2000
3000
0100
0000
0010
0000
0100
0000
0010
0000
0001
0000
0100
0000
0001
0000
0010
0000
0100
0000
0010
0000
0100
0000
1000
0000
0010
0000
0100
0000
0001
0000
,
1000
0000
0000
0000
0000
0000
0000
0000
0000
0000
0010
0000
0000
0000
0000
0000
0000
0000
0000
1000
0000
0000
0000
0000
0000
0000
0000
0000
0000
0001
0000
0000
0000
0000
0000
0000
0000
0000
1000
0000
0000
0000
0000
0000
0000
0000
0000
0000
0010
0000
0000
0000
0000
0000
0000
0000
0000
0000
0100
0000
0000
0000
0000
0000
0000
0000
0000
0001
0000
0000
0000
0000
0000
0000
0000
0000
0000
1000
0000
0000
0000
0000
0000
0000
0000
0000
0001
0000
0000
0000
0000
0000
0000
0000
0000
0000
1000
0000
0000
0000
0000
0000
0000
0000
0000
0000
0010
0000
0000
0000
0000
0000
0000
0000
0000
0100
0000
0000
0000
0000
0000
0000
0000
0000
0000
0010
0000
0000
0000
0000
0000
0000
0000
0000
1000
0000
0000
0000
0000
0000
0000
0000
0000
0000
0001
0000
0000
0000
0000
0000
0000
0000
0000
0000
1000
0000
0000
0000
0000
0000
0000
0000
0000
0010
0000
0000
0000
0000
0000
0000
0000
0000
0000
1000
0000
0000
0000
0000
0000
0000
0000
0000
0010
0000
0000
0000
0000
0000
0000
0000
0000
0000
,
2000
3000
0010
0000
0100
0000
0001
0000
0010
0000
0001
0000
0100
0000
0010
0000
0100
0000
0001
0000
0010
0000
0100
0000
1000
0000
0010
0000
0100
0000
0001
0000
,
2000
3000
0100
0000
0010
0000
0100
0000
1000
0000
0010
0000
0100
0000
0001
0000
0010
0000
0100
0000
0010
0000
0001
0000
0100
0000
0010
0000
0100
0000
0010
0000
,
2000
3000
0100
0000
1000
0000
0010
0000
0100
0000
0010
0000
1000
0000
0100
0000
1000
0000
0010
0000
0100
0000
0001
0000
0010
0000
0001
0000
0100
0000
0010
0000
,
0200
0000
0000
0000
0000
0000
0300
0000
0000
0000
0000
0000
0001
0000
0000
0000
0000
0000
0000
0000
0000
0000
0000
0000
1000
0000
0000
0000
0000
0000
0000
0000
0000
0000
0000
0000
0100
0000
0000
0000
0000
0000
0000
0000
0000
0000
0000
0000
0010
0000
0000
0000
0000
0000
0000
0000
0000
0000
0000
0000
0001
0000
0000
0000
0000
0000
0000
0000
0000
0000
0000
0000
0100
0000
0000
0000
0000
0000
0000
0000
0000
0000
0000
0000
0010
0000
0000
0000
0000
0000
0000
0000
0000
0000
0000
0000
0100
0000
0000
0000
0000
0000
0000
0000
0000
0000
0000
0000
0001
0000
0000
0000
0000
0000
0000
0000
0000
0000
0000
0000
0010
0000
0000
0000
0000
0000
0000
0000
0000
0000
0000
0000
0100
0000
0000
0000
0000
0000
0000
0000
0000
0000
0000
0000
0010
0000
0000
0000
0000
0000
0000
0000
0001
0000
0000
0000
0000
0000
0000
0000
1000
0000
0000
0000
0000
0000
0000
0000
0100
0000
0000
0000
0000
0000
0000
0000
0010
0000
0000
0000
0000
0000
0000
0000
0001
0000
0000
0000
0000
0000
0000
0000
,
2000
3000
0001
0000
0010
0000
0001
0000
0100
0000
0010
0000
0100
0000
0001
0000
0010
0000
0001
0000
0100
0000
0010
0000
1000
0000
0100
0000
1000
0000
0010
0000
,
0200
0300
0001
0000
0010
0000
0001
0000
0100
0000
0010
0000
0100
0000
0001
0000
0010
0000
0100
0000
1000
0000
0010
0000
0100
0000
0010
0000
1000
0000
0100
0000
,
2000
3000
0010
0000
0100
0000
0010
0000
0100
0000
0001
0000
0010
0000
0001
0000
0100
0000
0010
0000
0100
0000
0010
0000
1000
0000
0100
0000
0010
0000
0001
0000
,
0200
0000
0000
0000
0000
0000
0300
0000
0000
0000
0000
0000
0001
0000
0000
0000
0000
0000
0000
0000
0000
0000
0000
0000
0010
0000
0000
0000
0000
0000
0000
0000
0000
0000
0000
0000
0100
0000
0000
0000
0000
0000
0000
0000
0000
0000
0000
0000
1000
0000
0000
0000
0000
0000
0000
0000
0000
0000
0000
0000
0010
0000
0000
0000
0000
0000
0000
0000
0000
0000
0000
0000
0100
0000
0000
0000
0000
0000
0000
0000
0000
0000
0000
0000
0001
0000
0000
0000
0000
0000
0000
0000
0000
0000
0000
0000
0010
0000
0000
0000
0000
0000
0000
0000
0000
0000
0000
0000
0001
0000
0000
0000
0000
0000
0000
0000
0000
0000
0000
0000
0100
0000
0000
0000
0000
0000
0000
0000
0000
0000
0000
0000
0010
0000
0000
0000
0000
0000
0000
0000
0000
0000
0000
0000
1000
0000
0000
0000
0000
0000
0000
0000
0001
0000
0000
0000
0000
0000
0000
0000
0100
0000
0000
0000
0000
0000
0000
0000
0010
0000
0000
0000
0000
0000
0000
0000
1000
0000
0000
0000
0000
0000
0000
0000
0001
0000
0000
0000
0000
0000
0000
0000
,
2000
3000
0100
0000
0010
0000
0001
0000
0100
0000
0001
0000
0010
0000
0100
0000
0010
0000
0001
0000
0100
0000
0010
0000
1000
0000
0100
0000
0010
0000
0001
0000
,
2000
3000
0010
0000
0100
0000
0010
0000
1000
0000
0100
0000
0010
0000
0001
0000
0100
0000
0010
0000
0100
0000
0001
0000
0010
0000
0100
0000
0010
0000
0100
0000
,
2000
3000
0010
0000
1000
0000
0100
0000
0010
0000
0100
0000
1000
0000
0010
0000
1000
0000
0100
0000
0010
0000
0001
0000
0100
0000
0001
0000
0010
0000
0100
0000
,
0020
0000
0000
0000
0000
0000
0030
0000
0000
0000
0000
0000
0001
0000
0000
0000
0000
0000
0000
0000
0000
0000
0000
0000
1000
0000
0000
0000
0000
0000
0000
0000
0000
0000
0000
0000
0010
0000
0000
0000
0000
0000
0000
0000
0000
0000
0000
0000
0100
0000
0000
0000
0000
0000
0000
0000
0000
0000
0000
0000
0001
0000
0000
0000
0000
0000
0000
0000
0000
0000
0000
0000
0010
0000
0000
0000
0000
0000
0000
0000
0000
0000
0000
0000
0100
0000
0000
0000
0000
0000
0000
0000
0000
0000
0000
0000
0010
0000
0000
0000
0000
0000
0000
0000
0000
0000
0000
0000
0001
0000
0000
0000
0000
0000
0000
0000
0000
0000
0000
0000
0100
0000
0000
0000
0000
0000
0000
0000
0000
0000
0000
0000
0010
0000
0000
0000
0000
0000
0000
0000
0000
0000
0000
0000
0100
0000
0000
0000
0000
0000
0000
0000
0001
0000
0000
0000
0000
0000
0000
0000
1000
0000
0000
0000
0000
0000
0000
0000
0010
0000
0000
0000
0000
0000
0000
0000
0100
0000
0000
0000
0000
0000
0000
0000
0001
0000
0000
0000
0000
0000
0000
0000
,
2000
3000
0001
0000
0100
0000
0001
0000
0010
0000
0100
0000
0010
0000
0001
0000
0100
0000
0001
0000
0010
0000
0100
0000
1000
0000
0010
0000
1000
0000
0100
0000
,
0020
0030
0001
0000
0100
0000
0001
0000
0010
0000
0100
0000
0010
0000
0001
0000
0100
0000
0010
0000
1000
0000
0100
0000
0010
0000
0100
0000
1000
0000
0010
0000
,
2000
3000
0100
0000
0010
0000
0100
0000
0010
0000
0001
0000
0100
0000
0001
0000
0010
0000
0100
0000
0010
0000
0100
0000
1000
0000
0010
0000
0100
0000
0001
0000
,
1000
0000
0000
0000
0000
0000
0000
0000
0000
0000
0010
0000
0000
0000
0000
0000
0000
0000
0000
1000
0000
0000
0000
0000
0000
0000
0000
0000
0000
0001
0000
0000
0000
0000
0000
0000
0000
0000
1000
0000
0000
0000
0000
0000
0000
0000
0000
0000
0010
0000
0000
0000
0000
0000
0000
0000
0000
0000
0100
0000
0000
0000
0000
0000
0000
0000
0000
0001
0000
0000
0000
0000
0000
0000
0000
0000
0000
1000
0000
0000
0000
0000
0000
0000
0000
0000
0001
0000
0000
0000
0000
0000
0000
0000
0000
0000
1000
0000
0000
0000
0000
0000
0000
0000
0000
0000
0010
0000
0000
0000
0000
0000
0000
0000
0000
0100
0000
0000
0000
0000
0000
0000
0000
0000
0000
0010
0000
0000
0000
0000
0000
0000
0000
0000
1000
0000
0000
0000
0000
0000
0000
0000
0000
0000
0001
0000
0000
0000
0000
0000
0000
0000
0000
0000
1000
0000
0000
0000
0000
0000
0000
0000
0000
0010
0000
0000
0000
0000
0000
0000
0000
0000
0000
1000
0000
0000
0000
0000
0000
0000
0000
0000
0010
0000
0000
0000
0000
0000
0000
0000
0000
0000
,
100M
0100
0010
0001
0010
0001
1000
0100
0010
0001
0010
0001
1000
0010
0100
0001
0100
0001
1000
0010
0100
0001
0100
0001
1000
0100
0010
0001
1000
0010
0100
0001
,
1000
0100
1000
0001
0010
0001
1000
0100
1000
0001
0010
0001
1000
0010
1000
0001
0100
0001
1000
0010
1000
0001
0100
0001
1000
0010
1000
0001
1000
0100
1000
0001
,
1000
0100
0010
0100
1000
0001
1000
0100
0010
0100
1000
0001
1000
0010
0100
0010
1000
0001
1000
0010
0100
0010
1000
0001
1000
0100
0010
0100
1000
0010
0100
0010
,
1000
0001
0010
0100
1000
0001
1000
0001
0010
0100
1000
0001
1000
0001
0100
0010
1000
0001
1000
0001
0100
0010
1000
0001
1000
0001
0010
0100
1000
0001
0100
0010
,
1000
0010
0100
0001
0100
0001
1000
0010
0100
0001
0100
0001
1000
0100
0010
0001
0010
0001
1000
0100
0010
0001
0010
0001
1000
0010
0100
0001
1000
0100
0010
0001
,
1000
0010
1000
0001
0100
0001
1000
0010
1000
0001
0100
0001
1000
0100
1000
0001
0010
0001
1000
0100
1000
0001
0010
0001
1000
0100
1000
0001
1000
0010
1000
0001
,
1000
0010
0100
0010
1000
0001
1000
0010
0100
0010
1000
0001
1000
0100
0010
0100
1000
0001
1000
0100
0010
0100
1000
0001
1000
0010
0100
0010
1000
0100
0010
0100
,
1000
0001
0100
0010
1000
0001
1000
0001
0100
0010
1000
0001
1000
0001
0010
0100
1000
0001
1000
0001
0010
0100
1000
0001
1000
0001
0100
0010
1000
0001
0010
0100
,
2000
0000
0000
0000
0000
0000
3100
0020
0000
0000
0000
0000
0030
0000
0002
0000
,
2003
0000
3010
0200
0000
0301
0020
0000
0000
0000
0000
0000
0230
0000
2300
0000
,
0000
0010
0000
0001
,
3002
0000
0023
0000
0230
0000
2300
0001
,
3M01
0010
0100
1000
0010
1000
0001
0010
0100
1000
0010
1000
0001
0100
0010
1000
,
0100
1000
0001
0100
0010
1000
0100
1000
0001
0010
0100
1000
0001
0100
0010
1000
,
0001
0010
0001
0100
0010
1000
0001
0010
0001
0100
0010
1000
0001
0100
0001
0010
,
0100
0000
0000
1000
0000
0000
0001
0000
0000
0100
0000
0000
0001
0000
0000
0010
0000
0000
0100
0000
0000
1000
0000
0000
0001
0000
0000
0010
0000
0000
0001
0000
0000
0100
0000
0000
0001
0000
1000
0000
0001
0000
0010
0000
0100
0000
0010
0000
,
0001
1000
0010
0100
0001
0010
0001
1000
0010
0100
0001
0010
0001
1000
0100
0010
,
0001
0100
0001
1000
0100
0010
0001
0100
0001
1000
0010
0100
0001
1000
0100
0010
,
0001
1000
0100
1000
0010
0100
0001
1000
0100
1000
0010
0100
0001
1000
0010
1000
,
0100
0000
0000
0010
0000
0000
0001
0000
0000
1000
0000
0000
0010
0000
0000
1000
0000
0000
0100
0000
0000
0010
0000
0000
0001
0000
0000
1000
0000
0000
0100
0000
0000
1000
0000
0000
0001
0000
0100
0000
0010
0000
1000
0000
0010
0000
1000
0000
,
0001
0010
0100
1000
0010
0100
0001
0010
0100
1000
0010
0100
0001
0100
0010
1000
,
0100
0010
0001
0100
0010
1000
0100
0010
0001
0010
0100
1000
0001
0100
0010
1000
,
0001
1000
0100
0010
0001
0100
0001
1000
0100
0010
0001
0100
0001
1000
0010
0100
,
0001
0000
0000
0010
0000
0000
0001
0000
0000
1000
0000
0000
0010
0000
0000
0100
0000
0000
0001
0000
0000
0010
0000
0000
0001
0000
0000
1000
0000
0000
0100
0000
0000
0010
0000
0000
0001
0000
0010
0000
0100
0000
1000
0000
0100
0000
0010
0000
,
0001
0010
0001
0100
0001
1000
0001
0010
0001
0100
0001
1000
0001
0100
0001
0010
,
0001
1000
0001
0100
0001
0010
0001
1000
0001
0010
0001
0100
0001
0100
0001
0010
,
0001
1000
0010
1000
0001
0010
0001
1000
0010
1000
0001
0010
0001
1000
0010
1000
,
0001
0000
0000
0000
0000
0000
0000
0000
0000
0000
0100
0000
0000
0000
0000
0000
0000
0000
0000
0010
0000
0000
0000
0000
0000
0000
0000
0000
0000
1000
0000
0000
0000
0000
0000
0000
0000
0000
0001
0000
0000
0000
0000
0000
0000
0000
0000
0000
1000
0000
0000
0000
0000
0000
0000
0000
0000
0000
0010
0000
0000
0000
0000
0000
0000
0000
0000
1000
0000
0000
0000
0000
0000
0000
0000
0000
0000
0001
0000
0000
0000
0000
0000
0000
0000
0000
1000
0000
0000
0000
0000
0000
0000
0000
0000
0000
0001
0000
0000
0000
0000
0000
0000
0000
0000
0000
0100
0000
0000
0000
0000
0000
0000
0000
0000
0010
0000
0000
0000
0000
0000
0000
0000
0000
0000
1000
0000
0000
0000
0000
0000
0000
0000
0000
0010
0000
0000
0000
0000
0000
0000
0000
0000
0000
1000
0000
0000
0000
0000
0000
0000
0000
0000
0000
0001
0000
0000
0000
0000
0000
0000
0000
0000
1000
0000
0000
0000
0000
0000
0000
0000
0000
0000
0010
0000
0000
0000
0000
0000
0000
0000
0000
0100
0000
0000
0000
0000
0000
0000
0000
0000
0000
,
0001
0010
0100
1000
0010
1000
0001
0010
0100
1000
0010
1000
0001
0100
0010
1000
,
0100
1000
0001
0100
0010
1000
0100
1000
0001
0010
0100
1000
0001
0100
0010
1000
,
0001
0010
0001
0100
0010
1000
0001
0010
0001
0100
0010
1000
0001
0100
0001
0010
,
0100
0000
0000
1000
0000
0000
0001
0000
0000
0100
0000
0000
0001
0000
0000
0010
0000
0000
0100
0000
0000
1000
0000
0000
0001
0000
0000
0010
0000
0000
0001
0000
0000
0100
0000
0000
0001
0000
1000
0000
0001
0000
0010
0000
0100
0000
0010
0000
,
0001
1000
0010
0100
0001
0010
0001
1000
0010
0100
0001
0010
0001
1000
0100
0010
,
0001
0100
0001
1000
0100
0010
0001
0100
0001
1000
0010
0100
0001
1000
0100
0010
,
0001
1000
0100
1000
0010
0100
0001
1000
0100
1000
0010
0100
0001
1000
0010
1000
,
0100
0000
0000
0010
0000
0000
0001
0000
0000
1000
0000
0000
0010
0000
0000
1000
0000
0000
0100
0000
0000
0010
0000
0000
0001
0000
0000
1000
0000
0000
0100
0000
0000
1000
0000
0000
0001
0000
0100
0000
0010
0000
1000
0000
0010
0000
1000
0000
,
0001
0010
0100
1000
0010
0100
0001
0010
0100
1000
0010
0100
0001
0100
0010
1000
,
0100
0010
0001
0100
0010
1000
0100
0010
0001
0010
0100
1000
0001
0100
0010
1000
,
0001
1000
0100
0010
0001
0100
0001
1000
0100
0010
0001
0100
0001
1000
0010
0100
,
0001
0000
0000
0010
0000
0000
0001
0000
0000
1000
0000
0000
0010
0000
0000
0100
0000
0000
0001
0000
0000
0010
0000
0000
0001
0000
0000
1000
0000
0000
0100
0000
0000
0010
0000
0000
0001
0000
0010
0000
0100
0000
1000
0000
0100
0000
0010
0000
,
0001
0010
0001
0100
0001
1000
0001
0010
0001
0100
0001
1000
0001
0100
0001
0010
,
0001
1000
0001
0100
0001
0010
0001
1000
0001
0010
0001
0100
0001
0100
0001
0010
,
0001
1000
0010
1000
0001
0010
0001
1000
0010
1000
0001
0010
0001
1000
0010
1000
,
0001
0000
0000
0000
0000
0000
0000
0000
0000
0000
0100
0000
0000
0000
0000
0000
0000
0000
0000
0010
0000
0000
0000
0000
0000
0000
0000
0000
0000
1000
0000
0000
0000
0000
0000
0000
0000
0000
0001
0000
0000
0000
0000
0000
0000
0000
0000
0000
1000
0000
0000
0000
0000
0000
0000
0000
0000
0000
0010
0000
0000
0000
0000
0000
0000
0000
0000
1000
0000
0000
0000
0000
0000
0000
0000
0000
0000
0001
0000
0000
0000
0000
0000
0000
0000
0000
1000
0000
0000
0000
0000
0000
0000
0000
0000
0000
0001
0000
0000
0000
0000
0000
0000
0000
0000
0000
0100
0000
0000
0000
0000
0000
0000
0000
0000
0010
0000
0000
0000
0000
0000
0000
0000
0000
0000
1000
0000
0000
0000
0000
0000
0000
0000
0000
0010
0000
0000
0000
0000
0000
0000
0000
0000
0000
1000
0000
0000
0000
0000
0000
0000
0000
0000
0000
0001
0000
0000
0000
0000
0000
0000
0000
0000
1000
0000
0000
0000
0000
0000
0000
0000
0000
0000
0010
0000
0000
0000
0000
0000
0000
0000
0000
0100
0000
0000
0000
0000
0000
0000
0000
0000
0000
,
0001
0100
0010
1000
0100
1000
0001
0100
0010
1000
0100
1000
0001
0010
0100
1000
,
0010
1000
0001
0010
0100
1000
0010
1000
0001
0100
0010
1000
0001
0010
0100
1000
,
0001
0100
0001
0010
0100
1000
0001
0100
0001
0010
0100
1000
0001
0010
0001
0100
,
0010
0000
0000
1000
0000
0000
0001
0000
0000
0010
0000
0000
0001
0000
0000
0100
0000
0000
0010
0000
0000
1000
0000
0000
0001
0000
0000
0100
0000
0000
0001
0000
0000
0010
0000
0000
0001
0000
1000
0000
0001
0000
0100
0000
0010
0000
0100
0000
,
0001
1000
0100
0010
0001
0100
0001
1000
0100
0010
0001
0100
0001
1000
0010
0100
,
0001
0010
0001
1000
0010
0100
0001
0010
0001
1000
0100
0010
0001
1000
0010
0100
,
0001
1000
0010
1000
0100
0010
0001
1000
0010
1000
0100
0010
0001
1000
0100
1000
,
0010
0000
0000
0100
0000
0000
0001
0000
0000
1000
0000
0000
0100
0000
0000
1000
0000
0000
0010
0000
0000
0100
0000
0000
0001
0000
0000
1000
0000
0000
0010
0000
0000
1000
0000
0000
0001
0000
0010
0000
0100
0000
1000
0000
0100
0000
1000
0000
,
0001
0100
0010
1000
0100
0010
0001
0100
0010
1000
0100
0010
0001
0010
0100
1000
,
0010
0100
0001
0010
0100
1000
0010
0100
0001
0100
0010
1000
0001
0010
0100
1000
,
0001
1000
0010
0100
0001
0010
0001
1000
0010
0100
0001
0010
0001
1000
0100
0010
,
0001
0000
0000
0100
0000
0000
0001
0000
0000
1000
0000
0000
0100
0000
0000
0010
0000
0000
0001
0000
0000
0100
0000
0000
0001
0000
0000
1000
0000
0000
0010
0000
0000
0100
0000
0000
0001
0000
0100
0000
0010
0000
1000
0000
0010
0000
0100
0000
,
0001
0100
0001
0010
0001
1000
0001
0100
0001
0010
0001
1000
0001
0010
0001
0100
,
0001
1000
0001
0010
0001
0100
0001
1000
0001
0100
0001
0010
0001
0010
0001
0100
,
0001
1000
0100
1000
0001
0100
0001
1000
0100
1000
0001
0100
0001
1000
0100
1000
,
0001
0000
0000
0000
0000
0000
0000
0000
0000
0000
0010
0000
0000
0000
0000
0000
0000
0000
0000
0100
0000
0000
0000
0000
0000
0000
0000
0000
0000
1000
0000
0000
0000
0000
0000
0000
0000
0000
0001
0000
0000
0000
0000
0000
0000
0000
0000
0000
1000
0000
0000
0000
0000
0000
0000
0000
0000
0000
0100
0000
0000
0000
0000
0000
0000
0000
0000
1000
0000
0000
0000
0000
0000
0000
0000
0000
0000
0001
0000
0000
0000
0000
0000
0000
0000
0000
1000
0000
0000
0000
0000
0000
0000
0000
0000
0000
0001
0000
0000
0000
0000
0000
0000
0000
0000
0000
0010
0000
0000
0000
0000
0000
0000
0000
0000
0100
0000
0000
0000
0000
0000
0000
0000
0000
0000
1000
0000
0000
0000
0000
0000
0000
0000
0000
0100
0000
0000
0000
0000
0000
0000
0000
0000
0000
1000
0000
0000
0000
0000
0000
0000
0000
0000
0000
0001
0000
0000
0000
0000
0000
0000
0000
0000
1000
0000
0000
0000
0000
0000
0000
0000
0000
0000
0100
0000
0000
0000
0000
0000
0000
0000
0000
0010
0000
0000
0000
0000
0000
0000
0000
0000
0000
,
0001
0100
0010
1000
0100
1000
0001
0100
0010
1000
0100
1000
0001
0010
0100
1000
,
0010
1000
0001
0010
0100
1000
0010
1000
0001
0100
0010
1000
0001
0010
0100
1000
,
0001
0100
0001
0010
0100
1000
0001
0100
0001
0010
0100
1000
0001
0010
0001
0100
,
0010
0000
0000
1000
0000
0000
0001
0000
0000
0010
0000
0000
0001
0000
0000
0100
0000
0000
0010
0000
0000
1000
0000
0000
0001
0000
0000
0100
0000
0000
0001
0000
0000
0010
0000
0000
0001
0000
1000
0000
0001
0000
0100
0000
0010
0000
0100
0000
,
0001
1000
0100
0010
0001
0100
0001
1000
0100
0010
0001
0100
0001
1000
0010
0100
,
0001
0010
0001
1000
0010
0100
0001
0010
0001
1000
0100
0010
0001
1000
0010
0100
,
0001
1000
0010
1000
0100
0010
0001
1000
0010
1000
0100
0010
0001
1000
0100
1000
,
0010
0000
0000
0100
0000
0000
0001
0000
0000
1000
0000
0000
0100
0000
0000
1000
0000
0000
0010
0000
0000
0100
0000
0000
0001
0000
0000
1000
0000
0000
0010
0000
0000
1000
0000
0000
0001
0000
0010
0000
0100
0000
1000
0000
0100
0000
1000
0000
,
0001
0100
0010
1000
0100
0010
0001
0100
0010
1000
0100
0010
0001
0010
0100
1000
,
0010
0100
0001
0010
0100
1000
0010
0100
0001
0100
0010
1000
0001
0010
0100
1000
,
0001
1000
0010
0100
0001
0010
0001
1000
0010
0100
0001
0010
0001
1000
0100
0010
,
0001
0000
0000
0100
0000
0000
0001
0000
0000
1000
0000
0000
0100
0000
0000
0010
0000
0000
0001
0000
0000
0100
0000
0000
0001
0000
0000
1000
0000
0000
0010
0000
0000
0100
0000
0000
0001
0000
0100
0000
0010
0000
1000
0000
0010
0000
0100
0000
,
0001
0100
0001
0010
0001
1000
0001
0100
0001
0010
0001
1000
0001
0010
0001
0100
,
0001
1000
0001
0010
0001
0100
0001
1000
0001
0100
0001
0010
0001
0010
0001
0100
,
0001
1000
0100
1000
0001
0100
0001
1000
0100
1000
0001
0100
0001
1000
0100
1000
,
0001
0000
0000
0000
0000
0000
0000
0000
0000
0000
0010
0000
0000
0000
0000
0000
0000
0000
0000
0100
0000
0000
0000
0000
0000
0000
0000
0000
0000
1000
0000
0000
0000
0000
0000
0000
0000
0000
0001
0000
0000
0000
0000
0000
0000
0000
0000
0000
1000
0000
0000
0000
0000
0000
0000
0000
0000
0000
0100
0000
0000
0000
0000
0000
0000
0000
0000
1000
0000
0000
0000
0000
0000
0000
0000
0000
0000
0001
0000
0000
0000
0000
0000
0000
0000
0000
1000
0000
0000
0000
0000
0000
0000
0000
0000
0000
0001
0000
0000
0000
0000
0000
0000
0000
0000
0000
0010
0000
0000
0000
0000
0000
0000
0000
0000
0100
0000
0000
0000
0000
0000
0000
0000
0000
0000
1000
0000
0000
0000
0000
0000
0000
0000
0000
0100
0000
0000
0000
0000
0000
0000
0000
0000
0000
1000
0000
0000
0000
0000
0000
0000
0000
0000
0000
0001
0000
0000
0000
0000
0000
0000
0000
0000
1000
0000
0000
0000
0000
0000
0000
0000
0000
0000
0100
0000
0000
0000
0000
0000
0000
0000
0000
0010
0000
0000
0000
0000
0000
0000
0000
0000
0000
,
0002
0000
1000
0000
0100
0000
2003
3020
,
0100
1000
0100
2030
,
3002
0000
0013
0200
0000
1300
0002
0000
,
1000
0000
0000
0000
0000
0000
0000
0000
0000
0000
0000
0000
0010
0000
0000
0000
0000
0000
0000
0000
0000
0000
0000
0000
1003
0000
0000
0000
0000
0000
0010
0000
0000
1000
0000
0000
0001
0000
0010
0000
0100
0000
1000
0000
0001
0000
0010
0000
,
0200
1000
0010
1000
,
0010
1000
0010
1000
,
0310
1000
0100
0010
,
0001
0000
0000
0000
0000
0000
0000
0000
0000
0000
0000
0000
1000
0000
0000
0000
0000
0000
0000
0000
0000
0000
0000
0000
0010
0000
0000
0000
0000
0000
0100
0000
0000
0001
0000
0000
0100
0000
0010
0000
1000
0000
0001
0000
0100
0000
0001
0000
,
1000
0001
0100
0001
1000
0001
0100
0010
1000
0010
0100
0001
1000
0001
1000
0010
,
1000
0100
0010
0001
0010
0100
1000
0001
0010
0100
1000
0001
0010
0001
0010
0100
,
1000
0010
0100
0010
1000
0001
0100
0001
1000
0010
0100
0001
1000
0010
0100
0010
,
1000
0000
0000
0100
0000
0000
0010
0000
0000
0001
0000
0000
0010
0000
0000
0100
0000
0000
1000
0000
0000
0001
0000
0000
1000
0000
0000
0001
0000
0000
0010
0000
0000
0100
0000
0000
1000
0000
0100
0000
0010
0000
0100
0000
0010
0000
0001
0000
,
1000
0001
0100
0001
1000
0001
0100
0010
1000
0010
0100
0001
1000
0001
1000
0010
,
1000
0100
0010
0001
0010
0100
1000
0001
0010
0100
1000
0001
0010
0001
0010
0100
,
1000
0010
0100
0010
1000
0001
0100
0001
1000
0010
0100
0001
1000
0010
0100
0010
,
1000
0000
0000
0000
0000
0000
0000
0000
0000
0000
0001
0000
0000
0000
0000
0000
0000
0000
0000
0010
0000
0000
0000
0000
0000
0000
0000
0000
0000
0100
0000
0000
0000
0000
0000
0000
0000
0000
0010
0000
0000
0000
0000
0000
0000
0000
0000
0000
0001
0000
0000
0000
0000
0000
0000
0000
0000
0000
1000
0000
0000
0000
0000
0000
0000
0000
0000
0001
0000
0000
0000
0000
0000
0000
0000
0000
0000
1000
0000
0000
0000
0000
0000
0000
0000
0000
0100
0000
0000
0000
0000
0000
0000
0000
0000
0000
0010
0000
0000
0000
0000
0000
0000
0000
0000
0000
0001
0000
0000
0000
0000
0000
0000
0000
0000
1000
0000
0000
0000
0000
0000
0000
0000
0000
0000
0100
0000
0000
0000
0000
0000
0000
0000
0000
0010
0000
0000
0000
0000
0000
0000
0000
0000
0000
0100
0000
0000
0000
0000
0000
0000
0000
0000
0000
1000
0000
0000
0000
0000
0000
0000
0000
0000
0001
0000
0000
0000
0000
0000
0000
0000
0000
0000
1000
0000
0000
0000
0000
0000
0000
0000
0000
0001
0000
0000
0000
0000
0000
0000
0000
0000
0000
,
1000
0001
0100
0001
1000
0001
0100
0010
1000
0010
0100
0001
1000
0001
1000
0010
,
1000
0100
0010
0001
0010
0100
1000
0001
0010
0100
1000
0001
0010
0001
0010
0100
,
1000
0010
0100
0010
1000
0001
0100
0001
1000
0010
0100
0001
1000
0010
0100
0010
,
1000
0000
0000
0100
0000
0000
0010
0000
0000
0001
0000
0000
0010
0000
0000
0100
0000
0000
1000
0000
0000
0001
0000
0000
1000
0000
0000
0001
0000
0000
0010
0000
0000
0100
0000
0000
1000
0000
0100
0000
0010
0000
0001
0000
1000
0000
0100
0000
,
1000
0001
0100
0001
1000
0001
0100
0010
1000
0010
0100
0001
1000
0001
1000
0010
,
1000
0100
0010
0001
0010
0100
1000
0001
0010
0100
1000
0001
0010
0001
0010
0100
,
1000
0010
0100
0010
1000
0001
0100
0001
1000
0010
0100
0001
1000
0010
0100
0010
,
1000
0000
0000
0100
0000
0000
0010
0000
0000
0001
0000
0000
0010
0000
0000
0100
0000
0000
1000
0000
0000
0001
0000
0000
1000
0000
0000
0001
0000
0000
0010
0000
0000
0100
0000
0000
1000
0000
0001
0000
1000
0000
0001
0000
0010
0000
0100
0000
,
1000
0001
0100
0001
1000
0001
0100
0010
1000
0010
0100
0001
1000
0001
1000
0010
,
1000
0100
0010
0001
0010
0100
1000
0001
0010
0100
1000
0001
0010
0001
0010
0100
,
1000
0010
0100
0010
1000
0001
0100
0001
1000
0010
0100
0001
1000
0010
0100
0010
,
1000
0000
0000
0100
0000
0000
0010
0000
0000
0001
0000
0000
0010
0000
0000
0100
0000
0000
1000
0000
0000
0001
0000
0000
1000
0000
0000
0001
0000
0000
0010
0000
0000
0100
0000
0000
1000
0000
0100
0000
0010
0000
0100
0000
0010
0000
0001
0000
,
1000
0001
0100
0001
1000
0001
0100
0010
1000
0010
0100
0001
1000
0001
1000
0010
,
1000
0100
0010
0001
0010
0100
1000
0001
0010
0100
1000
0001
0010
0001
0010
0100
,
1000
0010
0100
0010
1000
0001
0100
0001
1000
0010
0100
0001
1000
0010
0100
0010
,
1000
0000
0000
0000
0000
0000
0000
0000
0000
0000
0001
0000
0000
0000
0000
0000
0000
0000
0000
0010
0000
0000
0000
0000
0000
0000
0000
0000
0000
0100
0000
0000
0000
0000
0000
0000
0000
0000
0010
0000
0000
0000
0000
0000
0000
0000
0000
0000
0001
0000
0000
0000
0000
0000
0000
0000
0000
0000
1000
0000
0000
0000
0000
0000
0000
0000
0000
0001
0000
0000
0000
0000
0000
0000
0000
0000
0000
1000
0000
0000
0000
0000
0000
0000
0000
0000
0100
0000
0000
0000
0000
0000
0000
0000
0000
0000
0010
0000
0000
0000
0000
0000
0000
0000
0000
0000
0001
0000
0000
0000
0000
0000
0000
0000
0000
1000
0000
0000
0000
0000
0000
0000
0000
0000
0000
0100
0000
0000
0000
0000
0000
0000
0000
0000
0010
0000
0000
0000
0000
0000
0000
0000
0000
0000
0100
0000
0000
0000
0000
0000
0000
0000
0000
0000
1000
0000
0000
0000
0000
0000
0000
0000
0000
0001
0000
0000
0000
0000
0000
0000
0000
0000
0000
1000
0000
0000
0000
0000
0000
0000
0000
0000
0001
0000
0000
0000
0000
0000
0000
0000
0000
0000
,
2000
3000
0000
0000
0000
0000
0000
0000
;
