#TITLE:Pleasant Farmer;
#SUBTITLE:(Frohlich Landmann);
#ARTIST:Jea;
#TITLETRANSLIT:;
#SUBTITLETRANSLIT:;
#ARTISTTRANSLIT:;
#CREDIT:;
#BANNER:pleasant bn.png;
#BACKGROUND:pleasant bg.png;
#LYRICSPATH:;
#CDTITLE:;
#MUSIC:Pleasant Farmer.ogg;
#OFFSET:1.125;
#SAMPLESTART:37.314;
#SAMPLELENGTH:18.702;
#SELECTABLE:YES;
#DISPLAYBPM:205.000;
#BPMS:0.000=205.310,512.000=127.860;
#STOPS:;
#BGCHANGES:;
// cache tags:
#FIRSTBEAT:4.000;
#LASTBEAT:518.333;
#SONGFILENAME:Songs/SHARPNELSTREAMZ v2/Pleasant Farmer/pleasant farmer.sm;
#HASMUSIC:1;
#HASBANNER:1;
#MUSICLENGTH:153.651;
// end cache tags

//---------------dance-single - JUMPSTRALIA----------------
#NOTES:
     dance-single:
     JUMPSTRALIA:
     Edit:
     17:
     1.000,1.000,1.000,0.013,1.000,1353.000,396.000,2.000,0.000,0.000:
0000
0000
0000
0000
,
1001
0000
0001
0000
0100
0000
0010
0100
0001
0100
0010
0000
1000
0000
0100
0000
,
0010
0000
0100
0000
1000
0000
0001
1000
0010
1000
0001
0000
0100
0000
0010
0000
,
0010
0000
1000
0000
0001
0000
0010
0001
1000
0001
0010
0000
0100
0000
1000
0000
,
0001
0000
0100
0000
0010
0000
1000
0000
0001
0000
0000
0100
0001
0000
1000
0000
,
1100
0000
0100
0000
0010
0000
0001
1000
0100
1000
0001
0000
0100
0000
0010
0000
,
1000
0000
0001
0000
0010
0000
0100
1000
0001
1000
0100
0000
0010
0000
0001
0000
,
0001
0000
1000
0000
0100
0000
0010
0001
1000
0001
0010
0000
0100
0000
1000
0000
,
0010
0000
0100
0000
0010
0000
1000
0000
0001
0000
0000
0010
0100
0000
0010
0000
,
0011
0000
0001
0000
1000
0000
0100
0010
0001
0010
0100
0000
1000
0000
0010
0000
,
0100
0000
0010
0000
1000
0000
0001
1000
0100
1000
0001
0000
0010
0000
0100
0000
,
0100
0000
1000
0000
0001
0000
0100
0001
1000
0001
0100
0000
0010
0000
1000
0000
,
0001
0000
0010
0000
0100
0000
1000
0000
0001
0000
0000
0010
0001
0000
1000
0000
,
1010
0000
0010
0000
0100
0000
0001
1000
0010
1000
0001
0000
0010
0000
0100
0000
,
1000
0000
0001
0000
0100
0000
0010
1000
0001
1000
0010
0000
0100
0000
0001
0000
,
0001
0000
1000
0000
0010
0000
0100
0001
1000
0001
0100
0000
0010
0000
1000
0000
,
0100
0000
0100
0000
0010
0000
0000
0100
1000
0001
1000
0000
0010
0000
0100
0000
,
0101
1001
1100
0110
0011
1001
1010
0101
,
0110
1001
1100
0011
1010
1001
0101
0110
,
1010
1001
0011
0110
1100
1001
0101
0110
,
1010
1001
0011
1100
1001
0101
1010
0110
,
0101
1001
1100
0011
1001
1010
0101
1001
,
1100
0011
0110
1100
1010
0101
1001
1100
,
0011
1001
1010
0101
1001
1100
0011
0110
,
1001
1010
0101
0110
1001
0110
1001
0110
,
1010
1001
0011
0110
1100
1001
0101
1010
,
0110
1001
0011
1100
0101
1001
1010
0110
,
0101
1001
1100
0110
0011
1001
1010
0110
,
0101
1001
1100
0011
1001
1010
0101
0110
,
1010
1001
0011
1100
1001
0101
1010
1001
,
0001
0100
0010
1000
0001
0010
0001
1000
0010
0100
0001
1000
0010
0100
0001
1000
,
0100
0010
0100
1000
0001
0010
0100
1000
0001
1000
0001
0100
0010
0100
0001
1000
,
0100
0000
0000
0000
0010
0000
0000
0000
0100
0000
0000
0010
0100
0000
1100
0000
,
0011
0001
1000
1010
0110
0100
0001
1001
,
1100
0110
0011
1001
0101
0100
0010
1010
,
1001
0011
1100
1010
0110
0101
1001
0011
,
1100
1000
1001
0001
0101
0100
0010
1010
,
0101
0001
1000
1100
0110
0010
0001
1001
,
0101
0110
1010
1001
1100
0100
0010
0011
,
1001
1010
0101
0011
0110
1100
1001
1010
,
0110
0100
0101
0001
1001
1000
0100
0110
,
0011
0001
1000
1010
0110
0100
0001
0101
,
0110
1010
1001
0011
0110
0100
1000
1100
,
0011
0110
1100
1001
1010
0110
0101
1001
,
0011
0010
0110
0100
1100
1000
0001
0101
,
1010
1000
0001
0011
0110
0100
1000
1010
,
0110
0101
0011
0110
1100
1000
0010
0110
,
0101
1001
1100
1010
0110
0101
1001
1000
,
1100
0100
0110
0010
0011
0000
0000
1000
,
1010
0010
0100
0101
1001
1000
0100
0110
,
0011
0101
1010
1100
0110
0010
0100
0010
,
0011
0001
1000
1010
0110
0100
0001
0101
,
0011
0000
1100
0000
1010
0000
0110
0000
0101
0000
0000
0001
1000
0000
0001
0000
,
0101
0100
0010
1010
1001
0001
0010
0110
,
1100
1010
0101
0011
0110
0100
1000
0001
,
0101
0100
0010
0110
0101
0001
1000
1100
,
0011
0000
0101
0000
1010
0000
1100
0000
1001
0000
0000
0001
0100
0000
0010
0000
,
1010
1000
0001
0011
0110
0100
1000
1001
,
1010
1100
0011
0101
0110
0010
0100
0001
,
1001
1000
0100
1100
0011
0001
1000
1010
,
0110
0000
0101
0000
0011
0000
0110
0000
1100
0000
0000
1000
0001
0000
0100
0000
,
0110
0000
0010
0000
1000
0000
1010
0000
0010
0100
0001
1000
0010
0100
0001
1000
,
0001
0010
0100
0010
0001
1000
0100
0010
0001
1000
0010
0100
0001
1000
0001
1000
,
0100
0010
0100
1000
0010
0100
0001
1000
0010
1000
0001
0010
0100
0010
0001
1000
,
0010
0100
0001
0100
0010
1000
0001
1000
0020
0000
0000
0000
0000
0000
1030
0000
,
1001
0001
1000
1100
0110
0010
0001
1001
,
1010
0110
0101
1001
0011
0010
0100
1100
,
1001
0101
1010
1100
0110
0011
1001
0101
,
1010
1000
1001
0001
0011
0010
0100
1100
,
0011
0001
1000
1010
0110
0100
0001
1001
,
0011
0110
1100
1001
1010
0010
0100
0101
,
1001
1100
0011
0101
0110
1010
1001
1100
,
0110
0010
0011
0001
1001
1000
0010
0110
,
0101
0001
1000
1100
0110
0010
0001
0011
,
0110
1100
1001
0101
0110
0010
1000
1010
,
0101
0110
1010
1001
1100
0110
0011
1001
,
0101
0100
0110
0010
1010
1000
0001
0011
,
1100
1000
0001
0101
0110
0010
1000
1100
,
0110
0011
0101
0110
1010
1000
0100
0110
,
0011
1001
1010
1100
0110
0011
1001
1000
,
1010
0010
0110
0100
0101
0000
0000
1000
,
1100
0100
0010
0011
1001
1000
0010
0110
,
0101
0011
1100
1010
0110
0100
0010
0100
,
0101
0001
1000
1100
0110
0010
0001
0011
,
0101
0000
1010
0000
1100
0000
0110
0000
0011
0000
0000
0001
1000
0000
0001
0000
,
0011
0010
0100
1100
1001
0001
0100
0110
,
1010
1100
0011
0101
0110
0010
1000
0001
,
0011
0010
0100
0110
0011
0001
1000
1010
,
0101
0000
0011
0000
1100
0000
1010
0000
1001
0000
0000
0001
0010
0000
0100
0000
,
1100
1000
0001
0101
0110
0010
1000
1001
,
1100
1010
0101
0011
0110
0100
0010
0001
,
1001
1000
0010
1010
0101
0001
1000
1100
,
0110
0000
0011
0000
0101
0000
0110
0000
1010
0000
0000
1000
0001
0000
0010
0000
,
0110
0000
0100
0000
1000
0000
1100
0000
0100
0010
0001
1000
0100
0010
0001
1000
,
0001
0100
0010
0100
0001
1000
0010
0100
0001
1000
0100
0010
0001
1000
0001
1000
,
0010
0100
0010
1000
0100
0010
0001
1000
0100
1000
0001
0100
0010
0100
0001
1000
,
0100
0010
0001
0010
0100
1000
0001
1000
0200
0000
0000
0000
0000
0000
1300
0000
,
0001
0100
0010
1000
0010
0100
0001
0010
0100
0010
0001
1000
0010
1000
0100
0010
,
0001
1000
0010
0100
0001
0010
0001
1000
0100
1000
0010
0100
0010
1000
0001
0010
,
0001
1000
0001
0100
0010
1000
0001
1000
0001
0010
0100
1000
0001
0100
0010
0100
,
0001
1000
0100
1000
0001
0100
0010
1000
0100
1000
0001
0010
0100
0010
0001
1000
,
0001
0100
0010
1000
0010
0100
0001
0010
0100
0010
0001
1000
0010
1000
0100
0010
,
0001
1000
0010
0100
0001
0010
0001
1000
0100
1000
0010
0100
0010
1000
0001
0010
,
0001
1000
0001
0100
0010
1000
0001
1000
0001
0010
0100
1000
0001
0100
0010
0100
,
0001
1000
0100
1000
0001
0100
0010
1000
0100
1000
0001
0100
0010
0100
0001
1000
,
0001
0010
0100
1000
0100
0010
0001
0100
0010
0100
0001
1000
0100
1000
0010
0100
,
0001
1000
0100
0010
0001
0100
0001
1000
0010
1000
0100
0010
0100
1000
0001
0100
,
0001
1000
0001
0010
0100
1000
0001
1000
0001
0100
0010
1000
0001
0010
0100
0010
,
0001
1000
0010
1000
0001
0010
0100
1000
0010
1000
0001
0100
0010
0100
0001
1000
,
0001
0010
0100
1000
0100
0010
0001
0100
0010
0100
0001
1000
0100
1000
0010
0100
,
0001
1000
0100
0010
0001
0100
0001
1000
0010
1000
0100
0010
0100
1000
0001
0100
,
0001
1000
0001
0010
0100
1000
0001
1000
0001
0100
0010
1000
0001
0010
0100
0010
,
0001
1000
0010
1000
0001
0010
0100
1000
0010
1000
0001
0100
0001
1000
0010
1000
,
0001
0100
0010
1000
0010
0100
0001
0010
0100
0010
0001
1000
0010
1000
0100
0010
,
0001
1000
0010
0100
0001
0010
0001
1000
0100
1000
0010
0100
0010
1000
0001
0010
,
0001
1000
0001
0100
0010
1000
0001
1000
0001
0010
0100
1000
0001
0100
0010
0100
,
0001
1000
0100
1000
0001
0100
0010
1000
0100
1000
0001
0010
0100
0010
0001
1000
,
0001
0100
0010
1000
0010
0100
0001
0010
0100
0010
0001
1000
0010
1000
0100
0010
,
0001
1000
0010
0100
0001
0010
0001
1000
0100
1000
0010
0100
0010
1000
0001
0010
,
0001
1000
0001
0100
0010
1000
0001
1000
0001
0010
0100
1000
0001
0100
0010
0100
,
0001
1000
0100
1000
0001
0100
0010
1000
0100
1000
0001
0100
0010
0100
0001
1000
,
0001
0010
0100
1000
0100
0010
0001
0100
0010
0100
0001
1000
0100
1000
0010
0100
,
0001
1000
0100
0010
0001
0100
0001
1000
0010
1000
0100
0010
0100
1000
0001
0100
,
0001
1000
0001
0010
0100
1000
0001
1000
0001
0100
0010
1000
0001
0010
0100
0010
,
0001
1000
0010
1000
0001
0010
0100
1000
0010
1000
0001
0100
0010
0100
0001
1000
,
0001
0010
0100
1000
0100
0010
0001
0100
0010
0100
0001
1000
0100
1000
0010
0100
,
0001
1000
0100
0010
0001
0100
0001
1000
0010
1000
0100
0010
0100
1000
0001
0100
,
0001
1000
0001
0010
0100
1000
0001
1000
0001
0100
0010
1000
0001
1000
0100
0010
,
0001
0101
1000
1100
,
0010
0000
0000
0000
0000
0000
1001
0000
0000
0000
0000
0001
0010
0100
1000
0000
0000
0000
0000
0000
0000
0000
0000
0000
;

//---------------dance-single - 15 (ZaiYLR)----------------
#NOTES:
     dance-single:
     15 (ZaiYLR):
     Challenge:
     15:
     1.000,1.000,0.898,0.013,1.000,1462.000,138.000,2.000,16.000,0.000:
0000
0000
0000
0000
,
1001
0000
0001
0000
0100
0000
0010
0100
0001
0100
0010
0000
1000
0000
0100
0000
,
0010
0000
0100
0000
1000
0000
0001
1000
0010
1000
0001
0000
0100
0000
0010
0000
,
0010
0000
1000
0000
0001
0000
0010
0001
1000
0001
0010
0000
0100
0000
1000
0000
,
0001
0000
0100
0000
0010
0000
1000
0000
0001
0000
0000
0100
0001
0000
1000
0000
,
1100
0000
0100
0000
0010
0000
0001
1000
0100
1000
0001
0000
0100
0000
0010
0000
,
1000
0000
0001
0000
0010
0000
0100
1000
0001
1000
0100
0000
0010
0000
0001
0000
,
0001
0000
1000
0000
0100
0000
0010
0001
1000
0001
0010
0000
0100
0000
1000
0000
,
0010
0000
0100
0000
0010
0000
1000
0000
0001
0000
0000
0010
0100
0000
0010
0000
,
0011
0000
0001
0000
1000
0000
0100
0010
0001
0010
0100
0000
1000
0000
0010
0000
,
0100
0000
0010
0000
1000
0000
0001
1000
0100
1000
0001
0000
0010
0000
0100
0000
,
0100
0000
1000
0000
0001
0000
0100
0001
1000
0001
0100
0000
0010
0000
1000
0000
,
0001
0000
0010
0000
0100
0000
1000
0000
0001
0000
0000
0010
0001
0000
1000
0000
,
1010
0000
0010
0000
0100
0000
0001
1000
0010
1000
0001
0000
0010
0000
0100
0000
,
1000
0000
0001
0000
0100
0000
0010
1000
0001
1000
0010
0000
0100
0000
0001
0000
,
0001
0000
1000
0000
0010
0000
0100
0001
1000
0001
0100
0000
0010
0000
1000
0000
,
0100
0000
0100
0000
0010
0000
0000
0100
1000
0001
1000
0000
0010
0000
0100
0000
,
M101
0000
0001
0000
1000
0000
0100
0010
0001
0010
0100
0000
1000
0000
0001
0000
,
0101
0000
0100
0000
0010
0000
1000
0010
0100
0001
1000
0000
1001
0000
1100
0000
,
0110
0000
0010
0000
0001
0000
0010
0100
1000
0100
0010
0000
0001
0000
1000
0000
,
1001
0000
0001
0000
0100
0000
0010
0000
1000
0000
0001
0010
0100
0000
0100
0000
,
110M
0000
1000
0000
0001
0000
0010
0001
1000
0001
0010
0000
0100
0000
1000
0000
,
1001
0000
0001
0000
0100
0000
0010
1000
0001
1000
0010
0000
0110
0000
0101
0000
,
1001
0000
1000
0000
0001
0000
0010
0100
1000
0100
0010
0000
0001
0000
1000
0000
,
1001
0000
0001
0000
0100
0000
0010
0000
1000
0000
0001
1000
0100
0000
0100
0000
,
011M
0000
0010
0000
0001
0000
1000
0001
0100
0001
1000
0000
0100
0000
0010
0000
,
0011
0000
0001
0000
1000
0000
0001
0100
0010
1000
0001
0000
1001
0000
1100
0000
,
0110
0000
0010
0000
0001
0000
1000
0001
0100
0001
1000
0000
0100
0000
0010
0000
,
0011
0000
0001
0000
1000
0000
0010
0000
0100
0000
0001
0010
0100
0000
0100
0000
,
110M
0000
1000
0000
0001
0000
0100
0001
1000
0001
0100
0000
0010
0000
1000
0000
,
0001
1000
0001
1000
0100
0010
0100
1000
0001
1000
0001
0100
0010
1000
0010
0100
,
0001
1000
0100
0010
0001
0010
0100
1000
0001
0100
0010
1000
0100
0010
0001
1000
,
0M10
0000
0000
0000
0010
0000
0000
0000
0010
0000
0000
1000
001M
0000
0100
0000
,
M101
0000
0001
0000
1000
0000
0100
0010
0001
0010
0100
0000
1000
0000
0001
1000
,
0001
0000
0100
0000
0010
0000
0100
0001
1000
0001
1000
0000
0100
0000
0010
0000
,
0011
0000
0001
0000
1000
0000
0001
0100
0010
0100
0001
0000
1000
0000
0100
0000
,
0110
0000
0010
0000
0011
0000
0001
0000
0101
0000
0100
0010
1000
0000
0001
0000
,
1001
0000
1000
0000
0100
0000
0010
0001
1000
0001
0010
0000
0100
0000
1000
0001
,
1000
0000
0001
0000
0100
0000
0001
1000
0100
1000
0001
0000
1000
0000
0010
0000
,
0110
0000
0100
0000
0001
0000
1000
0100
1000
0001
1000
0000
0010
0000
0100
0000
,
0101
0000
0001
0000
0011
0000
0010
0000
0110
0000
0100
1000
0001
0000
1000
0000
,
1M01
0000
0001
0000
1000
0000
0100
0010
0001
0010
0100
0000
1000
0000
0001
1000
,
0001
0000
0100
0000
0010
0000
0100
0001
1000
0001
1000
0000
0100
0000
0010
0000
,
0011
0000
0001
0000
1000
0000
0001
0100
0010
0100
0001
0000
1000
0000
0100
0000
,
0110
0000
0010
0000
0011
0000
0001
0000
0101
0000
0100
0010
1000
0000
0001
0000
,
1001
0000
1000
0000
0100
0000
0010
0001
1000
0001
0010
0000
0100
0000
1000
0001
,
1000
0000
0001
0000
0100
0000
0001
1000
0100
1000
0001
0000
1000
0000
0010
0000
,
0110
0000
0100
0000
0001
0000
1000
0100
1000
0001
1000
0000
0010
0000
0100
0000
,
0101
0001
0011
0010
0100
0000
0MM0
1000
,
1001
0000
0001
0000
0100
0000
0010
1000
0001
1000
0010
0000
0100
0000
0001
0000
,
0011
0110
1100
1001
0101
0100
0010
1000
,
1001
0000
0001
0000
0010
0000
0100
1000
0001
1000
0100
0000
0010
0000
0001
0000
,
1001
0000
1010
0000
0110
0000
0101
0000
1001
0000
0000
0001
1000
0000
0001
0000
,
0011
0000
0010
0000
0100
0000
1000
0001
0100
0001
1000
0000
0100
0000
0010
0000
,
0011
1001
0101
0110
1010
1000
0001
0010
,
0110
0000
0100
0000
1000
0000
0001
0010
0001
1000
0010
0000
0100
0000
0001
0000
,
0011
0000
0110
0000
1100
0000
1001
0000
0101
0000
0000
0100
0010
0000
1000
0000
,
1001
0000
0001
0000
0100
0000
0010
1000
0001
1000
0010
0000
0100
0000
0001
0000
,
0011
0110
1100
1001
0101
0100
0010
1000
,
1001
0000
0001
0000
0010
0000
0100
1000
0001
1000
0100
0000
0010
0000
0001
0000
,
1001
0000
1010
0000
0110
0000
0101
0000
1001
0000
0000
0001
1000
0000
0001
0000
,
M011
0000
0010
0000
0100
0000
1000
0000
0001
0100
0001
1000
0010
0100
0001
1000
,
0001
0010
0100
0010
0001
1000
0100
0010
0001
1000
0010
0100
0001
1000
0001
1000
,
0100
0010
0100
1000
0010
0100
0001
1000
0010
1000
0001
0010
0100
0010
0001
1000
,
0010
0100
0001
0100
0010
1000
0001
1000
0020
0000
0000
0000
0000
0000
1030
0000
,
1M01
0000
0001
0000
1000
0000
0010
0100
0001
0100
0010
0000
1000
0000
0001
1000
,
0001
0000
0010
0000
0100
0000
0010
0001
1000
0001
1000
0000
0010
0000
0100
0000
,
0101
0000
0001
0000
1000
0000
0001
0010
0100
0010
0001
0000
1000
0000
0010
0000
,
0110
0000
0100
0000
0101
0000
0001
0000
0011
0000
0010
0100
1000
0000
0001
0000
,
1001
0000
1000
0000
0010
0000
0100
0001
1000
0001
0100
0000
0010
0000
1000
0001
,
1000
0000
0001
0000
0010
0000
0001
1000
0010
1000
0001
0000
1000
0000
0100
0000
,
0110
0000
0010
0000
0001
0000
1000
0010
1000
0001
1000
0000
0100
0000
0010
0000
,
0011
0000
0001
0000
0101
0000
0100
0000
0110
0000
0010
1000
0001
0000
1000
0000
,
10M1
0000
0001
0000
1000
0000
0010
0100
0001
0100
0010
0000
1000
0000
0001
1000
,
0001
0000
0010
0000
0100
0000
0010
0001
1000
0001
1000
0000
0010
0000
0100
0000
,
0101
0000
0001
0000
1000
0000
0001
0010
0100
0010
0001
0000
1000
0000
0010
0000
,
0110
0000
0100
0000
0101
0000
0001
0000
0011
0000
0010
0100
1000
0000
0001
0000
,
1001
0000
1000
0000
0010
0000
0100
0001
1000
0001
0100
0000
0010
0000
1000
0001
,
1000
0000
0001
0000
0010
0000
0001
1000
0010
1000
0001
0000
1000
0000
0100
0000
,
0110
0000
0010
0000
0001
0000
1000
0010
1000
0001
1000
0000
0100
0000
0010
0000
,
0011
0001
0101
0100
0010
0000
0MM0
1000
,
1001
0000
0001
0000
0010
0000
0100
1000
0001
1000
0100
0000
0010
0000
0001
0000
,
0101
0110
1010
1001
0011
0010
0100
1000
,
1001
0000
0001
0000
0100
0000
0010
1000
0001
1000
0010
0000
0100
0000
0001
0000
,
1001
0000
1100
0000
0110
0000
0011
0000
1001
0000
0000
0001
1000
0000
0001
0000
,
0101
0000
0100
0000
0010
0000
1000
0001
0010
0001
1000
0000
0010
0000
0100
0000
,
0101
1001
0011
0110
1100
1000
0001
0100
,
0110
0000
0010
0000
1000
0000
0001
0100
0001
1000
0100
0000
0010
0000
0001
0000
,
0101
0000
0110
0000
1010
0000
1001
0000
0011
0000
0000
0010
0100
0000
1000
0000
,
1001
0000
0001
0000
0010
0000
0100
1000
0001
1000
0100
0000
0010
0000
0001
0000
,
0101
0110
1010
1001
0011
0010
0100
1000
,
1001
0000
0001
0000
0100
0000
0010
1000
0001
1000
0010
0000
0100
0000
0001
0000
,
1001
0000
1100
0000
0110
0000
0011
0000
1001
0000
0000
0001
1000
0000
0001
0000
,
M101
0000
0100
0000
0010
0000
1000
0000
0001
0100
0001
1000
0010
0100
0001
1000
,
0001
0010
0100
0010
0001
1000
0100
0010
0001
1000
0010
0100
0001
1000
0001
1000
,
0100
0010
0100
1000
0010
0100
0001
1000
0010
1000
0001
0010
0100
0010
0001
1000
,
0010
0100
0001
0100
0010
1000
0001
1000
0020
0000
0000
0000
0000
0000
1030
0000
,
0001
0100
0010
1000
0010
0100
0001
0010
0100
0010
0001
1000
0010
1000
0100
0010
,
0001
1000
0010
0100
0001
0010
0001
1000
0100
1000
0010
0100
0010
1000
0001
0010
,
0001
1000
0001
0100
0010
1000
0001
1000
0001
0010
0100
1000
0001
0100
0010
0100
,
0001
1000
0100
1000
0001
0100
0010
1000
0100
1000
0001
0010
0100
0010
0001
1000
,
0001
0100
0010
1000
0010
0100
0001
0010
0100
0010
0001
1000
0010
1000
0100
0010
,
0001
1000
0010
0100
0001
0010
0001
1000
0100
1000
0010
0100
0010
1000
0001
0010
,
0001
1000
0001
0100
0010
1000
0001
1000
0001
0010
0100
1000
0001
0100
0010
0100
,
0001
1000
0100
1000
0001
0100
0010
1000
0100
1000
0001
0100
0010
0100
0001
1000
,
0001
0010
0100
1000
0100
0010
0001
0100
0010
0100
0001
1000
0100
1000
0010
0100
,
0001
1000
0100
0010
0001
0100
0001
1000
0010
1000
0100
0010
0100
1000
0001
0100
,
0001
1000
0001
0010
0100
1000
0001
1000
0001
0100
0010
1000
0001
0010
0100
0010
,
0001
1000
0010
1000
0001
0010
0100
1000
0010
1000
0001
0100
0010
0100
0001
1000
,
0001
0010
0100
1000
0100
0010
0001
0100
0010
0100
0001
1000
0100
1000
0010
0100
,
0001
1000
0100
0010
0001
0100
0001
1000
0010
1000
0100
0010
0100
1000
0001
0100
,
0001
1000
0001
0010
0100
1000
0001
1000
0001
0100
0010
1000
0001
0010
0100
0010
,
0001
1000
0010
1000
0001
0010
0100
1000
0010
1000
0001
0100
0001
1000
0010
1000
,
0001
0100
0010
1000
0010
0100
0001
0010
0100
0010
0001
1000
0010
1000
0100
0010
,
0001
1000
0010
0100
0001
0010
0001
1000
0100
1000
0010
0100
0010
1000
0001
0010
,
0001
1000
0001
0100
0010
1000
0001
1000
0001
0010
0100
1000
0001
0100
0010
0100
,
0001
1000
0100
1000
0001
0100
0010
1000
0100
1000
0001
0010
0100
0010
0001
1000
,
0001
0100
0010
1000
0010
0100
0001
0010
0100
0010
0001
1000
0010
1000
0100
0010
,
0001
1000
0010
0100
0001
0010
0001
1000
0100
1000
0010
0100
0010
1000
0001
0010
,
0001
1000
0001
0100
0010
1000
0001
1000
0001
0010
0100
1000
0001
0100
0010
0100
,
0001
1000
0100
1000
0001
0100
0010
1000
0100
1000
0001
0100
0010
0100
0001
1000
,
0001
0010
0100
1000
0100
0010
0001
0100
0010
0100
0001
1000
0100
1000
0010
0100
,
0001
1000
0100
0010
0001
0100
0001
1000
0010
1000
0100
0010
0100
1000
0001
0100
,
0001
1000
0001
0010
0100
1000
0001
1000
0001
0100
0010
1000
0001
0010
0100
0010
,
0001
1000
0010
1000
0001
0010
0100
1000
0010
1000
0001
0100
0010
0100
0001
1000
,
0001
0010
0100
1000
0100
0010
0001
0100
0010
0100
0001
1000
0100
1000
0010
0100
,
0001
1000
0100
0010
0001
0100
0001
1000
0010
1000
0100
0010
0100
1000
0001
0100
,
0001
1000
0001
0010
0100
1000
0001
1000
0001
0100
0010
1000
0001
1000
0100
0010
,
0001
0101
1000
1100
,
0010
0000
0000
0000
0000
0000
1001
0000
0000
0000
0000
0001
0010
0100
1000
0000
0000
0000
0000
0000
0000
0000
0000
0000
;
