#TITLE:Brandish Headless;
#SUBTITLE:;
#ARTIST:Jun. A & S.S.H.;
#TITLETRANSLIT:;
#SUBTITLETRANSLIT:;
#ARTISTTRANSLIT:;
#CREDIT:;
#BANNER:../fallback-bn.png;
#BACKGROUND:../fallback-bg.png;
#LYRICSPATH:;
#CDTITLE:cdtitle.png;
#MUSIC:Brandish - Headless.ogg;
#OFFSET:1.782;
#SAMPLESTART:88.740;
#SAMPLELENGTH:8.720;
#SELECTABLE:YES;
#BPMS:0.000=110.040;
#STOPS:;
#BGCHANGES:;
// cache tags:
#FIRSTBEAT:4.000;
#LASTBEAT:345.500;
#SONGFILENAME:Songs/SSSC PACK/[Kanji Pad Edit] - Brandish/Brandish Headless.sm;
#HASMUSIC:1;
#HASBANNER:1;
#MUSICLENGTH:190.759;
// end cache tags

//---------------dance-single - ----------------
#NOTES:
     dance-single:
     :
     Challenge:
     15:
     1.000,1.000,1.000,0.052,1.000,1415.000,291.000,10.000,0.000,1.000:

0000
0000
0000
0000
,
0011
0000
0010
0100
0010
0000
0000
0000
0001
0000
0100
0010
0100
0000
0010
0100
0001
0010
0100
1000
0001
0000
0001
1000
0100
0010
0001
0100
0010
0000
0100
0010
,
0110
1000
1000
0010
1000
1000
0100
1000
1000
0010
1000
1000
0010
0001
0110
1000
,
0011
0100
0100
0010
0100
0100
0001
0100
0100
0010
0100
0100
1001
0010
1001
0100
,
1001
0010
0010
1000
0010
0010
0100
0010
0010
1000
0010
0010
1000
0100
0011
0100
,
1001
0000
0001
0000
0010
0000
0101
0000
0100
0000
1000
0000
0110
0000
0001
0000
1010
0000
0100
0000
0100
0000
1001
0000
0010
0000
0010
0000
0100
0010
0100
0000
,
1010
0001
0001
0110
0001
0001
1010
0001
0001
1100
0001
0001
0110
1100
0011
1010
,
0011
1000
1000
0101
1000
1000
0011
1000
1000
0110
1000
1000
0101
1010
0110
0011
,
1010
0100
0100
1010
0100
0100
1001
0100
0100
0011
0100
0100
1010
0110
0101
0011
,
1001
0000
0100
0000
1010
0000
0100
0000
0011
0000
1000
0000
0101
0000
0010
0000
1001
0000
0010
0000
1100
0000
0010
0000
0101
0000
0100
0000
0001
0100
0010
0100
,
0001
0100
0100
1010
0100
0100
0011
0100
0100
1001
0100
0100
0011
1001
0101
0011
,
1100
0010
0010
1001
0010
0010
0101
0010
0010
1100
0010
0010
1001
1100
1010
0101
,
1010
0100
0100
1010
0100
0100
1001
0100
0100
0011
0100
0100
1010
0110
0101
0011
,
1001
0000
0010
0000
0101
0000
1000
0000
0110
0000
0001
0000
1010
0000
0100
0000
1001
0000
0010
0000
0101
0000
0010
0000
1100
0000
0010
0000
1001
0000
1000
0001
,
1001
0000
1001
0001
0001
0001
0101
0100
0100
0100
0110
0010
0010
0010
1010
1000
,
1000
0000
1000
0000
1001
0000
0001
0000
0001
0000
0001
0000
1001
0000
0010
0000
1000
0100
0010
0001
0010
0100
1000
0001
0010
0100
1000
0100
0010
0001
1000
0100
,
0010
0001
0100
0010
1000
0001
0010
0100
1000
0001
0100
0010
1000
0100
0010
0001
1000
0000
0100
0010
0001
0000
0001
0100
0010
0100
0001
0000
1000
0000
0010
1000
,
0100
0010
0001
0000
0001
0000
0001
0000
0001
0010
0100
1000
0001
0000
0001
0010
0100
0000
0100
0000
0110
0000
0000
0000
0010
0000
0110
0000
0000
0000
0100
0000
,
1100
0000
0010
0000
0001
0000
0001
0010
0100
0000
0100
0010
0100
0000
0100
0010
0001
0000
0001
0000
0101
0000
0000
0000
0100
0000
0110
0000
0000
0000
0010
0000
,
1010
0000
1000
0000
0010
0000
1000
0000
0010
0100
0010
0100
0011
0000
0001
0000
0101
0000
0100
0000
0110
0000
0000
0000
0010
0000
1010
0000
0000
0000
1000
0000
,
1010
0010
1000
1001
0000
0001
0101
0000
0100
0100
0110
0000
0010
0110
0000
1000
,
1000
0100
0010
0001
1000
0100
0010
0001
0100
0010
1000
0100
0010
0000
0001
0000
0011
0000
0010
0000
0110
0000
0000
0000
0100
0000
0110
0000
0000
0000
0010
0000
,
0011
0000
0100
0000
0010
0000
1000
0100
0010
0000
0010
0001
0010
0000
0010
0100
1000
0000
1000
0000
1010
0000
0000
0000
0010
0000
0110
0000
0000
0000
0100
0000
,
0101
0000
0001
0000
0100
0000
0001
0000
0100
0010
0100
0010
1100
0000
1000
0000
1010
0000
0010
0000
0110
0000
0000
0000
0100
0000
0101
0000
0000
0000
0001
0000
,
0101
0100
0001
1001
0000
1000
1010
0000
0100
0100
0110
0000
0100
0110
0000
0001
,
0001
0000
0001
0010
0000
0010
0100
0000
0100
1000
0010
0100
0001
0010
0100
0000
1100
0000
1000
0000
1010
0000
0000
0000
0010
0000
1010
0000
0000
0000
1000
0000
,
1001
0000
0010
0000
0001
0000
0001
0010
0100
0000
0100
1000
0100
0000
0100
0010
0001
0000
0001
0000
1001
0000
0000
0000
1000
0000
1010
0000
0000
0000
0010
0000
,
1010
0000
1000
0000
0010
0000
1000
0000
0010
0100
0010
0100
0011
0000
0001
0000
1001
0000
1000
0000
1010
0000
0000
0000
0010
0000
0110
0000
0000
0000
0100
0000
,
0110
0010
0100
0101
0000
0001
1001
0000
1000
1000
1010
0000
0010
1010
0000
1000
,
1000
0100
0010
0001
1000
0100
0010
0001
0100
0010
1000
0100
0010
0000
0000
0000
0101
0000
0001
0000
1001
0000
0000
0000
1000
0000
1001
0000
0000
0000
0001
0000
,
0011
0000
0010
0000
0010
0000
0001
0010
0100
0000
0100
1000
0100
0000
0100
0010
0001
0000
0001
0000
0101
0000
0000
0000
0001
0000
1001
0000
0000
0000
1000
0000
,
1010
0000
1000
0000
0010
0000
1000
0000
0010
0100
0010
0100
0011
0000
0010
0000
1010
0000
1000
0000
1001
0000
0000
0000
1000
0000
1100
0000
0000
0000
0100
0000
,
1100
1000
0010
0110
0000
0010
0011
0000
1000
1000
1001
0000
1000
1001
0000
1000
,
1000
0000
1000
0100
0000
0100
0010
0000
0010
0001
0100
0010
1000
0100
0010
0001
2000
0000
0000
0000
0000
0000
0000
0000
0010
0000
0000
0000
0000
0000
0000
0000
,
3001
0010
0100
1000
0010
0100
0010
1000
0010
0010
0110
0000
0100
0110
0000
0010
,
0011
0000
0000
0000
0001
0000
0101
0000
0010
0100
0010
0100
0010
0000
0000
0000
0002
0000
0000
0000
0000
0000
0000
0000
0100
0000
0000
0000
0000
0000
0000
0000
,
1003
0100
0010
0001
1000
0010
0100
0001
1000
0000
0001
0100
0000
0000
0000
0000
,
0101
0000
1010
0110
0000
0000
0000
0000
0002
0000
0000
0000
0100
0000
0000
0000
,
1003
0100
0010
0001
0100
0010
0100
0001
0001
0001
1001
0000
0010
0110
0000
0001
,
1001
0000
0000
0000
0010
0000
0110
0000
0001
0100
0010
0100
0001
0000
0000
0000
1000
0000
0000
0000
1001
0000
0000
0000
0001
0000
0001
0000
1001
0000
0000
0000
,
1000
0100
0010
0001
1000
0000
0000
0000
0001
0010
0100
1000
0001
0000
0000
0000
1000
0000
0100
0000
0010
0000
0001
0000
1000
0000
0100
0000
0010
0000
0001
0000
,
1001
0000
1001
0000
0001
0100
0010
0000
1001
0000
1000
0010
0100
0000
1001
0000
0101
0000
0010
0000
0010
0000
0101
0000
0010
0000
0010
0000
1001
0000
0010
0000
,
0010
1100
0010
0010
0101
0110
0011
1010
0110
0001
0001
1100
0001
0001
1010
0001
,
0001
0110
0001
0001
0110
1001
0101
0011
1001
0010
0010
0101
0010
0010
1100
0010
,
0010
0101
0010
0010
0101
1010
0110
0011
1001
0100
1010
0001
0110
1000
0101
0010
,
1001
0000
0100
0000
1010
0000
0100
0000
0011
0000
0100
0000
0010
0100
0010
0100
0001
0000
0010
0000
0001
0000
0011
0000
0100
0000
1000
0000
0011
0000
0100
0000
,
0010
1100
0001
0010
1100
0011
0110
1100
0101
0010
0100
1010
0100
1000
0011
0100
,
0010
1100
0010
0100
0011
1001
0110
1010
1001
0100
0010
1100
0010
0001
1100
0010
,
0100
0011
1000
0100
0011
1100
0110
0011
1010
0100
0010
0001
0000
0000
0001
0000
,
1000
0000
0000
0000
0000
0000
0010
0000
0000
0100
0000
0000
0001
0010
0100
0010
0100
1000
0001
0010
0100
0010
0100
1000
,
0001
0000
0000
0000
0000
0000
0000
0000
0010
0000
0000
0000
0000
0000
0000
0000
0100
0000
0000
0000
0000
0000
0000
0000
0010
0000
0000
0000
0000
0000
0000
0000
0100
0000
0000
0000
0000
0000
0000
0000
1000
0000
0000
0000
0000
0000
0000
0000
0001
0000
0000
0000
0000
0000
0000
0000
0010
0000
0000
0000
0000
0000
0000
0000
0100
0000
0000
0000
0000
0000
0000
0000
0010
0000
0000
0000
0000
0000
0000
0000
0100
0000
0000
0000
0000
0000
0000
0000
1000
0000
0000
0000
0000
0000
0000
0000
0001
0000
0000
0000
0000
0000
0000
0000
0000
0000
0000
0000
1000
0000
0000
0000
0000
0000
0010
0000
0000
0000
0000
0000
1000
0000
0000
0000
0000
0000
0000
0000
0000
0000
0000
0000
0001
0000
0000
0000
0000
0000
0000
0000
0000
0000
0000
0000
1000
0000
0000
0000
0000
0000
0010
0000
0000
0000
0000
0000
1000
0000
0000
0000
0000
0000
0000
0000
0000
0000
0000
0000
0001
0000
0000
0000
0000
0000
0000
0000
0000
0000
0000
0000
0001
0000
0000
0000
0000
0000
0010
0000
0000
0000
0000
0000
,
0100
0010
0100
0000
0100
0000
0100
0000
0100
0010
0001
0010
0100
0000
0100
0010
0001
0000
0000
0000
0000
0000
1000
0000
0000
0000
0000
0000
0010
0000
0000
0000
,
0000
0000
0100
0000
0001
0000
0010
0100
0010
0000
0100
1000
0001
0000
0100
0001
0100
0000
0010
0000
1000
0000
0010
0000
0000
0000
0100
0000
0010
0000
0000
0000
,
1000
0000
0000
0000
0010
0000
0000
0000
1000
0001
0100
0010
1000
0000
0100
0000
0010
0000
0001
0000
0010
0000
0100
0000
0010
0000
0001
0000
0010
0000
0100
0000
,
0010
0001
0010
0100
0010
0001
0010
0100
1000
0000
0000
0001
0000
0001
0100
0010
,
1000
0100
0010
0001
1000
0010
0100
0010
0100
0001
0010
0100
1000
0000
0000
0000
0010
0000
1000
0000
0100
0000
0010
0000
0000
0000
0001
0000
1000
0000
0100
0000
,
0010
0000
0000
0000
0100
0000
1000
0001
0100
0000
0010
1000
0010
0000
0010
1000
0001
0000
0100
0000
0010
0000
0000
0000
1000
0000
1000
0000
0100
0000
0010
0000
,
0000
0000
0010
0000
0100
0000
1000
0000
0001
0100
0010
1000
0100
0000
1000
0000
0100
0000
0000
0000
0010
0000
0100
0000
0000
0000
1000
0000
0010
0000
1000
0000
,
0101
1000
0100
0011
0000
0010
0100
1000
0010
0000
0000
0000
0000
0000
0000
0000
,
1001
0000
0010
0100
0001
0100
0010
0000
0010
0100
0001
0100
0010
1000
0010
0000
1000
0000
0100
0000
0010
0000
0001
0000
1000
0000
0001
0000
0010
0000
0100
0000
,
1000
0100
0010
0000
0001
0000
1000
0000
0010
0100
0001
0000
0100
0000
0010
0000
1000
0000
0010
0000
0100
0000
0002
0000
0000
0003
0010
0100
1000
0000
0100
0000
,
0010
0000
0001
0000
0100
0000
0010
0000
0000
0000
0100
0010
0100
0000
0001
0000
1000
0000
0001
0010
0100
0000
0010
0100
1000
0000
0001
0010
0100
1000
0100
0010
,
0001
0000
0100
0010
0000
1000
0000
0000
0010
0000
0000
0000
0010
0100
0010
1000
,
0001
0100
0010
0100
0001
0010
0100
1000
0100
0010
0001
1000
0001
0010
0100
1000
0100
0010
0001
1000
0100
0010
0001
1000
0100
0010
0001
0010
0100
1000
0010
0100
,
0001
0010
0100
1000
0010
0100
0001
1000
0100
0010
0001
1000
0010
0100
0001
0010
0100
1000
0100
0010
0001
0010
0100
1000
0100
0010
0001
0100
0010
1000
0100
0010
,
0001
0000
0000
0000
0000
0000
0100
0000
0000
0000
0000
0000
0010
0000
0000
0000
0000
0000
1000
0000
0000
0000
0000
0000
0100
0000
0000
0000
0000
0000
0010
0000
0000
0000
0000
0000
0001
0000
0000
0000
0000
0000
0100
0000
0000
0000
0000
0000
0020
0000
0000
0000
0000
0000
0000
0000
0000
0000
0000
0000
0000
0000
0000
0000
0000
0000
0000
0000
0000
0000
0000
0000
0000
0000
0000
0000
0000
0000
0000
0000
0000
0000
0000
0000
0000
0000
0000
0000
0000
0000
0000
0000
0000
0000
0000
0000
0031
0000
0000
0000
0000
0000
0000
0000
0100
0000
0000
0000
0000
0000
0000
0000
0010
0000
0000
0000
0000
0000
0000
0000
1000
0000
0000
0000
0000
0000
0000
0000
0001
0000
0000
0000
0000
0000
0000
0000
0100
0000
0000
0000
0000
0000
0000
0000
0010
0000
0000
0000
0000
0000
0000
0000
1000
0000
0000
0000
0000
0000
0000
0000
0001
0000
0000
0000
0000
0000
0000
0000
0100
0000
0000
0000
0000
0000
0000
0000
0010
0000
0000
0000
0000
0000
0000
0000
1000
0000
0000
0000
0000
0000
0000
0000
,
0001
0010
0100
1000
0100
0010
0001
0010
0100
1000
0100
0010
0100
1000
0100
0010
0100
1000
0100
0010
0001
1000
0020
0000
0000
0000
0000
0000
0000
0000
0000
0000
,
1031
0000
0010
0100
0001
0100
0010
0000
0010
0100
0001
1000
0010
0100
0010
0100
0010
0000
0010
1000
0100
0010
0001
0010
0100
0000
1000
0100
0010
0001
0010
0100
,
0010
0000
0001
1000
0010
0100
0001
0000
1000
0010
0100
0010
1000
0010
0100
0000
0002
0000
0000
0000
0000
0000
0000
0000
0000
0000
0000
0000
0000
0000
0000
0000
,
0023
0000
0000
0000
0230
0000
0000
0000
0301
1000
0010
0100
0001
1000
0010
0100
,
0001
1000
0010
0100
0000
0010
0000
0010
0100
0000
0100
0010
0000
0000
0000
0000
,
1001
0000
0110
1001
0000
0000
0000
0000
0002
0000
0000
0000
0100
0000
0000
0000
,
1003
0100
0010
0001
0100
0010
0100
0010
1000
0001
1001
0000
0010
0110
0000
0001
,
1001
0000
0000
0000
0010
0000
0110
0000
1000
0100
0010
0001
1000
0000
0000
0000
1000
0000
0000
0000
1001
0000
0000
0000
0001
0000
0001
0000
1001
0000
0000
0000
,
1000
0100
0010
0001
1000
0000
0000
0000
0001
0010
0100
1000
0001
0000
0000
0000
1000
0000
0100
0000
0010
0000
0001
0000
1000
0000
0100
0000
0010
0000
0001
0000
,
1001
0000
1001
0000
1000
0100
0010
0000
1001
0000
0001
0100
0010
0000
1001
0000
0101
0000
0010
0000
0010
0000
0101
0000
0010
0000
0010
0000
1001
0000
0010
0000
,
0010
1100
0010
0010
0101
0110
0011
1010
0110
0001
0001
1100
0001
0001
1010
0001
,
0001
1100
0001
0001
0110
1001
0101
0011
1100
0010
0010
0101
0010
0010
1001
0010
,
0010
1100
0010
0010
0101
1010
0110
0011
1001
0100
1010
0001
0110
1000
0101
0010
,
1001
0000
0100
0000
1010
0000
0100
0000
0011
0000
0100
0000
0010
0100
0010
0100
0110
0000
0100
0000
0010
0000
1100
0000
0010
0000
0001
0000
1100
0000
0010
0000
,
0100
0011
1000
0100
0011
1100
0110
0011
1010
0100
0010
0101
0010
0001
1100
0010
,
0100
0011
0100
0010
1100
1001
0110
0101
1001
0010
0100
0011
0100
1000
0011
0100
,
0010
1100
0001
0010
1100
0011
0110
1100
0101
0010
0100
1000
0000
0000
1000
0000
,
0001
0000
0000
0000
0000
0000
0100
0000
0000
0010
0000
0000
1000
0100
0010
0100
0010
0001
1000
0100
0010
0100
0010
0001
,
1000
0000
0000
0000
0000
0000
0000
0000
0100
0000
0000
0000
0000
0000
0000
0000
0010
0000
0000
0000
0000
0000
0000
0000
0100
0000
0000
0000
0000
0000
0000
0000
0010
0000
0000
0000
0000
0000
0000
0000
0001
0000
0000
0000
0000
0000
0000
0000
1000
0000
0000
0000
0000
0000
0000
0000
0100
0000
0000
0000
0000
0000
0000
0000
0010
0000
0000
0000
0000
0000
0000
0000
0100
0000
0000
0000
0000
0000
0000
0000
0010
0000
0000
0000
0000
0000
0000
0000
0001
0000
0000
0000
0000
0000
0000
0000
1000
0000
0000
0000
0000
0000
0000
0000
0000
0000
0000
0000
0001
0000
0000
0000
0000
0000
0100
0000
0000
0000
0000
0000
0001
0000
0000
0000
0000
0000
0000
0000
0000
0000
0000
0000
1000
0000
0000
0000
0000
0000
0000
0000
0000
0000
0000
0000
0001
0000
0000
0000
0000
0000
0100
0000
0000
0000
0000
0000
0001
0000
0000
0000
0000
0000
0000
0000
0000
0000
0000
0000
1000
0000
0000
0000
0000
0000
0000
0000
0000
0000
0000
0000
1000
0000
0000
0000
0000
0000
0100
0000
0000
0000
0000
0000
,
0010
0100
0010
0000
0010
0000
0010
0000
0010
0100
1000
0100
0010
0000
0010
0100
1000
0000
0000
0000
0001
0000
0000
0000
0001
0000
0000
0000
0001
0000
0010
0100
,
1000
0100
0010
0001
0010
0100
1000
0100
0010
0001
0010
0100
1001
0000
0000
0000
0000
0000
0000
0000
0000
0000
0000
0000
0000
0000
0000
0000
0000
0000
0000
0000
;
