#TITLE:Chaoz Airflow;
#SUBTITLE:;
#ARTIST:ParagonX9;
#TITLETRANSLIT:;
#SUBTITLETRANSLIT:;
#ARTISTTRANSLIT:;
#CREDIT:;
#BANNER:../Banner.png;
#BACKGROUND:../BG.png;
#LYRICSPATH:;
#CDTITLE:../CDTitleKIRBY.png;
#MUSIC:Chaoz Airflow.ogg;
#OFFSET:-1.403;
#SAMPLESTART:35.689;
#SAMPLELENGTH:12.000;
#SELECTABLE:YES;
#BPMS:0.000=175.000;
#STOPS:;
#BGCHANGES:;
// cache tags:
#FIRSTBEAT:0.000;
#LASTBEAT:740.000;
#SONGFILENAME:Songs/Index Fusion - Part 2/Chaoz Airflow - [Kirby5464]/Chaoz Airflow.sm;
#HASMUSIC:1;
#HASBANNER:1;
#MUSICLENGTH:253.753;
// end cache tags

//---------------dance-single - Kirby5464 - Oni (16.----------------
#NOTES:
     dance-single:
     Kirby5464 - Oni (16.:
     Challenge:
     15:
     1.000,1.000,0.016,0.347,1.000,2214.000,4.000,88.000,1.000,0.000:

1000
0100
0010
0001
0100
0001
1000
0100
,
1000
0010
1000
0001
0010
0001
1000
0100
,
0010
0001
1000
0100
1000
0010
0100
0001
,
0010
0001
1000
0100
0010
0100
1000
0010
,
0100
0001
0010
0001
1000
0001
0100
0010
,
1000
0100
0010
0001
1000
0010
1000
0001
,
1000
0001
0010
0100
1000
0001
1000
0001
,
0100
0010
0100
0001
1000
0001
1000
0001
,
0010
0001
0010
0100
1000
0100
1000
0001
,
0100
0001
1000
0010
0100
0001
2000
0000
,
3001
1000
0100
1000
0001
0010
0100
0010
,
0001
1000
0001
1000
0010
0100
0020
0000
,
0030
0100
0001
1000
0010
0100
0001
1000
,
0001
0010
0100
1000
0100
1000
0002
0000
,
1003
0010
1001
0001
0100
0101
0010
0100
,
0110
0000
0001
0000
1000
0000
1001
0000
0010
0100
0001
0010
0100
1000
0001
0100
,
0020
1030
0010
0100
0001
0010
0001
1000
0100
0010
0001
1000
0100
1000
0001
0100
,
0010
1000
0010
0100
0001
1000
0100
1000
0001
0100
0010
1000
0001
0010
0001
1000
,
0100
0010
0001
0100
0010
1000
0010
0100
0001
1000
0100
1000
0010
0100
0010
1000
,
0001
0100
0001
1000
0010
0100
0010
1000
0001
0010
0001
1000
0100
0010
0001
0100
,
0001
0010
0001
1000
0100
1000
0001
0010
0100
1000
0001
1000
0010
0100
0001
1000
,
0001
0010
0100
1000
0001
1000
0010
0100
0001
0010
0100
1000
0001
0010
0001
1000
,
0010
1000
0100
1000
0001
0010
0001
1000
0010
1000
0100
0010
0100
1000
0001
0010
,
0001
1000
0010
0100
0001
1000
0001
0010
0100
1000
0001
0010
0001
0100
0010
0100
,
0001
1000
0100
0010
0001
1000
0001
0100
0010
1000
0001
0100
0001
1000
0100
1000
,
0010
0100
0001
1000
0100
0010
0001
1000
0001
0100
0010
1000
0001
1000
0100
0010
,
0001
0100
0001
1000
0001
0010
0100
1000
0010
1000
0001
0100
0001
1000
0001
1000
,
0100
1000
0010
0100
0001
1000
0001
0010
0100
1000
0001
0100
0001
0010
0100
1000
,
0001
0100
0010
1000
0001
1000
0001
0010
0001
1000
0010
1000
0100
1000
0001
0100
,
0010
1000
0001
0100
0001
0010
0001
1000
0100
1000
0001
0100
0001
1000
0100
1000
,
0010
0100
0001
1000
0100
1000
0010
0100
,
0010
1000
0001
0100
0001
1000
0100
1000
0010
0100
0001
1000
0100
1000
0010
0100
,
0020
1030
0001
0010
0001
1000
0100
0010
0001
0100
0010
1000
0010
0100
0001
1000
,
0100
1000
0010
0100
0010
1000
0001
0100
0001
1000
0010
0100
0010
1000
0001
0010
,
0001
1000
0100
0010
0001
0100
0001
0010
0001
1000
0100
1000
0001
0010
0100
1000
,
0001
1000
0010
0100
0001
1000
0001
0010
0100
1000
0001
1000
0010
0100
0001
0010
,
0100
1000
0001
0010
0001
1000
0010
1000
0100
1000
0001
0010
0001
1000
0010
1000
,
0100
0010
0100
1000
0001
0010
0001
1000
0010
0100
0001
1000
0001
0010
0100
1000
,
0001
0010
0001
0100
0010
0100
0001
1000
0100
0010
0001
1000
0001
0100
0010
1000
,
0001
0100
0001
1000
0100
1000
0010
0100
0001
1000
0100
0010
0001
1000
0001
0100
,
0010
1000
0001
1000
0100
0010
0001
0100
0001
1000
0001
0010
0100
1000
0010
1000
,
0001
0100
0001
1000
0001
1000
0100
1000
0010
0100
0001
1000
0001
0010
0100
1000
,
0001
0100
0001
0010
0100
1000
0001
0100
0010
1000
0001
1000
0001
0010
0001
1000
,
0010
1000
0100
1000
0001
0100
0010
1000
0001
0100
0001
0010
0001
1000
0100
1000
,
0001
0100
0001
1000
0010
0100
0001
1000
0100
1000
0010
0100
0010
1000
0001
0100
,
0001
1000
0010
0100
0001
0010
0001
1000
0100
0010
0001
1000
0010
0100
0001
0010
,
0100
1000
0001
0100
0010
1000
0100
1000
0010
0100
0001
0010
0100
1000
0001
0100
,
0020
2030
3200
2300
3020
0230
0302
0023
0230
2300
3002
0203
0320
2030
3200
2300
,
3001
0010
0001
1000
0010
0100
0001
0100
0010
1000
0001
0010
0001
1000
0010
0100
,
0001
1000
0100
1000
0001
0010
0100
1000
0010
0100
0001
0100
0010
1000
0001
0010
,
0001
0100
0010
0100
0001
1000
0010
1000
0001
0100
0010
0100
0001
1000
0100
1000
,
0001
0010
0100
1000
0010
1000
0100
1000
0001
0010
0001
1000
0100
0010
0001
1000
,
0001
0100
0010
1000
0001
1000
0100
0010
0001
1000
0001
0100
0010
1000
0100
0010
,
0001
1000
0100
1000
0001
0100
0001
0010
0001
1000
0100
1000
0001
0100
0001
0010
,
0100
0010
0001
1000
0100
1000
0001
0100
0010
1000
0001
1000
0100
0010
0001
1000
,
0100
1000
0010
0100
0010
1000
0001
0010
0100
1000
0001
1000
0010
0100
0001
1000
,
0010
1000
0001
0010
0001
0100
0010
1000
0001
0010
0100
1000
0001
1000
0010
0100
,
0001
1000
0001
0010
0100
1000
0010
1000
0001
1000
0100
0010
0001
0100
0001
1000
,
0010
1000
0001
1000
0001
0010
0001
0100
0010
1000
0001
1000
0100
0010
0001
1000
,
0010
1000
0100
0010
0001
1000
0010
0100
0001
1000
0001
1000
0100
1000
0001
0100
,
0001
0010
0001
1000
0010
0100
0001
1000
0010
1000
0100
1000
0001
0010
0001
1000
,
0010
1000
0001
0010
0001
1000
0100
0010
0001
1000
0010
0100
0001
0010
0001
1000
,
0100
1000
0010
0100
0001
1000
0001
0010
,
0100
0000
1000
0000
0001
0000
0100
0000
0001
1000
0001
0010
0100
1000
0001
0100
,
0002
1003
0100
1000
0001
0100
0010
1000
0010
0100
0001
1000
0100
1000
0001
0100
,
0010
1000
0001
0010
0001
1000
0100
0010
0001
0100
0010
1000
0010
0100
0001
1000
,
0100
1000
0010
0100
0010
1000
0001
0100
0001
1000
0010
0100
0010
1000
0001
0010
,
0001
1000
0100
0010
0001
0100
0001
0010
0001
1000
0100
1000
0001
0010
0100
1000
,
0001
1000
0010
0100
0001
1000
0001
0010
0100
1000
0001
1000
0010
0100
0001
0010
,
0100
1000
0001
0010
0001
1000
0010
1000
0100
1000
0001
0010
0001
1000
0010
1000
,
0100
0010
0100
1000
0001
0010
0001
1000
0010
0100
0001
1000
0001
0010
0100
1000
,
0001
0010
0001
0100
0010
0100
0001
1000
0100
0010
0001
1000
0001
0100
0010
1000
,
0001
0100
0001
1000
0100
1000
0010
0100
0001
1000
0100
0010
0001
1000
0001
0100
,
0010
1000
0001
1000
0100
0010
0001
0100
0001
1000
0001
0010
0100
1000
0010
1000
,
0001
0100
0001
1000
0001
1000
0100
1000
0010
0100
0001
1000
0001
0010
0100
1000
,
0001
0100
0001
0010
0100
1000
0001
0100
0010
1000
0001
1000
0001
0010
0001
1000
,
0010
1000
0100
1000
0001
0100
0010
1000
0001
0100
0001
0010
0001
1000
0100
1000
,
0001
0100
0001
1000
0100
1000
0001
0100
0010
1000
0100
1000
0001
0010
0001
1000
,
0100
0010
0001
1000
0010
0100
0001
0010
,
0002
0000
0000
0000
,
2003
3200
0320
0230
,
0000
0000
0000
0000
,
2300
3020
0230
0302
,
0000
0000
0000
0000
,
2003
3002
0023
0032
,
0000
0000
0000
0000
,
2003
3200
0320
0230
,
0000
0000
0000
0000
,
2300
3020
0230
0302
,
0000
0000
0000
0000
,
0023
0032
2003
3200
,
0000
0000
0000
0000
,
0320
0230
2300
3020
,
0000
0000
0000
0000
,
0230
0302
2003
3002
,
0000
0000
0000
0000
,
0023
0032
2003
3020
,
0000
0000
0000
0000
0000
0000
2030
3002
,
2003
0000
0000
0000
,
0000
0000
3002
0023
,
0230
0000
0000
0000
0000
0000
0000
0000
0000
0000
0000
0000
0000
0000
0000
0000
0000
0000
0000
0000
0000
0000
0000
0000
2300
0000
0000
0000
0000
0000
0000
3000
,
2000
0000
3020
0000
,
0230
0000
0000
0000
,
0000
0000
0320
0000
,
2030
0000
0000
0000
,
0000
0000
0000
0000
0000
0000
3002
0023
,
0230
0000
0000
0000
,
0000
0000
2300
3020
,
2030
0000
0000
3002
,
2003
0000
3002
0000
,
2003
0000
0000
0000
,
0000
0000
3020
0000
,
0130
0001
1000
0010
0100
0010
1000
0001
,
0100
0001
0010
0100
1000
0010
0100
0010
,
1000
0001
1000
0001
1000
0001
1000
0001
1000
0001
1000
0001
1000
0001
1000
0001
,
1000
0010
0100
0001
1000
0001
0010
0100
1000
0010
0100
0001
2000
0000
0000
0000
,
3001
0010
0001
1000
0100
0010
0001
1000
0100
1000
0001
0100
0010
1000
0010
0100
,
0001
1000
0100
1000
0001
0100
0010
1000
0001
0010
0001
1000
0100
0010
0001
0100
,
0010
1000
0010
0100
0001
1000
0100
1000
0010
0100
0010
1000
0001
0100
0001
1000
,
0010
0100
0010
1000
0001
0010
0001
1000
0100
0010
0001
0100
0001
0010
0001
1000
,
0100
1000
0001
0010
0100
1000
0001
1000
0010
0100
0001
1000
0001
0010
0100
1000
,
0001
1000
0010
0100
0001
0010
0100
1000
0001
0010
0001
1000
0010
1000
0100
1000
,
0001
0010
0001
1000
0010
1000
0100
0010
0100
1000
0001
0010
0001
1000
0010
0100
,
0001
1000
0001
0010
0100
1000
0001
0010
0001
0100
0010
0100
0001
1000
0100
0010
,
0001
1000
0001
0100
0010
1000
0001
0100
0001
1000
0100
1000
0010
0100
0001
1000
,
0100
0010
0001
1000
0001
0100
0010
1000
0001
1000
0100
0010
0001
0100
0001
1000
,
0001
0010
0100
1000
0010
1000
0001
0100
0001
1000
0001
1000
0100
1000
0010
0100
,
0001
1000
0001
0010
0100
1000
0001
0100
0001
0010
0100
1000
0001
0100
0010
1000
,
0001
1000
0001
0010
0001
1000
0010
1000
0100
1000
0001
0100
0010
1000
0001
0100
,
0001
0010
0001
1000
0100
1000
0001
0100
0001
1000
0100
1000
0001
0100
0001
0010
,
0100
0000
1000
1000
0000
0001
0001
0000
,
0200
0000
0000
0000
0000
0000
0320
0032
,
2003
3100
1000
0010
0100
0001
1000
0100
1000
0010
0100
0010
1000
0001
0010
0001
,
1000
0100
0010
0001
0100
0010
1000
0010
0100
0001
1000
0100
1000
0010
0100
0010
,
1000
0001
0100
0001
1000
0010
0100
0010
1000
0001
0010
0001
1000
0100
0010
0001
,
0100
0001
0010
0001
1000
0100
1000
0001
0010
0100
1000
0001
1000
0010
0100
0001
,
1000
0001
0010
0100
1000
0001
1000
0010
0100
0001
0010
0100
1000
0001
0010
0001
,
1000
0010
1000
0100
1000
0001
0010
0001
1000
0010
1000
0100
0010
0100
1000
0001
,
0010
0001
1000
0010
0100
0001
1000
0001
0010
0100
1000
0001
0010
0001
0100
0010
,
0100
0001
1000
0100
0010
0001
1000
0001
0100
0010
1000
0001
0100
0001
1000
0100
,
1000
0010
0100
0001
1000
0100
0010
0001
1000
0001
0100
0010
1000
0001
1000
0100
,
0010
0001
0100
0001
1000
0001
0010
0100
1000
0010
1000
0001
0100
0001
1000
0001
,
1000
0100
1000
0010
0100
0001
1000
0001
0010
0100
1000
0001
0100
0001
0010
0100
,
1000
0001
0100
0010
1000
0001
1000
0001
0010
0001
1000
0010
1000
0100
1000
0001
,
0100
0010
1000
0001
0100
0001
0010
0001
1000
0100
1000
0001
0100
0001
1000
0010
,
0100
0001
1000
0100
1000
0010
0100
0010
1000
0001
0100
0001
1000
0010
0100
0001
,
0010
0001
1000
0100
0010
0001
1000
0010
0100
0001
0010
0100
1000
0001
0100
0010
,
1000
0100
1000
0010
0100
0001
0010
0100
1000
0001
0100
0010
1000
0100
1000
0010
,
0100
0001
0010
0100
1000
0001
0100
0010
1000
0100
1000
0001
0010
0001
1000
0010
,
0100
0001
0100
0010
1000
0001
0010
0001
1000
0010
0100
0001
1000
0100
1000
0001
,
0010
0100
1000
0010
0100
0001
0100
0010
1000
0001
0010
0001
0100
0010
0100
0001
,
1000
0010
1000
0001
0100
0010
0100
0001
1000
0100
1000
0001
0010
0100
1000
0010
,
1000
0100
1000
0001
0010
0001
1000
0100
0010
0001
1000
0001
0100
0010
1000
0001
,
1000
0100
0010
0001
1000
0001
0100
0010
1000
0100
0010
0001
1000
0100
1000
0001
,
0100
0001
0010
0001
1000
0100
1000
0001
0100
0001
0010
0100
0010
0001
1000
0100
,
1000
0001
0100
0010
1000
0001
1000
0100
0010
0001
1000
0100
1000
0010
0100
0010
,
1000
0001
0010
0100
1000
0001
1000
0010
0100
0001
1000
0010
1000
0001
0010
0001
,
0100
0010
1000
0001
0010
0100
1000
0001
1000
0010
0100
0001
1000
0001
0010
0100
,
1000
0010
1000
0001
1000
0100
0010
0001
0100
0001
1000
0010
1000
0001
1000
0001
,
0010
0001
0100
0010
1000
0001
1000
0100
0010
0001
1000
0010
1000
0100
0010
0001
,
1000
0010
0100
0001
1000
0001
1000
0100
1000
0001
0100
0001
0010
0001
1000
0010
,
0100
0001
1000
0010
1000
0100
1000
0001
0010
0001
1000
0010
1000
0001
0010
0001
,
1000
0100
0010
0001
1000
0010
0100
0001
0010
0001
1000
0001
1000
0100
0010
0001
,
1000
0010
1000
0001
0010
0001
1000
0010
0100
0001
0100
0010
1000
0001
0010
0001
,
1000
0010
0100
0001
1000
0100
1000
0001
0010
0100
1000
0010
0100
0001
0100
0010
,
1000
0001
0010
0001
0100
0010
0100
0001
1000
0010
1000
0001
0100
0010
0100
0001
,
1000
0100
1000
0001
0010
0100
1000
0010
1000
0100
1000
0001
0010
0001
1000
0100
,
0010
0001
1000
0001
0100
0010
1000
0001
1000
0100
0010
0001
1000
0001
0100
0010
,
1000
0100
0010
0001
1000
0100
1000
0001
0100
0001
0010
0001
1000
0100
1000
0001
,
0100
0001
0010
0100
0010
0001
1000
0100
1000
0001
0100
0010
1000
0001
1000
0100
,
0010
0001
1000
0100
1000
0010
0100
0010
1000
0001
0010
0100
1000
0001
1000
0010
,
0100
0001
1000
0010
1000
0001
0010
0001
0100
0010
1000
0001
0010
0100
1000
0001
,
1000
0010
0100
0001
1000
0001
0010
0100
1000
0010
1000
0001
1000
0100
0010
0001
,
0100
0001
1000
0010
1000
0001
1000
0001
0010
0001
0100
0010
1000
0001
1000
0100
,
0010
0001
1000
0010
1000
0100
0010
0001
1000
0010
0100
0001
1000
0001
1000
0100
,
1000
0001
0100
0001
0010
0001
1000
0010
0100
0001
1000
0010
1000
0100
1000
0001
,
0010
0001
1000
0010
1000
0001
0010
0001
1000
0010
0100
0001
0010
0001
1000
0100
,
1000
0001
1000
0001
0010
0100
1000
0001
0100
0001
1000
0100
1000
0001
0100
0010
,
1000
0010
0100
0001
1000
0100
1000
0001
0100
0010
1000
0001
0010
0001
1000
0100
,
0010
0001
0100
0010
1000
0010
0100
0001
1000
0100
1000
0010
0100
0010
1000
0001
,
0200
0000
0000
0000
,
0000
0000
0000
0000
,
0300
0000
0000
0000
,
0000
0000
0000
0000
,
0000
0000
0000
0000
,
00M0
0000
0000
0000
;
