#TITLE:Exciting Hyper Highspeed Star;
#SUBTITLE:;
#ARTIST:DJ Sharpnel;
#TITLETRANSLIT:;
#SUBTITLETRANSLIT:;
#ARTISTTRANSLIT:;
#CREDIT:;
#BANNER:ehhss-bn.png;
#BACKGROUND:ehhss-bg.png;
#LYRICSPATH:;
#CDTITLE:cd-yanah.png;
#MUSIC:Exciting Hyper Highspeed Star.mp3;
#OFFSET:-0.320;
#SAMPLESTART:26.260;
#SAMPLELENGTH:18.000;
#SELECTABLE:YES;
#BPMS:0.000=180.150;
#STOPS:;
#BGCHANGES:;
// cache tags:
#FIRSTBEAT:0.000;
#LASTBEAT:314.000;
#SONGFILENAME:Songs/new cc/Exciting Hyper Highspeed Star/EHHS.sm;
#HASMUSIC:1;
#HASBANNER:1;
#MUSICLENGTH:109.451;
// end cache tags

//---------------dance-single - Blank----------------
#NOTES:
     dance-single:
     Blank:
     Hard:
     11:
     1.000,1.000,1.000,0.420,1.000,806.000,127.000,46.000,0.000,1.000:

0110
0010
0011
0001
1001
1000
1010
0010
,
0110
0100
1100
1000
1010
0010
0011
0001
,
1001
0010
0110
0001
0101
0010
1010
0100
,
1100
0010
0011
0100
0110
2000
3200
0302
,
0023
0000
0000
0000
0032
0000
0000
2003
3000
0100
0001
0010
0001
0010
0100
0010
,
0001
0000
1000
0001
0000
0100
0010
0000
1000
0100
0010
0001
0000
1000
0010
0000
,
0010
0000
0100
0010
0000
1000
0010
0100
0001
0010
0100
1000
0000
0001
0100
0000
,
0001
0000
1000
0001
0000
0010
0100
0000
0001
0010
0100
0001
0000
1000
0100
0000
,
0020
0000
0000
0000
2030
0000
0000
3200
0300
0001
0010
0001
0010
0001
1000
0100
,
0010
0000
1000
0010
0000
0001
0010
0000
0100
0010
0100
1000
0000
0001
0010
0000
,
1000
0000
0100
0010
0000
0001
0100
0001
0100
1000
0001
0010
0000
1000
0100
0000
,
0001
0000
0100
0001
0000
0010
0100
0000
2000
0000
0000
0000
3002
0000
0000
0000
,
0203
0000
0000
0000
0320
0000
0000
2030
3000
0001
1000
0001
1000
0100
0010
0001
,
1000
0000
0010
1000
0000
0100
1000
0000
0001
1000
0001
0010
0000
1000
0001
0000
,
0010
0000
1000
0100
0000
0010
0001
0010
0001
1000
0010
0100
0000
0010
1000
0000
,
0100
0000
0001
0100
0000
1000
0100
0000
0001
0010
0001
0100
0000
0010
1000
0000
,
0020
0000
0000
0000
2030
0000
0000
3200
0300
0001
1000
0010
1000
0010
0001
0100
,
1000
0000
0010
1000
0000
0001
1000
0000
0100
1000
0100
0001
0000
1000
0010
0000
,
0001
0000
1000
0001
0000
1000
0100
0010
0001
0010
1000
0100
0000
0010
0100
0000
,
1000
0000
0010
0100
0000
0001
0010
0000
2000
0000
0000
0000
3200
0000
0000
0000
,
0302
1000
0103
1010
0101
1000
0011
1100
,
0010
1001
0110
0101
1010
0011
1100
0110
,
0001
1100
0110
1001
0011
0101
1001
0110
,
2000
0100
3001
0010
0002
0010
1003
0010
,
1001
0010
0110
0011
0001
1000
0010
1000
,
0010
0101
1010
0101
0110
1001
0110
0011
,
1100
0110
0010
1002
0010
1000
0010
1000
,
0103
0000
0010
0000
1000
0000
0100
0000
0001
0010
0100
1000
0001
1000
0100
0010
,
0001
1100
0011
0110
1001
0110
1010
0101
,
0010
1100
0110
0011
1001
0110
1010
0011
,
1000
0110
1010
0101
1100
0011
1001
0110
,
0020
0001
1030
0001
0020
1000
0031
1000
,
0110
0001
1100
0011
0100
0010
0001
1000
,
0010
1001
0110
1001
0011
1100
0011
1010
,
0101
0010
1100
0011
1000
0100
0001
0010
,
0100
0000
1000
0000
0110
0000
0001
0000
0010
0100
0010
0000
1100
0000
0010
0000
,
1010
0001
0011
0110
1000
0101
0010
1100
,
1000
0001
0110
0001
1100
0010
0101
0010
,
0110
1000
1100
0011
1000
0110
0001
1001
,
0100
0001
0011
0010
0110
0100
1100
1000
,
1001
0010
0110
1001
0100
0011
0100
1100
,
1000
0010
0101
0001
0011
0010
1010
1000
,
1001
0110
0001
1100
0110
1000
0001
0110
,
1000
0011
1100
0110
0001
0110
0100
1001
,
0110
1000
0001
1000
0001
1000
0001
1000
0001
0010
0001
0010
0001
0010
0001
0010
,
1000
0010
1000
0010
1000
0010
1000
0010
0100
0010
0100
0010
0100
0010
0100
0010
,
0001
0010
0100
1000
0001
0010
0100
1000
0001
0100
0010
1000
0001
0100
0010
1000
,
0001
0000
1000
0000
0010
0000
0100
0000
0001
1000
0001
0000
0010
0000
0100
0000
,
1000
0010
0100
0001
1000
0010
0100
0001
1000
0100
0010
0001
1000
0100
0010
0001
,
0100
0000
1000
0000
0010
0000
0001
0000
0010
0100
0010
0000
1000
0000
0001
0000
,
1000
0100
0010
1000
0001
0010
0100
0001
1000
0100
0010
1000
0001
0010
0100
0001
,
1100
0010
0100
0011
1000
0010
1001
0110
,
0010
0001
0100
1000
0010
0001
0100
1000
0010
0100
0001
1000
0010
0100
0001
1000
,
0011
0000
1100
0000
0110
0000
1001
0000
0001
0010
0100
0000
1000
0000
0001
0000
,
1000
0100
0010
0100
1000
0001
0010
0100
0001
0010
0100
0010
0001
1000
0100
0010
,
0001
0000
1000
0000
0010
0000
0100
0000
0001
1000
0001
0000
0010
0000
0100
0000
,
1000
0100
0010
0001
0010
1000
0100
1000
0001
0010
0100
1000
0100
0001
0010
0001
,
1000
0010
0100
0001
1000
0010
0100
0001
,
1000
0100
0010
0001
1000
0100
0010
0001
0010
0100
1000
0001
0010
0100
1000
0001
,
0100
0010
1000
0001
0100
0010
1000
0001
0100
0001
1000
0010
0100
0001
1000
0010
,
1000
0100
0010
0001
1000
0100
0010
0001
0100
0010
0100
0010
0001
1000
0001
1000
,
0001
0010
0100
1000
0001
0010
0100
1000
0011
0000
0002
0000
0023
0000
0230
0000
,
2300
0000
0000
0000
3200
0000
0000
0320
0030
0001
1000
0001
1000
0100
0010
0001
,
1000
0000
0010
0100
0000
0001
1000
0000
0100
0001
0010
0100
0000
1000
0010
0000
,
0001
0000
0100
0010
0000
1000
0010
1000
0010
0100
0001
0010
0000
0100
1000
0000
,
0001
0000
1000
0001
0000
0100
0010
0000
1000
0100
1000
0010
0000
1000
0001
0000
,
0200
0000
0000
0000
0302
0000
0000
0023
0030
1000
0001
1000
0001
0010
0100
1000
,
0001
0000
0100
0001
0000
1000
0001
0000
0010
0001
0100
1000
0000
0001
0010
0000
,
1000
0000
0001
1000
0000
0010
0100
0001
0100
0010
1000
0100
0000
0001
1000
0000
,
0100
0000
0001
0010
0000
0100
1000
0000
0002
0000
0000
0000
2003
0000
0000
0000
,
3020
0000
0000
0000
2030
0000
0000
3002
0003
0100
1000
0100
0001
1000
0010
0100
,
0001
0000
1000
0001
0000
0100
0010
0000
1000
0100
1000
0001
0000
0010
0100
0000
,
0001
0000
1000
0100
0000
0010
0001
0100
1000
0010
0100
0001
0000
0100
1000
0000
,
0100
0000
0001
1000
0000
0100
0010
0000
0001
0100
0001
1000
0000
0001
0010
0000
,
2000
0000
0000
0000
3002
0000
0000
0203
0300
1000
0001
1000
0010
0100
0010
0001
,
1000
0000
0010
0100
0000
0001
0010
0000
0100
1000
0001
0010
0000
0100
0001
0000
,
0010
0000
1000
0100
0000
1000
0010
0100
0001
0010
0100
0001
0000
1000
0010
0000
,
0001
0000
1000
0010
0000
0100
0010
0000
2000
0000
0000
0000
3002
0000
0000
0000
,
0223
0000
0330
0000
;
