#TITLE:Pokémon Theme;
#SUBTITLE:(dance remix);
#ARTIST:Billy Crawford;
#TITLETRANSLIT:Pokemon;
#SUBTITLETRANSLIT:;
#ARTISTTRANSLIT:;
#CREDIT:;
#BANNER:pokemondance-bn.jpg;
#BACKGROUND:pokemondance-bg.jpg;
#LYRICSPATH:;
#CDTITLE:!giuocobTitle.jpg;
#MUSIC:Pokemon.mp3;
#OFFSET:-0.240;
#SAMPLESTART:100.000;
#SAMPLELENGTH:12.000;
#SELECTABLE:YES;
#BPMS:0.000=138.000;
#STOPS:;
#BGCHANGES:;
// cache tags:
#FIRSTBEAT:0.000;
#LASTBEAT:540.000;
#SONGFILENAME:Songs/dragon force/Pokemon Theme (dance remix)/Pokemon.sm;
#HASMUSIC:1;
#HASBANNER:1;
#MUSICLENGTH:245.846;
// end cache tags

//---------------dance-single - ----------------
#NOTES:
     dance-single:
     :
     Hard:
     11:
     1.000,1.000,1.000,0.134,0.742,1330.000,401.000,33.000,0.000,0.000:
1002
0000
1000
0000
1000
0000
0000
0010
0010
0000
0010
0000
0010
0000
0000
0103
,
0120
0000
0100
0000
0100
0000
0000
1000
1000
0000
1000
0000
1000
0000
0000
0031
,
0201
0000
0001
0000
0001
0000
0000
0010
0010
0000
0010
0000
0010
0000
0000
1300
,
1020
0000
1000
0000
1000
0000
0000
1000
1000
0000
1000
0000
1000
0000
0000
0031
,
2001
0000
0001
0000
0001
0000
0000
0010
0010
0000
0010
0000
0010
0000
0000
3001
,
0021
0000
0001
0000
0001
0000
0000
0100
0100
0000
0100
0000
0100
0000
0000
0031
,
0201
0000
0001
0000
0001
0000
0000
0310
2010
0000
0010
0000
0010
0000
0000
3010
,
0210
0001
1000
0010
1000
0010
0001
0310
2001
0100
0010
0001
0100
0010
0001
3010
,
1010
0000
0100
0000
0011
0000
0010
0100
0101
0000
1000
0100
0000
0000
0001
1000
,
1010
0000
0001
0000
0101
0000
0010
1000
0101
0010
0100
1000
0000
0000
0010
0100
,
1100
0000
0001
0000
1001
0000
0001
0100
0101
0000
1000
0100
0000
0000
0010
0100
,
1001
0000
0010
0000
0110
0000
0100
0010
1010
0001
0100
0001
0000
0000
1000
0100
,
1100
0000
0001
0000
1010
0000
1000
0001
0011
0000
0100
0001
0000
0000
0010
0100
,
1100
0000
0010
0000
0011
0000
1000
0100
0011
1000
0001
0100
0000
0000
1000
0001
,
0101
0000
0010
0000
0110
0000
0010
0001
0011
0000
0100
0001
0000
0000
1000
0001
,
0110
0000
1000
0000
1001
0000
0001
1000
1100
0100
0001
0010
0000
0000
1000
0100
,
1100
0000
0001
0000
0110
0000
1000
0001
0011
0000
1000
0010
0000
1000
0100
0010
,
0011
0000
0100
0000
0011
0000
1000
0010
0110
0000
1000
0001
0000
0000
0001
0010
,
1100
0000
0001
0000
1100
0000
0010
1000
0011
0100
0010
0001
0000
0000
0010
0100
,
1010
0000
0001
0000
1100
0000
1000
0100
0011
0000
0100
0010
0000
0000
0010
0100
,
0011
0000
0010
0100
1000
0100
0010
0001
0200
1000
0001
1000
0010
0001
0010
1300
,
0101
0010
1010
0001
0011
0100
1010
0100
,
1001
0100
0110
0001
0011
1000
1010
0100
,
1001
0010
1100
0010
0011
0100
1010
0100
,
1100
0001
0101
1000
0101
0010
0110
0110
,
1100
0010
0101
0010
0011
0100
1010
0100
,
1001
0010
1001
0100
1010
0100
0110
0001
,
0011
0100
1010
0001
1001
1000
0101
0010
,
1000
0100
0010
0100
1000
0001
0100
0001
1001
0010
0100
1000
0101
0010
0001
1000
,
1100
0000
0011
0000
1001
0000
0010
1000
0101
0000
0010
0000
1100
0000
0010
0100
,
0011
0000
0100
0000
1100
0000
0001
1000
1001
0000
0100
0000
1010
0000
0100
0010
,
1100
0000
0010
0000
1001
0000
0001
0100
0110
0000
1000
0000
0011
0000
1000
0100
,
1010
0000
0010
0000
0101
0000
0001
0010
1001
0000
0100
0000
1100
0000
0010
0010
,
1001
0000
0100
0000
0011
0000
1000
0100
0011
0000
0100
0000
1001
0000
0010
0100
,
1010
0000
0100
0000
1001
0000
0010
0001
0110
0000
1000
0000
1100
0000
0010
0100
,
0101
0000
0010
0000
0011
0000
0010
0100
0101
0000
0010
0000
1100
0000
0001
1000
,
1001
0000
0010
0000
1001
0000
0100
0100
2000
0100
0010
0001
0100
0010
0001
3100
,
0011
0000
0010
0000
1100
0000
0010
1000
0110
0000
0010
0001
0000
0000
1000
0010
,
0101
0000
0010
0000
1100
0000
0001
1000
1010
0100
0010
0100
0000
0000
0001
0010
,
0011
0000
0100
0000
1100
0000
0001
0010
0110
0000
1000
0010
0000
0000
1000
0001
,
1001
0000
0010
0000
0101
0000
0010
0100
1100
0001
0100
0010
0000
0000
0001
0100
,
1100
0000
0010
0000
0101
0000
0010
0100
0101
0000
0010
0001
0000
0000
0010
0100
,
0011
0000
0010
0000
0011
0000
0100
1000
1001
0010
0100
0001
0000
0000
0001
0100
,
0101
0010
1000
1100
0001
0010
1001
0010
,
1001
0000
0100
0000
1001
0000
0001
0000
1001
0010
0100
1000
0010
0100
0001
0010
,
1010
0000
0100
0000
0011
0000
0100
0001
0110
0000
0100
1000
0000
0000
0001
0100
,
1010
0000
0100
0000
0011
0000
1000
0001
0101
0010
0100
0010
0000
0000
1000
0100
,
1100
0000
0010
0000
0011
0000
1000
0100
0110
0000
0001
0100
0000
0000
0001
1000
,
1001
0000
0100
0000
1010
0000
0100
0010
0011
1000
0010
0100
0000
0000
1000
0010
,
0011
0000
0100
0000
1010
0000
0100
0010
1010
0000
0100
1000
0000
0000
0100
0010
,
1100
0000
0100
0000
1100
0000
0010
0001
1001
0100
0010
1000
0000
0000
1000
0010
,
1010
0001
0100
0011
0100
1000
0022
0000
,
0000
0000
0000
0033
1100
0000
0011
0000
1001
0000
0101
0000
0000
0000
1100
0000
,
0000
0000
0110
1001
0110
0101
0000
0011
,
1100
0000
0010
0000
0101
0000
0010
0100
1001
0000
0001
0010
0000
0000
0010
0001
,
1100
0000
0010
0000
0110
0000
0001
0010
1100
0001
0010
1000
0000
0000
0100
0001
,
0011
0000
0010
0000
0101
0000
0001
0010
1001
0000
0010
1000
0000
0000
0001
0010
,
1100
0000
0010
0000
0101
0000
0010
0100
0120
0100
0001
0001
1000
0100
0001
0130
,
1010
0100
0101
1000
1100
0010
0101
0010
,
1001
0010
0110
1000
1100
0001
0101
0010
,
1001
0100
0011
0100
1100
0010
0101
0010
,
0011
1000
1010
0001
1010
0100
0110
0110
,
0011
0100
1010
0100
1100
0010
0101
0010
,
1001
0100
1001
0010
0101
0010
0110
1000
,
1100
0010
0101
1000
1001
0001
1010
0100
,
0001
0010
0100
0010
0001
1000
0010
1000
1001
0100
0010
0001
1010
0100
1000
0001
,
0011
0000
1100
0000
1001
0000
0100
0001
1010
0000
0100
0000
0011
0000
0100
0010
,
1100
0000
0010
0000
0011
0000
1000
0001
1001
0000
0010
0000
0101
0000
0010
0100
,
0011
0000
0100
0000
1001
0000
1000
0010
0110
0000
0001
0000
1100
0000
0001
0010
,
0101
0000
0100
0000
1010
0000
1000
0100
1001
0000
0010
0000
0011
0000
0100
0100
,
1001
0000
0010
0000
1100
0000
0001
0010
1100
0000
0010
0000
1001
0000
0100
0010
,
0101
0000
0010
0000
1001
0000
0100
1000
0110
0000
0001
0000
0011
0000
0100
0010
,
1010
0000
0100
0000
1100
0000
0100
0010
1010
0000
0100
0000
0011
0000
1000
0001
,
1001
0000
0100
0000
1001
0000
0010
0010
0002
0010
0100
1000
0010
0100
1000
0013
,
1100
0000
0100
0000
0011
0000
0100
0001
0110
0000
0100
1000
0000
0000
0001
0100
,
1010
0000
0100
0000
0011
0000
1000
0001
0101
0010
0100
0010
0000
0000
1000
0100
,
1100
0000
0010
0000
0011
0000
1000
0100
0110
0000
0001
0100
0000
0000
0001
1000
,
1001
0000
0100
0000
1010
0000
0100
0010
0011
1000
0010
0100
0000
0000
1000
0010
,
0011
0000
0100
0000
1010
0000
0100
0010
1010
0000
0100
1000
0000
0000
0100
0010
,
1100
0000
0100
0000
1100
0000
0010
0001
1001
0100
0010
1000
0000
0000
1000
0010
,
1010
0100
0001
0011
1000
0100
1001
0100
,
1001
0000
0010
0000
1001
0000
1000
0000
1001
0100
0010
0001
0100
0010
1000
0100
,
0101
0000
0010
0000
1100
0000
0010
1000
0110
0000
0010
0001
0000
0000
1000
0010
,
0101
0000
0010
0000
1100
0000
0001
1000
1010
0100
0010
0100
0000
0000
0001
0010
,
0011
0000
0100
0000
1100
0000
0001
0010
0110
0000
1000
0010
0000
0000
1000
0001
,
1001
0000
0010
0000
0101
0000
0010
0100
1100
0001
0100
0010
0000
0000
0001
0100
,
1100
0000
0010
0000
0101
0000
0010
0100
0101
0000
0010
0001
0000
0000
0010
0100
,
0011
0000
0010
0000
0011
0000
0100
1000
1001
0010
0100
0001
0000
0000
0001
0100
,
0101
1000
0010
1100
0010
0001
2200
0000
,
0000
0000
0000
3300
0011
0000
1100
0000
1001
0000
1010
0000
0000
0000
0011
0000
,
0000
0000
0110
1001
0110
1010
0000
1100
,
0011
0000
0100
0000
1010
0000
0100
0010
1001
0000
1000
0100
0000
0000
0100
1000
,
0011
0000
0100
0000
0110
0000
1000
0100
0011
1000
0100
0001
0000
0000
0010
1000
,
1100
0000
0100
0000
1010
0000
1000
0100
1001
0000
0100
0001
0000
0000
1000
0100
,
0011
0000
0100
0000
1010
0000
0010
0001
0010
1000
0001
0010
0100
1000
0010
0100
,
0011
0000
0000
0000
0100
0010
0000
0000
1100
0000
0000
0000
0010
1000
0000
0000
1100
0000
0000
0000
0001
1000
0000
0000
0110
0000
0000
0000
1000
0010
0000
0000
,
0101
0000
0000
0000
0010
0001
0000
0000
1100
0000
0000
0000
0010
1000
0000
0000
1001
0000
0000
0000
0010
0100
0000
0000
0011
0000
0000
0000
1000
0100
0000
0000
,
1010
0000
0000
0000
0100
1000
0000
0000
0110
0000
0000
0000
1000
0100
0000
0000
0101
0000
0000
0000
1000
0001
0000
0000
0010
0000
0000
0000
0100
0001
0000
0000
,
1010
0000
0000
0000
0001
0010
0000
0000
1100
0000
0000
0000
0001
0100
0000
0000
0101
0000
0000
0000
0010
1000
0000
0000
1100
0000
0000
0000
0010
0001
0000
0000
,
0101
0000
0000
0000
1000
0001
0000
0000
1010
0000
0000
0000
0001
0010
0100
0000
1010
0000
0000
0000
0100
0010
0000
0000
1001
0000
0000
0000
0010
0001
0010
0000
,
1100
0000
0000
0000
0001
0100
0000
0000
1010
0000
0000
0000
0001
0010
0100
0000
0110
0000
0000
0000
0001
1000
0000
0000
0101
0000
0000
0000
0010
1000
0100
0000
,
0011
0000
0000
0000
1000
0010
0000
0000
1001
0000
0000
0000
0010
1000
0010
0000
1100
0000
0000
0000
0010
0100
0000
0000
0001
0000
0000
0000
1000
0100
0001
0000
,
1010
0000
0000
0000
0001
0010
0000
0000
1100
0000
0000
0000
0010
0100
1000
0000
1002
0000
0100
0000
0010
0000
0100
0000
1000
0000
0010
0000
0100
0000
1003
0000
,
1010
0000
1000
0000
0101
0000
1000
0100
1001
0000
1000
0010
0000
0000
0100
1000
,
0011
0000
1000
0000
0101
0000
0010
0100
1100
0001
1000
0001
0000
0000
0010
1000
,
1010
0000
0001
0000
0101
0000
0010
1000
1001
0000
0100
1000
0000
0000
0100
0010
,
0110
0000
1000
0000
0011
0000
1000
0001
0101
0010
0001
1000
0000
0000
0010
0001
,
0101
0000
1000
0000
0011
0000
1000
0001
0011
0000
1000
0010
0000
0000
1000
0001
,
1010
0000
1000
0000
1010
0000
0001
0100
0110
1000
0001
0010
0000
0000
0010
0001
,
0011
1000
0100
0101
0010
1000
0110
1000
,
0110
0000
0001
0000
0110
0000
0010
0000
0110
1000
0001
0100
1000
0001
0010
1000
,
1100
0000
0001
0000
1010
0000
0001
0010
1001
0000
0001
0100
0000
0000
0010
0001
,
1100
0000
0001
0000
1010
0000
0100
0010
0011
1000
0001
1000
0000
0000
0100
0001
,
0101
0000
1000
0000
1010
0000
0100
0001
1001
0000
0010
0001
0000
0000
0010
0100
,
0110
0000
0001
0000
1100
0000
0001
1000
1010
0100
1000
0001
0000
0000
0100
1000
,
1010
0000
0001
0000
1100
0000
0001
1000
1100
0000
0001
0100
0000
0000
0001
1000
,
0101
0000
0001
0000
0101
0000
1000
0010
0110
0001
1000
0100
0000
0000
0100
1000
,
1100
0010
0001
1010
0001
0100
2020
0000
,
0000
0000
0000
3030
0101
0000
1010
0000
0110
0000
0011
0000
0000
0000
0101
0000
,
0000
0000
1001
0110
1001
0011
0000
1010
,
0101
0000
1000
0000
0011
0000
1000
0001
0110
0000
0010
1000
0000
0000
1000
0010
,
0101
0000
1000
0000
1001
0000
0010
1000
0101
0010
1000
0100
0000
0000
0001
0010
,
1010
0000
1000
0000
0011
0000
0010
1000
0110
0000
1000
0100
0000
0000
0010
1000
,
1010
0000
0001
0000
1100
0000
0001
0010
0200
1000
0001
1000
0001
1000
0010
0301
,
2010
0000
0100
0000
0010
0000
0001
0001
0001
0000
0010
0000
0100
0000
0010
3010
,
0020
0000
1000
0000
0001
0000
0100
0100
0100
0000
0001
0000
0100
0000
0001
0031
,
0002
0000
0010
0000
1000
0000
0100
0100
0100
0000
0010
0000
0010
0000
1000
1003
,
2000
0000
0100
0000
0100
0000
0001
0001
0001
0000
0010
0000
0100
0000
0100
3100
,
0200
0000
0010
0000
0001
0000
1000
1000
1000
0000
1000
0000
0001
0000
0010
0310
,
0020
0000
1000
0000
0001
0000
1000
1000
1000
0000
0100
0000
0001
0000
1000
1030
,
2000
0000
0100
0000
0100
0000
0100
3100
0200
0000
0010
0000
0001
0000
0001
0301
,
0002
0000
0010
0000
0010
0000
0100
0100
0100
0000
0010
0000
0010
0000
1000
1003
,
2002
0000
0000
0000
,
0000
0000
0000
0000
,
0000
0000
0000
0000
,
3003
0000
0000
0000
;
