#TITLE:Destruction Dance;
#SUBTITLE:;
#ARTIST:From Wrecking Crew;
#TITLETRANSLIT:;
#SUBTITLETRANSLIT:;
#ARTISTTRANSLIT:;
#CREDIT:;
#BANNER:Destruction Dance.png;
#BACKGROUND:Destruction Dance-bg.png;
#LYRICSPATH:;
#CDTITLE:./CDTITLES/Dance Dance Revolution Mario Mix.png;
#MUSIC:05 Tsukiyo ni buchikowase.mp3;
#OFFSET:1.799;
#SAMPLESTART:22.200;
#SAMPLELENGTH:15.000;
#SELECTABLE:YES;
#DISPLAYBPM:130.000;
#BPMS:0.000=130.132;
#STOPS:;
#BGCHANGES:;
// cache tags:
#FIRSTBEAT:16.000;
#LASTBEAT:230.000;
#SONGFILENAME:Songs/cedric step/Destruction Dance/Destruction Dance.sm;
#HASMUSIC:0;
#HASBANNER:1;
#MUSICLENGTH:100.000;
// end cache tags

//---------------dance-single - ----------------
#NOTES:
     dance-single:
     :
     Beginner:
     1:
     0.064,0.142,0.020,0.000,0.000,43.000,2.000,0.000,0.000,0.000:
0000
0000
0000
0000
,
0000
0000
0000
0000
,
0000
0000
0000
0000
,
0000
0000
0000
0000
,
0000
0000
0000
0000
,
0000
0000
0000
0000
,
0000
0000
0000
0000
,
0000
0000
0000
0000
,
0000
0000
0000
0000
,
0000
0000
0000
0000
,
0000
0000
0000
0000
,
0000
0000
0000
0000
,
0000
0000
0000
0000
,
0001
0000
0000
0000
,
1000
0000
0000
0000
,
1000
0000
0000
0000
,
0001
0000
0000
0000
,
1000
0000
0000
0000
,
0001
0000
0000
0000
,
0000
0000
0000
0000
,
1000
0000
1000
0000
,
1000
0000
0000
0000
,
0001
0000
0000
0000
,
0001
0000
0000
0000
,
1000
0000
0000
0000
,
0001
0000
0000
0000
,
1000
0000
0000
0000
,
0000
0000
0000
0000
,
0001
0000
0001
0000
,
1000
0000
0000
0000
,
0001
0000
0000
0000
,
1000
0000
0000
0000
,
0001
0000
0000
0000
,
0001
0000
0000
0000
,
1000
0000
0000
0000
,
1000
0000
0000
0000
,
0001
0000
0000
0000
,
0001
0000
0000
0000
,
1000
0000
0000
0000
,
0001
0000
0000
0000
,
1000
0000
0000
0000
,
1000
0000
0000
0000
,
0001
0000
0000
0000
,
0001
0000
0000
0000
,
0000
0000
0000
0000
,
1001
0000
0000
0000
,
0000
0000
0000
0000
,
1000
0000
0000
0000
,
0001
0000
0000
0000
,
0001
0000
0000
0000
,
1000
0000
0000
0000
,
0001
0000
0000
0000
,
1000
0000
1000
0000
,
0001
0000
0001
0000
,
0001
0000
0000
0000
,
0000
0000
0000
0000
,
0000
0000
0000
0000
,
1001
0000
0000
0000
;

//---------------dance-single - ----------------
#NOTES:
     dance-single:
     :
     Easy:
     1:
     0.027,0.029,0.000,0.000,0.000,19.000,0.000,0.000,0.000,0.000:
0000
0000
0000
0000
,
0000
0000
0000
0000
,
0000
0000
0000
0000
,
0000
0000
0000
0000
,
0000
0000
0000
0000
,
0000
0000
0000
0000
,
0000
0000
0000
0000
,
0000
0000
0000
0000
,
0000
0000
0000
0000
,
0000
0000
0000
0000
,
0000
0000
0000
0000
,
0000
0000
0000
0000
,
0000
0000
0000
0000
,
0001
0000
0000
0000
,
0000
0000
0000
0000
,
1000
0000
0000
0000
,
0000
0000
0000
0000
,
0000
0000
0000
0000
,
0010
0000
0000
0000
,
0000
0000
0000
0000
,
0000
0000
0000
0000
,
1000
0000
0000
0000
,
0000
0000
0000
0000
,
0001
0000
0000
0000
,
0000
0000
0000
0000
,
0000
0000
0000
0000
,
0010
0000
0000
0000
,
0000
0000
0000
0000
,
0000
0000
0000
0000
,
1000
0000
0000
0000
,
0000
0000
0000
0000
,
0010
0000
0000
0000
,
0000
0000
0000
0000
,
0001
0000
0000
0000
,
0000
0000
0000
0000
,
1000
0000
0000
0000
,
0000
0000
0000
0000
,
0001
0000
0000
0000
,
0000
0000
0000
0000
,
0010
0000
0000
0000
,
0000
0000
0000
0000
,
1000
0000
0000
0000
,
0000
0000
0000
0000
,
0001
0000
0000
0000
,
0000
0000
0000
0000
,
0100
0000
0000
0000
,
0000
0000
0000
0000
,
1000
0000
0000
0000
,
0000
0000
0000
0000
,
0000
0000
0000
0000
,
0010
0000
0000
0000
,
0000
0000
0000
0000
,
0000
0000
0000
0000
,
0000
0000
0000
0000
,
0010
0000
0000
0000
,
0000
0000
0000
0000
,
0000
0000
0000
0000
,
0100
0000
0000
0000
;

//---------------dance-single - ----------------
#NOTES:
     dance-single:
     :
     Medium:
     3:
     0.211,0.257,0.060,0.000,0.000,142.000,6.000,0.000,0.000,0.000:
0000
0000
0000
0000
,
0000
0000
0000
0000
,
0000
0000
0000
0000
,
0000
0000
0000
0000
,
0000
0000
0000
0000
,
0000
0000
0000
0000
,
0000
0000
0000
0000
,
0000
0000
0000
0000
,
0000
0000
0000
0000
,
1000
1000
0010
0000
,
0010
0001
0001
0000
,
1000
1000
0001
0001
,
0010
0000
0001
1001
,
1000
0000
0100
1000
,
1000
0010
0010
0000
,
0001
0000
0100
1000
,
1000
0001
0010
0000
,
0100
0000
0010
0001
,
0001
0000
0010
1000
,
1000
0000
0010
0010
,
0001
0000
0100
0110
,
0001
0000
0100
0001
,
0001
0010
0010
0000
,
1000
0000
0100
0001
,
0001
1000
0010
0000
,
0100
0000
0010
1000
,
1000
0000
0010
0001
,
0001
0000
0010
0010
,
1000
0000
0100
0110
,
0010
0000
0001
1000
,
0100
0000
0001
0010
,
0010
0000
1000
1000
,
0100
0000
0001
0000
,
0010
0000
1000
0001
,
0100
0000
1000
0010
,
0010
0000
1001
0010
,
0100
0100
0010
0000
,
0010
0000
0001
1000
,
0100
0000
0001
0010
,
0010
0000
0001
0001
,
0100
0000
1000
0000
,
0010
0000
1000
0001
,
0100
0000
1000
0010
,
0010
0000
1001
0010
,
0100
0100
0110
0000
,
1000
0000
0100
0000
,
1000
0000
0010
0000
,
0001
0000
0100
1000
,
1000
0001
0010
0000
,
0100
0000
0010
0001
,
0001
0000
0010
1000
,
0010
0010
0001
0000
,
1000
1000
1000
0001
,
0001
0001
0001
1000
,
0001
0000
0000
0000
,
0010
0001
0100
0000
,
0010
1000
0100
0000
,
0010
0000
0000
0000
;

//---------------dance-single - ----------------
#NOTES:
     dance-single:
     :
     Hard:
     5:
     0.269,0.342,0.120,0.000,0.055,176.000,12.000,0.000,0.000,0.000:
0000
0000
0000
0000
,
0000
0000
0000
0000
,
0000
0000
0000
0000
,
0000
0000
0000
0000
,
0000
0000
0000
0000
,
0000
0000
0000
0000
,
0000
0000
0000
0000
,
0000
0000
0000
0000
,
0000
0000
0000
0000
,
1000
0001
0001
1000
,
0010
0000
0100
0000
0100
0000
0000
0001
,
0001
0001
1000
1000
,
0001
1000
1001
1001
,
0010
0000
0001
1000
,
0001
0000
0000
0001
0000
0000
0001
0000
0000
0000
0000
0000
0000
0000
0000
0000
,
0010
0000
1000
1000
,
0001
0000
0000
0001
0000
0000
1000
0000
0000
0000
0000
0000
0000
0000
0000
0000
,
0100
0000
0000
0000
0000
0000
0000
0000
1000
0000
0000
1000
0000
0000
1000
0000
,
0001
0000
0001
1000
,
1001
0100
0001
0001
,
1000
0010
0100
0110
,
0010
0000
1000
0001
,
1000
0000
0000
1000
0000
0000
1000
0000
0000
0000
0000
0000
0000
0000
0000
0000
,
0010
0000
0001
0001
,
1000
0000
0000
1000
0000
0000
0001
0000
0000
0000
0000
0000
0000
0000
0000
0000
,
0100
0000
0000
0000
0000
0000
0000
0000
0001
0000
0000
0001
0000
0000
0001
0000
,
1000
0000
1000
0001
,
1001
0100
1000
1000
,
0001
0010
0100
0110
,
0100
1000
0010
0100
,
0001
0010
0001
0100
,
0001
1000
0010
0100
,
0001
1000
0001
0100
,
0100
0001
0010
0100
,
1000
0010
1000
0100
,
1001
0000
0000
0001
0001
0000
0001
0000
,
0010
0010
0001
1000
,
0100
1000
0010
0100
,
0001
0010
0001
0100
,
0001
1000
0010
0100
,
0001
1000
0001
0100
,
0100
0001
0010
0100
,
1000
0010
1000
0100
,
1001
0000
0000
1000
1000
0000
1000
0000
,
0010
0010
1000
1001
,
0100
0000
0001
1000
,
0001
0000
0000
0001
0000
0000
0001
0000
0000
0000
0000
0000
1001
0000
0000
0000
,
0010
0000
1000
1000
,
0001
0000
0000
0001
0000
0000
1000
0000
0000
0000
0000
0000
0000
0000
0000
0000
,
0100
0000
0000
0000
0000
0000
0000
0000
1000
0000
0000
1000
0000
0000
1000
0000
,
0001
0000
0001
1000
,
0001
0100
0010
1000
,
0001
0000
0100
0000
0001
0001
0001
0000
,
1000
0000
0100
0000
1000
1000
1000
0000
,
0110
0000
0000
0000
,
0001
0000
0000
1000
0000
0000
0001
0000
0000
0000
0000
0000
0000
0000
0000
0000
,
1000
0000
0000
0001
0000
0000
1000
0000
0000
0000
0000
0000
0000
0000
0000
0000
,
0110
0000
0000
0000
;

//---------------dance-single - ----------------
#NOTES:
     dance-single:
     :
     Challenge:
     7:
     0.381,0.456,0.300,0.000,0.065,237.000,30.000,0.000,0.000,0.000:
0000
0000
0000
0000
,
0000
0000
0000
0000
,
0000
0000
0000
0000
,
0000
0000
0000
0000
,
0000
0000
0000
0000
,
0000
0000
0000
0000
,
0000
0000
0000
0000
,
0000
0000
0000
0000
,
0000
0000
0000
0000
,
0010
0000
1000
0000
1000
0000
0001
0100
,
0001
0000
1000
0000
0010
0000
1000
0001
,
0100
0010
0010
1000
,
0100
0010
0001
0000
1000
0000
1001
0000
,
0010
0000
0001
0000
1000
0100
1000
0000
,
0010
0000
0000
0100
0000
0000
0001
0000
0000
0000
0000
0000
0101
0000
0000
0000
,
1000
0000
0001
0000
0010
0100
1000
0000
,
0001
0000
0000
0100
0000
0000
0001
0000
0000
0000
0000
0000
0011
0000
0000
0000
,
1001
0000
0000
0000
0000
0000
0000
0000
1000
0000
0000
0100
0000
0000
0010
0000
,
0110
0000
0001
0000
0001
0100
1000
0000
,
0100
0000
0001
0000
1000
1000
1000
0000
,
0010
1000
0100
0000
0010
0001
0100
0000
,
0010
0000
1000
0000
0001
0100
0001
0000
,
0010
0000
0000
0100
0000
0000
1000
0000
0000
0000
0000
0000
1100
0000
0000
0000
,
0001
0000
1000
0000
0010
0100
0001
0000
,
1000
0000
0000
0100
0000
0000
1000
0000
0000
0000
0000
0000
1010
0000
0000
0000
,
1001
0000
0000
0000
0000
0000
0000
0000
0001
0000
0000
0100
0000
0000
0010
0000
,
0110
0000
1000
0000
1000
0100
0001
0000
,
0100
0000
1000
0000
0001
0001
0001
0000
,
0010
0001
0100
0000
0010
1000
0100
0000
,
1000
1001
0100
0001
,
0010
0010
0001
0001
1000
0000
1100
0000
,
0010
1001
0100
1001
,
0001
0010
0001
1000
1000
0000
1010
0000
,
0001
1001
0100
1000
,
0010
0010
1000
1000
0001
0000
0101
0000
,
1000
0000
0001
0100
0001
0010
0001
0000
,
1000
1000
0100
0000
0001
0001
0100
0000
,
1000
1001
0100
0001
,
0010
0010
0001
0001
1000
0000
1100
0000
,
0010
1001
0100
1001
,
1000
0010
1000
0001
0001
0000
0011
0000
,
0001
1001
0100
1000
,
0010
0010
1000
1000
0001
0000
0101
0000
,
0001
0000
1000
0100
1000
0010
1000
0000
,
1000
1000
0100
0010
0001
0001
0100
0000
,
0010
0000
0000
1000
,
0010
0000
0000
1000
0000
0000
0001
0000
0000
0000
0000
0000
0110
0000
0000
0000
,
1000
0000
0001
0000
0010
0100
1000
0000
,
0001
0000
0000
0100
0000
0000
0001
0000
0000
0000
0000
0000
0011
0000
0000
0000
,
1001
0000
0000
0000
0000
0000
0000
0000
1000
0000
0000
0100
0000
0000
0010
0000
,
0110
0000
0001
0000
0001
0100
1000
0000
,
0100
0000
0001
0000
1000
1000
1001
0000
,
0010
0001
0100
0001
1000
0100
1000
0000
,
0010
1000
0100
1000
0001
0100
0001
0000
,
1010
0000
0000
0000
,
0001
0000
0000
1000
0000
0000
0100
0000
0010
0000
0000
0100
0000
0000
1000
0000
,
1000
0000
0000
0001
0000
0000
0100
0000
0010
0000
0000
0100
0000
0000
0001
0000
,
0101
0000
0000
0000
;

//---------------dance-single - ----------------
#NOTES:
     dance-single:
     :
     Edit:
     10:
     0.726,0.920,0.380,0.060,0.390,464.000,38.000,6.000,0.000,0.000:
0000
0000
0000
0000
,
0000
0000
0000
0000
,
0000
0000
0000
0000
,
0000
0000
0000
0000
,
0001
0001
0001
0001
,
0001
0010
0100
1000
0001
0010
0100
0010
,
0001
0001
0010
0010
,
0100
0010
0001
0010
0100
1000
0001
0010
,
0100
0100
1000
1000
,
0010
0100
0001
0010
0100
0010
0001
0010
,
0100
0100
1000
1000
,
0001
0010
1000
0001
0010
0100
0010
0001
,
0010
0010
0010
0010
0010
0010
0010
0000
,
1000
0000
0100
0000
0010
0000
0001
0000
0010
0000
0100
0000
0010
0001
1000
0000
,
0010
0000
0100
0000
1000
0000
0010
0000
0100
0000
0010
0001
0100
0000
0010
0000
,
0100
0000
0001
0000
0010
0000
0100
0000
0010
0000
0001
0000
0010
0100
0010
0000
,
0001
0000
0010
0000
0100
0000
1000
0000
0001
0000
0010
0000
0100
0010
0001
0000
,
0100
0000
0010
0000
0100
0000
0001
0000
0010
0000
0001
0000
0010
0100
0010
0000
,
0001
0000
0010
0000
0100
0000
1000
0000
0010
0000
1000
0001
0010
0000
0100
0000
,
1000
0000
0001
0000
0010
0000
0001
0010
0100
0000
0001
0000
0100
0010
0100
0000
,
0001
0000
0000
0001
0000
0001
0001
0000
0001
0000
0001
0001
0000
0001
0001
0000
,
0010
0000
0100
0000
1000
0000
0001
0000
0010
0000
0100
0000
0010
0001
0100
0000
,
0010
0000
0100
0000
0001
0000
0010
0000
0100
0000
0010
0000
0001
0100
1000
0000
,
0010
0000
0100
0000
0001
0000
0100
0000
0010
0000
0001
0000
0100
0010
0001
0000
,
0100
0000
0010
0000
0100
0000
0010
0000
0001
0000
1000
0000
0100
1000
0010
0000
,
1000
0000
0001
0000
0010
0000
1000
0000
0100
0000
0010
0000
0001
1000
0010
0000
,
0100
0000
0001
0000
0100
0000
0010
0000
1000
0000
0100
0001
0010
0000
1000
0000
,
0001
0000
0010
0000
0100
0000
1000
0000
0001
0000
0010
0000
0100
0001
0010
0000
,
0001
0000
0001
0000
0001
0000
0001
0000
0001
0001
0000
0000
0001
0001
0001
0000
,
1010
0000
0100
1000
0010
0000
0001
0000
0011
0000
0100
0001
0010
0000
0001
0000
,
1010
0000
0100
0010
1000
0000
0001
0000
0011
0000
0100
0010
1000
0000
0001
0000
,
0011
0000
0100
0010
1000
0000
0001
0000
1010
0000
0100
0001
1000
0000
0001
0000
,
0101
0000
0010
0100
1000
0000
0001
0000
0011
0000
0100
0001
1000
0000
0010
0000
,
1010
0000
0001
1000
0010
0000
0100
0000
1001
0000
0010
1000
0100
0000
0001
0000
,
0101
0000
0001
1000
0010
0000
0100
0000
1010
0000
0001
0100
0010
0000
0100
0000
,
1100
0000
0001
1000
0010
0000
0100
0000
0011
0000
0100
0010
1000
0000
0001
0000
,
0011
0000
0100
0001
1000
0000
0100
0000
1010
0000
0001
1000
0100
0000
0010
0000
,
0110
0000
0001
1000
0010
0000
0100
0000
0011
0000
0100
0001
1000
0000
0001
0000
,
1100
0000
0010
0100
1000
0000
0001
0000
0110
0000
0001
1000
0010
0000
0100
0000
,
0011
0000
0100
0010
1000
0000
0001
0000
1010
0000
0001
1000
0100
0000
0010
0000
,
0101
0000
0001
0100
0010
0000
0001
0000
0011
0000
0100
0001
1000
0000
0001
0000
,
0110
0000
0100
0001
1000
0000
0001
0000
0011
0000
0100
0010
1000
0000
0001
0000
,
0110
0000
0001
0100
1000
0000
0010
0000
1010
0000
0001
1000
0100
0000
0010
0000
,
0101
0000
0001
1000
0010
0000
0100
0000
0110
0000
0001
0010
1000
0000
1000
0000
,
1100
0000
0010
0100
1000
0010
0001
0100
1000
0001
0010
1000
0100
0010
0001
0000
,
0100
0000
1000
0000
0010
0000
0100
0000
0001
0000
0010
0000
0100
0010
0100
0000
,
0010
0000
0001
0000
0010
0000
0100
0000
0010
0000
0001
0000
0010
0100
0001
0000
,
0100
0000
0010
0000
0001
0000
0010
0000
0100
0000
0010
0000
0100
1000
0010
0000
,
1000
0000
0100
0000
0010
0000
0001
0000
0010
0000
0100
0000
0010
0001
1000
0000
,
0001
0000
0010
0000
0100
0000
0010
0000
0001
0000
1000
0000
0100
0001
1000
0000
,
0100
0000
0010
0000
0001
0000
0010
0000
0100
0000
1000
0000
0100
1000
0010
0000
,
0100
0000
0010
0000
0001
0000
0010
0000
0100
0000
1000
0000
0001
0010
0100
0000
,
1000
1000
1000
1000
1000
1000
1000
1000
1000
1000
1000
1000
1000
1000
1000
0000
,
0010
0010
0010
0010
0010
0010
0010
0010
0010
0010
0010
0010
0010
0010
0010
0000
,
1001
0110
0011
1100
,
2002
0000
0000
3003
,
0220
0000
0000
0000
0000
0000
0000
0330
,
2002
0000
3003
0000
;
