#TITLE:Shin Ai;
#SUBTITLE:White Album OP theme;
#ARTIST:Mizuki Nana;
#TITLETRANSLIT:;
#SUBTITLETRANSLIT:;
#ARTISTTRANSLIT:;
#CREDIT:ALICE_;
#BANNER:shin ai.png;
#BACKGROUND:shin ai.jpg;
#LYRICSPATH:;
#CDTITLE:cdtitle.png;
#MUSIC:Shin ai.mp3;
#OFFSET:1.450;
#SAMPLESTART:62.700;
#SAMPLELENGTH:19.780;
#SELECTABLE:YES;
#BPMS:0.000=133.000,92.000=66.500,93.000=133.000,180.000=133.040,212.000=66.500,213.500=133.000;
#STOPS:92.000=0.010
,212.000=0.010
;
#BGCHANGES:3.250=shin ai.avi=1.000=1=0=1,
224.000=shin ai.jpg=1.000=1=0=1,
99999=-nosongbg-=1.000=0=0=0 // don't automatically add -songbackground-
;
// cache tags:
#FIRSTBEAT:3.500;
#LASTBEAT:225.000;
#SONGFILENAME:Songs/alice 4th complete step/Shin ai/Shin ai.sm;
#HASMUSIC:1;
#HASBANNER:1;
#MUSICLENGTH:101.912;
// end cache tags

//---------------dance-single - ----------------
#NOTES:
     dance-single:
     :
     Hard:
     7:
     0.456,0.438,0.235,0.157,0.083,285.000,24.000,16.000,0.000,0.000:
0000
0000
0000
0000
0000
0000
0000
0000
0000
0000
0000
0000
0000
0000
0100
0001
,
1000
1100
0001
0101
,
0110
0000
1001
0000
0010
0000
0100
1000
,
0010
0000
0000
0100
0000
0000
0100
0000
0000
0000
0000
0000
0000
0000
0000
0000
,
0001
0000
0000
1000
0000
0000
1000
0000
0000
0000
0000
0000
0000
0000
0000
0000
,
0010
0100
0001
1000
0100
0000
0000
1000
,
0100
1000
0001
0100
0010
1000
0100
0001
,
0100
0000
0000
1000
0000
0000
0001
0000
0200
0000
0000
0000
0320
0000
0000
0000
,
2030
0100
0100
3100
,
0001
1000
0010
0100
,
0001
0010
0100
1000
0010
0000
0000
0000
,
1000
0001
0100
0010
,
1000
0100
0010
0001
0100
0000
0000
0000
,
2010
3000
0102
0003
,
1000
0010
0001
0100
,
0010
0000
1000
0001
,
0200
0000
1000
0000
0310
1000
0001
0000
,
1000
0000
0100
1000
0001
0000
0100
1000
,
0010
0000
0100
0000
0001
1000
0100
0000
,
1001
0000
0100
0001
1000
0000
0100
0001
,
0010
0000
0100
0000
1000
0000
0001
0100
,
0001
0000
1000
0010
0100
0000
0001
1000
,
1100
0000
0001
0000
1000
0010
0100
0000
,
0110
0000
0000
0000
1001
0000
0000
0100
0000
0000
1001
0000
0000
0000
0010
0000
,
0100
1000
0100
1000
0001
0100
0020
0000
,
1030
0000
0001
0100
0001
1000
0010
0000
,
0100
0000
1000
0100
1000
0000
0100
0001
,
0100
0001
0010
0001
0100
0000
0010
0000
,
1000
0000
0100
0001
0100
0000
1000
0010
,
1000
0010
0100
0001
0010
0100
1000
0000
,
1100
0001
0000
0100
0010
0000
0001
0000
,
0101
0000
1000
0000
0000
0000
0010
0000
0100
0000
0010
0000
1001
0000
0000
0100
,
0000
0000
0110
0000
1000
0000
0001
0000
0100
0000
0000
0000
0010
0000
0000
1000
,
0000
0000
0001
0000
0001
0000
0000
1000
0000
0000
0001
0000
0100
0000
0000
0000
,
1010
0000
0100
0001
0000
0011
0000
0100
,
1000
0100
0001
0100
1000
0001
0100
0100
,
0010
1000
0100
1000
0001
0100
0010
1000
,
0100
0000
0010
0001
0000
0000
1000
0000
0010
0000
0100
0000
0000
0000
1000
0000
,
0010
0000
0100
0000
0000
0000
1000
0000
0100
0000
2000
0000
0000
3000
0010
0000
,
0100
0000
0001
1000
0000
0000
0000
0000
0000
0000
0010
0000
0100
0000
0000
0100
,
0000
0000
0001
0000
1000
0000
0000
0000
0000
0000
0100
0000
0010
0000
0000
0010
,
0000
0001
1000
0000
0010
0000
0100
0001
,
0100
0000
0001
2000
0000
0000
0000
0000
3000
0000
0000
0000
1100
0000
0000
0010
,
0000
0101
0000
0001
0010
0000
0001
0100
,
0001
1000
0010
0100
0010
1000
0100
0001
,
0100
0000
1000
0000
0010
0000
0100
0000
0001
0000
0010
0000
0100
0000
0000
1000
,
0000
0100
0010
0000
0001
1000
0000
0100
,
0010
0000
1000
0001
0100
0002
0000
0000
,
0000
1003
0000
0010
1000
0100
0000
1000
,
2002
0000
0000
0000
3003
0000
0010
0100
,
0010
0000
0100
0000
0001
0000
0000
1000
0000
0000
0100
0000
1000
0000
0000
0010
,
0000
0102
0000
0000
0003
0000
1000
0100
,
1000
0001
0010
0001
0100
1010
0000
0100
,
0100
0000
0000
0012
0000
0003
2002
0000
,
0000
0000
0000
0000
0000
0000
0000
3000
,
0000
0000
0000
0003
;

//---------------dance-single - ----------------
#NOTES:
     dance-single:
     :
     Challenge:
     13:
     0.911,1.000,0.991,0.863,0.682,455.000,101.000,88.000,0.000,26.000:
0000
0000
0000
0000
0000
0000
0000
0000
0000
0000
0000
0000
0000
0000
1000
0100
,
0010
0000
0000
0000
0000
0000
0000
0000
0100
0000
0000
0000
0000
0000
0000
0000
0010
0000
0000
0000
0000
0000
0000
0000
1001
0000
0000
0000
0000
0000
0000
0100
,
0010
0000
0000
0000
0000
0000
0000
0010
1001
0000
0000
0000
0010
0000
0100
0000
0001
0000
0000
0000
0010
0000
1000
0000
0100
0000
1000
0000
0010
0000
0100
0000
,
0001
0000
0000
0000
0000
0000
0000
0000
0000
0010
0000
0000
0000
0000
0000
0000
0000
0000
0100
0000
0000
0000
0000
0000
0000
0001
0010
0100
1000
0001
0010
0000
0100
0000
1000
0000
0001
0000
0010
0000
0100
0000
0001
0000
0000
1000
0000
0000
,
0010
0000
0000
0100
0000
0000
2000
0000
0000
0000
0000
0000
3000
0000
0100
0010
,
0001
1000
0010
1000
0001
0100
0010
1000
0100
0000
0000
0000
0000
0000
0100
0010
,
0001
0000
0000
0100
0000
0000
0010
0000
0000
1000
0000
0000
0001
0000
0000
0010
0000
0000
0001
0000
0000
0100
0000
0000
0010
0000
0100
0000
1000
0000
0010
0000
0100
0000
0001
0000
1000
0000
0100
0000
0010
0000
0001
0000
1000
0000
0100
0000
,
0022
0000
0033
2200
0000
3300
0022
0033
2002
0000
0000
0003
0020
0000
0000
3030
,
0100
0001
1000
0001
0100
0001
1000
0001
0200
0000
0000
0000
0301
0000
1000
0000
,
0001
0000
0010
0000
0100
0000
1000
0001
,
0100
0000
1000
0100
0010
0000
0001
0000
0100
0000
0000
0000
0000
0000
0000
0000
,
0001
1000
0010
0000
1000
0100
0010
0000
,
0100
1000
0001
0000
0010
0000
0100
0000
,
2002
0000
0000
0000
0000
0000
0000
3003
0220
0000
0000
0000
0000
0000
0000
0330
,
2200
3300
0000
0000
0000
0000
0000
0000
0000
0000
0000
0000
0000
0000
0000
0000
0220
0330
0000
0000
0000
0000
0000
0000
0000
0000
0000
0000
0000
0000
0000
0000
0022
0033
0000
0000
0000
0000
0000
0000
0000
0000
0000
0000
0000
0000
0000
0000
1000
0000
0000
0000
0100
0000
0000
0000
0010
0000
0000
0000
0001
0000
0000
0000
,
0100
0000
0001
1000
0001
1000
0001
0000
0000
0000
0000
0000
0000
0000
0000
0000
,
0001
0010
0001
1000
0100
1000
0010
0100
1000
0001
0010
0100
0001
0000
0000
0000
0000
0000
0000
0000
0000
0000
0000
0000
,
2200
3310
0202
0313
,
1001
0000
0000
0000
0000
0000
0000
0000
0100
0000
0000
0000
0010
0001
0000
0000
1000
0000
0000
0000
0100
0000
0000
0000
1010
0000
0000
0000
0000
0000
0000
0000
,
0202
0000
0000
0000
0313
0000
0000
0010
2200
0000
0000
0000
3310
0000
0000
0000
,
0001
0000
0100
0000
1010
0000
0000
0001
0000
0001
0100
0000
1001
0000
0100
0000
,
2020
0000
0000
0000
0101
0000
0000
3030
0202
0000
1000
0000
0010
0000
1303
0000
,
0022
0033
0000
0000
0000
0000
0000
0000
0000
0000
0000
0000
0000
0000
0000
0000
0220
0330
0000
0000
0000
0000
0000
0000
0000
0000
0000
0000
0000
0000
0000
0000
2200
3300
0000
0000
0000
0000
0000
0000
0010
0000
0000
0000
0000
0000
0000
0000
0101
0000
0000
0000
0001
0000
0000
0000
0010
0000
0000
0000
0000
0000
0000
0000
,
1001
0000
0000
0000
0000
0000
0000
0000
0100
1000
0000
0000
0000
0000
0010
0001
0000
0000
0000
0000
0220
0000
0000
0000
0000
0000
0300
0000
1030
0000
0000
0000
,
0100
0000
0000
0000
0000
0000
1000
0000
0000
0000
0000
0000
0010
0000
0000
0000
0000
0000
0100
0000
0000
0000
0000
0000
1000
0000
0100
0000
0010
0000
1000
0000
0000
0001
0000
0000
0100
0000
0000
0000
0000
0000
0001
0000
0000
0010
0000
0000
,
0001
0000
0000
0100
0000
0000
0010
0000
0000
1000
0000
0000
0100
0000
0000
0010
0000
0000
1000
0000
0100
0000
0010
0000
0001
0000
0010
0000
0100
0000
0010
0000
0001
0000
0010
0000
0100
0000
0000
0000
0000
0000
0000
0000
0000
0000
0000
0000
,
1010
0000
0100
0001
0000
0000
0010
0000
0101
0000
0000
0000
0011
0000
0001
0000
,
1001
0000
0001
0100
0001
0000
0110
0000
1001
0000
0000
0000
1100
0000
1000
0000
,
0011
0000
1000
0100
1000
0000
0110
0000
1001
0000
0100
0000
2020
0000
0000
3030
,
0202
0000
0000
0303
0022
0000
0000
0033
2200
0000
0000
3300
2002
0000
0000
3000
,
0010
0000
0100
0010
0100
0000
0010
0000
1000
0000
0103
0000
2010
0000
0010
0000
,
0100
0000
0001
0010
3001
0000
0100
0000
0010
0010
0100
0000
0011
0000
0000
1110
,
0000
0000
0022
0000
0000
0000
0100
0000
1133
0000
0000
0000
1010
0000
0000
0111
,
0000
0000
0000
0000
1010
0000
0000
0000
1001
0000
0000
0000
0000
0000
0111
0000
0000
0000
0000
0000
1001
0000
0000
0000
0100
0010
0000
0000
0000
0000
0000
0000
,
1001
0000
0100
1001
0000
0120
0000
0100
,
0100
0000
0130
0000
1001
0000
0001
1000
0010
0100
0001
0000
1100
0000
1000
0000
,
0011
0000
1000
0100
1000
0000
0110
0000
1001
0000
0100
0000
0011
0000
0001
0000
,
1100
0000
0001
0010
0001
0000
0110
0000
1001
0000
0010
0000
2100
0000
0000
0100
,
3001
0000
0010
0101
0000
0000
1000
0000
0011
0000
0100
0000
1001
0000
0001
0000
,
0011
0000
0001
0100
0001
1000
0001
0000
0101
0000
0010
0000
1000
0000
1000
0000
,
0001
0000
1000
0100
2000
0000
3010
0000
0102
0000
1003
0000
0110
0000
0010
0000
,
1001
0000
0000
0000
0100
0000
0000
0000
0010
0000
0001
0000
0010
0000
0000
0000
1001
0000
0000
0000
0100
0000
0000
0000
0020
0000
0000
0000
1030
0000
0000
0010
,
0001
0000
0000
0000
0100
0000
0000
0000
1000
0010
0000
0000
0100
0000
0000
0000
1001
0000
0000
0000
0010
0000
0001
0000
1100
0000
0000
0000
0000
0000
0110
0000
,
0000
0022
0000
0000
0033
0000
2002
0000
,
0203
0000
0302
0000
0023
0000
3132
0100
,
1000
0000
0000
0000
0100
0010
0100
0000
1020
0000
0000
0003
1130
0000
1000
0000
,
0010
0000
0100
0001
0100
0000
0001
0000
1000
0000
0220
0000
0000
0000
1330
0000
,
0100
0020
0000
0000
0000
0030
0101
0001
,
1100
0000
0010
0001
0100
0000
1001
0000
0010
0000
0220
0000
0000
0330
1001
0000
,
2222
0000
0000
3333
0000
0000
0000
0000
0000
0000
0000
0000
0000
0000
0000
0000
0000
0000
0000
0000
0000
0000
0000
0000
0000
0000
0000
0000
0000
0000
0000
0000
0000
0000
0000
0000
0000
0000
0000
0000
0000
0000
0000
0000
0000
0000
0000
0000
0001
0000
0000
0000
0000
0000
0000
0000
0010
0000
0000
0000
0000
0000
0000
0000
0001
0000
0000
0000
0000
0000
0000
0000
0010
0000
0000
0000
0000
0000
0000
0000
0100
0000
0000
0000
0000
0000
0000
0000
1000
0000
0000
0000
0000
0000
0000
0000
0001
0000
0000
0000
0000
0000
0000
0000
0010
0000
0000
0000
0000
0000
0000
0000
0100
0000
0000
0000
0000
0000
0000
0000
1000
0000
0000
0000
0000
0000
0000
0000
0100
0000
0000
0000
0000
0000
0000
0000
0010
0000
0000
0000
0000
0000
0000
0000
0001
0000
0000
0000
0000
0000
0000
0000
0000
0000
0000
0000
0000
0000
0000
0000
0000
0000
0000
0000
0000
0000
0000
0000
1000
0000
0000
0000
0000
0000
0000
0000
0000
0000
0000
0000
0000
0000
0000
0000
0000
0000
0000
0000
0000
0000
0000
0000
,
0100
0000
0000
0000
0000
0000
0010
0000
0000
0000
0000
0000
2000
0000
0000
0000
0000
0000
0000
0000
0000
3002
0000
0000
0000
0000
0000
0000
0000
0000
0103
0000
0010
0000
0100
0000
0002
0000
0000
0000
0000
0000
0000
0000
0000
2203
0000
0000
,
0000
3322
0000
0000
0030
0000
2023
0000
,
3131
0000
0010
0000
1000
0000
0001
0010
0100
0000
1011
0000
0000
0000
0110
0000
,
0110
0000
0000
0000
1000
0000
0000
0001
0101
0000
0010
0000
1001
0000
0000
0000
0000
0000
0000
0000
0100
0000
0000
0000
0120
0000
0000
0000
0000
0000
0000
0000
,
1030
0000
0000
0100
0000
0000
0010
0000
0001
0000
0010
0000
1000
0000
0001
0000
0100
0000
0000
0000
0000
0000
0000
0000
0010
0000
0100
0000
0010
0000
0100
0000
0010
0000
0100
0000
0010
0000
0100
0000
0010
0000
0100
0000
0010
0000
0100
0000
,
0010
0100
0010
0100
0010
0100
0010
0100
0010
0100
0010
0100
0020
0000
0000
0000
0000
0000
0000
0000
0000
0000
0000
0000
,
0000
0030
0000
0000
;
