#TITLE:Bach Alive;
#SUBTITLE:;
#ARTIST:02 Media Inc.;
#TITLETRANSLIT:;
#SUBTITLETRANSLIT:;
#ARTISTTRANSLIT:;
#CREDIT:;
#BANNER:bachalive-bn.png;
#BACKGROUND:bachalive-bg.png;
#LYRICSPATH:;
#CDTITLE:cdtitle-CR22.png;
#MUSIC:bachalive.mp3;
#OFFSET:-0.402;
#SAMPLESTART:46.534;
#SAMPLELENGTH:12.000;
#SELECTABLE:YES;
#BPMS:0.000=130.005;
#STOPS:;
#BGCHANGES:;
// cache tags:
#FIRSTBEAT:4.000;
#LASTBEAT:216.000;
#SONGFILENAME:Songs/IzzySM Keyboard Mega Pack/bachalive/bachalive.sm;
#HASMUSIC:1;
#HASBANNER:1;
#MUSICLENGTH:102.170;
// end cache tags

//---------------dance-single - ----------------
#NOTES:
     dance-single:
     :
     Hard:
     10:
     1.000,0.872,1.000,0.020,1.000,626.000,107.000,2.000,0.000,0.000:  // measure 1
0000
0000
0000
0000
,  // measure 2
1010
0000
0000
1001
1100
0000
0000
0101
,  // measure 3
0110
0000
0000
1001
0011
0000
0000
1001
,  // measure 4
0110
1001
0110
0000
,  // measure 5
1001
0000
0000
0000
0110
0000
0000
0000
0010
0100
1000
0100
0010
0001
0010
0100
,  // measure 6
1000
1100
0000
0100
0110
1100
0000
0001
,  // measure 7
1100
0011
0000
1000
0110
1100
0011
0110
,  // measure 8
1000
1100
0000
0001
0011
0110
0000
1000
,  // measure 9
0011
1100
0000
0001
0110
1100
0011
0110
,  // measure 10
1001
1100
0011
0110
1001
1100
0011
1100
,  // measure 11
0001
0010
0100
1000
0001
0100
0010
1000
0001
0010
0100
1000
0001
0100
0010
1000
,  // measure 12
0100
0010
0001
1000
0010
0100
0001
1000
0100
0010
0001
1000
0010
0100
0001
1000
,  // measure 13
0001
0010
0100
1000
0001
1000
0100
0010
0001
1000
0001
0100
0010
1000
0001
1000
,  // measure 14
0010
0100
0001
1000
0100
0010
0001
0010
0100
1000
0010
0100
0001
0100
0010
1000
,  // measure 15
0001
1000
0010
0100
1000
0001
0100
0010
1000
0001
0100
0010
1000
0001
1000
0100
,  // measure 16
0010
0001
1000
0001
0010
0100
1000
0001
1000
0100
0010
0001
1000
0010
0100
0001
,  // measure 17
0100
0010
1000
0100
0010
0001
1000
0010
0100
0001
0010
0100
1000
0001
0100
0010
,  // measure 18
1000
0001
1000
0100
0010
0001
1000
0001
0010
0100
1000
0001
1000
0010
0100
0001
,  // measure 19
1000
0001
0100
0010
1000
0100
0010
0001
1000
0010
0100
0001
0010
0100
1000
0001
,  // measure 20
0100
0010
1000
0001
1000
0100
0010
0001
1000
0001
0010
0100
1000
0010
0100
0001
,  // measure 21
1000
0100
0010
0001
1000
0010
0100
0001
1000
0001
0010
0100
1000
0001
1000
0001
,  // measure 22
0100
0010
1000
0100
0010
0001
1000
0010
0100
0001
0010
0100
1000
0100
0010
0001
,  // measure 23
0100
0010
1000
0001
0100
0010
1000
0100
0010
0001
0100
0010
1000
0001
0010
0100
,  // measure 24
1000
0001
0100
0010
1000
0001
1000
0100
0010
0001
1000
0001
0010
0100
1000
0001
,  // measure 25
1000
0100
0010
0100
0001
1000
0001
0010
0100
1000
0100
0010
0001
1000
0010
0100
,  // measure 26
0001
0100
0010
1000
0001
1000
0100
0010
0001
1000
0100
0010
0001
1000
0010
0100
,  // measure 27
0001
1000
0010
0100
0001
0010
0100
1000
0001
0010
0100
1000
0001
0100
0010
1000
,  // measure 28
0001
0100
0010
1000
0100
0010
0001
1000
0010
0100
0001
0010
0100
1000
0001
0100
,  // measure 29
0010
1000
0100
0001
0100
0010
1000
0100
0010
0001
1000
0100
0010
0001
0010
0100
,  // measure 30
1000
0001
0010
0100
1000
0010
0100
0001
0100
0010
1000
0100
0010
0001
0010
0100
,  // measure 31
1000
0000
1000
0100
0011
0000
0001
0010
1100
0000
1000
0010
0101
0000
0001
0100
,  // measure 32
1010
0000
0100
0010
1001
0000
0010
0100
1001
0000
0100
0001
1010
0000
0001
0100
,  // measure 33
0011
0000
1000
0100
0011
0000
0001
0100
1010
0000
0100
0001
1100
1000
0100
0010
,  // measure 34
0101
0101
0000
0000
1100
1100
0000
0000
,  // measure 35
1000
0100
0010
0001
0010
0100
1000
0100
0010
0001
1000
0010
0100
0001
0100
0010
,  // measure 36
1000
0001
0010
0100
1000
0001
1000
0100
0010
0001
1000
0001
0010
0100
1000
0010
,  // measure 37
0100
0001
0100
0010
1000
0001
0010
0100
1000
0001
1000
0100
0010
0001
0010
0100
,  // measure 38
1000
0010
0100
0001
0100
0010
1000
0100
0010
0001
0100
0010
0100
1000
0001
0100
,  // measure 39
0010
1000
0001
0010
0100
1000
0001
0100
0010
1000
0100
0010
0001
1000
0010
0100
,  // measure 40
0001
1000
0100
0010
0001
1000
0010
0100
0001
1000
0001
0010
0100
1000
0001
1000
,  // measure 41
0100
0010
0001
1000
0001
0100
0010
1000
0001
1000
0010
0100
0001
1000
0100
0010
,  // measure 42
0001
0010
0100
1000
0010
0100
0001
0100
0010
1000
0001
1000
0010
0100
1000
0001
,  // measure 43
0100
0010
1000
0001
0100
0010
1000
0001
1000
0100
0010
0001
1000
0001
0010
0100
,  // measure 44
1001
0000
0000
1001
1010
1100
0000
1001
,  // measure 45
0101
0011
0000
1100
0110
1001
0000
0011
,  // measure 46
0110
1001
0110
1100
0011
1100
0000
1100
,  // measure 47
0101
0110
1001
1100
0011
0110
0000
1010
,  // measure 48
1100
0000
0101
0001
0011
0000
1000
0101
,  // measure 49
0110
0000
1001
0001
0110
0000
1000
0101
,  // measure 50
0110
0000
1001
1000
0110
0000
1000
0110
,  // measure 51
0110
0011
0110
1100
1001
0110
1001
0110
,  // measure 52
1000
1000
1100
0000
0100
0010
0110
0000
,  // measure 53
0001
0001
0011
0100
1001
0110
1001
0110
,  // measure 54
2002
0000
0000
0000
,  // measure 55
3003
0000
0000
0000
;
