#TITLE:Way of the Samurai;
#SUBTITLE:;
#ARTIST:Spor;
#TITLETRANSLIT:;
#SUBTITLETRANSLIT:;
#ARTISTTRANSLIT:;
#CREDIT:;
#BANNER:samurai-bn.png;
#BACKGROUND:samurai-bg.png;
#LYRICSPATH:;
#CDTITLE:!aptitle.png;
#MUSIC:spor-way of the samurai.mp3;
#OFFSET:-0.127;
#SAMPLESTART:44.580;
#SAMPLELENGTH:11.114;
#SELECTABLE:YES;
#BPMS:0.000=172.750,88.000=345.500,89.500=172.750,93.000=345.500,95.000=172.750,152.000=345.500,153.500=172.750,157.000=345.500,159.000=172.750,216.000=86.375,227.000=172.750,338.000=86.375;
#STOPS:88.333=0.130
,89.000=0.130
,95.000=0.347
,152.375=0.130
,153.125=0.130
,159.000=0.347
,277.000=1.042
;
#BGCHANGES:;
// cache tags:
#FIRSTBEAT:32.000;
#LASTBEAT:339.000;
#SONGFILENAME:Songs/mongol/way of the samurai/wayofthesamurai.sm;
#HASMUSIC:1;
#HASBANNER:1;
#MUSICLENGTH:128.600;
// end cache tags

//---------------dance-single - ----------------
#NOTES:
     dance-single:
     :
     Challenge:
     12:
     1.000,1.000,1.000,0.684,1.000,829.000,240.000,88.000,0.000,6.000:  // measure 1
0000
0000
0000
0000
,  // measure 2
0000
0000
0000
0000
,  // measure 3
0000
0000
0000
0000
,  // measure 4
0000
0000
0000
0000
,  // measure 5
0000
0000
0000
0000
,  // measure 6
0000
0000
0000
0000
,  // measure 7
0000
0000
0000
0000
,  // measure 8
0000
0000
0000
0000
,  // measure 9
1001
0100
1000
0100
0010
0001
0110
1000
0100
1000
0001
0000
0001
0100
0010
0100
,  // measure 10
0011
1000
0100
0010
0001
0010
1100
0001
0010
0001
0100
0001
1000
0010
0100
0001
,  // measure 11
1010
0000
0000
0000
1000
0000
1001
0000
0000
0000
0202
0303
0202
0303
0202
0303
,  // measure 12
1001
0000
0000
0000
0001
0000
0101
0000
0000
0000
2002
3003
2002
3003
2002
3003
,  // measure 13
0110
0001
0010
0001
1000
0100
0011
0100
0010
0000
1100
0000
0011
0000
0000
0000
,  // measure 14
1001
0010
0001
0100
0010
1000
0110
0000
0000
0000
0011
0000
1010
0000
1000
1000
,  // measure 15
0011
0001
0100
0110
0000
2000
0000
3000
,  // measure 16
1001
0001
0100
0110
0000
0002
0000
0003
,  // measure 17
1001
0000
1000
0000
0010
0000
0110
0000
0010
0100
0001
0100
0010
1000
0100
0010
,  // measure 18
1001
0010
0001
0010
0100
1000
0011
0100
0010
1000
0101
0010
0101
0000
1000
1000
,  // measure 19
0011
0100
0010
1000
0001
0010
1100
0000
0000
0000
0220
0330
0220
0330
0220
0330
,  // measure 20
1001
0000
1000
0100
1000
0100
0011
0000
0000
0000
0220
0330
0220
0330
0220
0330
,  // measure 21
1001
0000
0001
0000
0100
0000
0110
0000
0000
0000
1100
0001
1100
0000
0001
0001
,  // measure 22
0110
0000
1000
0000
0100
0000
1000
0000
0010
0000
0100
0000
0011
0000
0100
0000
0010
0000
1000
0000
0010
0000
0100
0000
0001
0010
0100
1000
0001
0010
0100
1000
,  // measure 23
0012
0000
0000
0010
0000
0000
0013
0000
1001
0000
0000
1100
0000
0000
0011
0000
,  // measure 24
0000
1001
0000
0000
0220
0000
0000
0000
0000
0000
0000
0000
0330
0000
0000
0000
,  // measure 25
1001
0000
1000
1010
0000
0110
0110
0000
,  // measure 26
1001
0000
0000
0000
0000
0000
0000
0000
0101
0000
0000
0000
0110
0000
0000
0000
0000
0000
0000
0000
0110
0000
0000
0000
1000
0100
0010
0001
1000
0100
0010
0001
,  // measure 27
1100
0010
0100
0001
0010
0001
0110
1000
0100
1000
0200
0000
0320
0000
0032
0000
,  // measure 28
1013
0100
0010
1000
0001
0100
0011
1000
0010
0100
0002
0000
0023
0000
0230
0000
,  // measure 29
1301
0000
0011
0101
0000
1100
1010
0000
,  // measure 30
1001
0000
0000
0000
0110
0000
1001
0000
0000
0000
1100
0000
0011
0000
0001
0001
,  // measure 31
1100
0001
0010
0100
0010
0100
0011
0000
0000
0000
2000
0000
0000
0000
3000
0000
,  // measure 32
1001
0100
0001
0010
0001
0010
1100
0000
0000
0000
1000
0100
0001
1000
0100
0001
,  // measure 33
1010
0100
1000
0010
0100
0001
0110
1000
0100
1000
0101
0010
0101
0010
0001
0100
,  // measure 34
1001
0010
0001
0100
0010
1000
0101
0010
0001
0100
1010
0100
1010
0000
0100
0100
,  // measure 35
1001
0000
1000
0000
0100
0000
0011
0000
0000
0000
0022
0033
0022
0033
0022
0033
,  // measure 36
1001
0000
0001
0000
0100
0000
1010
0000
0000
0000
2020
3030
2020
3030
2020
3030
,  // measure 37
1001
0010
0001
0100
0010
1000
0012
0000
0000
0000
0103
0000
0010
0000
0000
0000
,  // measure 38
1001
0000
0010
0000
0001
0000
0100
0000
0010
0000
0100
0000
1010
0000
0100
0000
0010
0000
1000
0000
0001
0000
0100
0000
0001
0010
0100
1000
0001
0010
0100
1000
,  // measure 39
0012
0000
0000
0010
0000
0000
0013
0000
1001
0000
0000
1100
0000
0000
0011
0000
,  // measure 40
0000
0101
0000
0000
0220
0000
0000
0000
0000
0000
0000
0000
0330
0000
0000
0000
,  // measure 41
1001
0000
0000
0000
1000
0000
1010
0000
0000
0000
0010
0000
0110
0001
0000
0001
,  // measure 42
1010
0000
0000
0000
0010
0000
1010
0000
0000
0000
0001
0000
0101
0010
0000
0010
,  // measure 43
1001
0100
1000
0001
0010
0001
0110
1000
0100
0010
0001
0010
0001
0010
0001
0010
,  // measure 44
1001
0100
0010
1000
0010
0100
2002
0000
0000
0000
3003
0000
0000
0000
0000
0000
,  // measure 45
1001
0100
1000
0100
0010
0001
0110
0001
0010
0001
0110
1000
0110
0001
0010
0100
,  // measure 46
1001
0010
0100
0010
0001
0100
1010
0100
1000
0100
0011
1000
0011
0100
0010
0100
,  // measure 47
1001
0010
0001
0100
0010
1000
0101
0010
0001
1000
0100
0010
0002
0000
2003
0000
,  // measure 48
3110
0001
0100
0010
1000
0010
1100
0010
1000
0100
0001
1000
0100
0001
1000
0010
,  // measure 49
2001
0000
3020
0000
0230
0000
0311
0011
,  // measure 50
1001
0000
0000
0000
1100
0000
0011
0000
0000
0000
0011
0000
0001
0010
0001
0010
,  // measure 51
1100
0010
0100
0001
0010
0001
1010
0100
1000
0001
0010
0001
0010
0001
0010
0001
,  // measure 52
1100
0010
0001
0100
0010
1000
0202
0000
0000
0000
0000
0000
0000
0000
0303
0000
,  // measure 53
1001
0000
0000
0000
1100
0000
1010
0000
0000
0000
0002
0003
0002
0003
0000
0000
,  // measure 54
1001
0000
1000
0000
0011
0000
0101
0000
0000
0000
0200
0300
0200
0300
0010
0100
,  // measure 55
1001
0000
0000
0000
,  // measure 56
1000
0000
0100
1000
0000
0010
1000
0000
0100
0000
0010
0100
0000
0001
0100
1000
,  // measure 57
0001
0010
0001
0010
0000
0001
1000
0000
1000
0100
1000
0100
0000
0000
1000
0000
,  // measure 58
0001
0000
0000
0000
0101
0010
1000
0010
0100
0001
0110
1000
0100
1000
0011
0100
,  // measure 59
0011
1000
0100
1000
0110
0001
1000
0100
0010
0001
0110
1000
0010
0100
1001
0010
,  // measure 60
1001
0000
0110
1001
0110
1000
0010
0100
0001
0010
0101
0000
0000
0000
0200
0000
,  // measure 61
0000
0300
0110
0010
1000
1001
0000
0002
,  // measure 62
0000
0000
0003
0000
1001
0100
1000
0010
0100
0001
0110
1000
0100
0010
0101
1000
,  // measure 63
0101
0010
0100
0001
1010
0100
0001
0100
1000
0010
1001
0010
0100
0010
1100
0001
,  // measure 64
1100
0010
0100
0010
1001
0000
1000
0000
0010
0000
0110
0000
0000
0000
0001
0010
,  // measure 65
0001
0010
0001
0010
1100
0000
1000
0000
0010
0000
0110
0000
0000
0000
0000
0000
,  // measure 66
2002
0000
0000
0000
3103
0000
0000
0000
1010
0000
1100
0010
0100
0001
1100
0010
,  // measure 67
1100
0010
0100
0010
0101
0010
0001
0010
0100
1000
0011
0100
0010
1000
0110
0001
,  // measure 68
0110
1000
0100
1000
0100
1000
0000
0000
0001
0010
0001
0010
0001
0010
0001
0010
,  // measure 69
0001
0010
0001
0010
0001
0010
0001
0010
0001
0010
0001
0010
0001
0010
0001
0010
,  // measure 70
0001
0000
0010
0000
0001
0000
0010
0000
2002
3003
0000
0000
0000
0000
0000
0000
1001
0000
0100
0000
1000
0000
0010
0000
0100
0000
0001
0000
0110
0000
1000
0000
,  // measure 71
0100
0010
0001
0100
1001
0110
1001
0110
1001
0010
0001
0100
0010
0100
1001
0100
,  // measure 72
1000
0010
0201
0000
0020
0000
0330
0000
1001
0100
1000
0010
0100
0001
0110
1000
,  // measure 73
0001
0100
0012
0000
0200
0000
0303
0000
1010
0100
1000
0001
0010
0001
0110
1000
,  // measure 74
0100
0010
0101
0010
0001
0010
0001
0010
1100
0010
0100
0001
0100
0010
1001
0100
,  // measure 75
1000
0010
0101
0010
0100
0010
0100
0010
1001
0100
1000
0010
0100
0001
0110
1000
,  // measure 76
0001
0010
2100
0000
0020
0000
3030
0000
1001
0010
0001
0100
0010
1000
0102
0000
,  // measure 77
0000
0000
2003
0000
0020
0000
3030
0000
1001
0100
1000
0010
0100
0001
0110
1000
,  // measure 78
0010
0100
0011
0100
1001
0100
1000
0010
0101
0010
0001
0100
0010
0100
1001
0100
,  // measure 79
0010
0001
0110
1000
0110
0000
1100
0011
1100
0000
1000
0000
0101
0000
0110
0000
,  // measure 80
1000
1002
0020
0033
1001
1000
0110
0101
,  // measure 81
0001
0120
2000
3030
1001
0001
0100
0110
,  // measure 82
0100
0010
1000
0010
0100
0001
1000
0100
0011
0000
0001
0000
1000
0000
1100
0000
,  // measure 83
1000
0100
0001
1000
0110
0001
1000
0010
0101
0000
0020
0000
2030
0000
3101
0000
,  // measure 84
0001
0010
0001
0100
1010
0100
0001
0100
0011
0100
0010
0100
1001
0010
0100
0010
,  // measure 85
1100
0010
1100
0001
1100
0010
1001
0100
0022
0000
0000
0000
0033
0000
0000
0000
;

//---------------dance-single - ----------------
#NOTES:
     dance-single:
     :
     Hard:
     9:
     0.565,0.692,0.412,0.249,0.070,424.000,53.000,32.000,0.000,0.000:  // measure 1
0000
0000
0000
0000
,  // measure 2
0000
0000
0000
0000
,  // measure 3
0000
0000
0000
0000
,  // measure 4
0000
0000
0000
0000
,  // measure 5
0000
0000
0000
0000
,  // measure 6
0000
0000
0000
0000
,  // measure 7
0000
0000
0000
0000
,  // measure 8
0000
0000
0000
0000
,  // measure 9
1000
0100
1000
0010
0000
0010
0100
0001
,  // measure 10
0010
0000
0001
0000
1000
0000
0010
0000
0000
0000
0010
0000
0100
0000
0001
1000
,  // measure 11
0100
0000
0000
0012
0000
0000
1003
0000
,  // measure 12
0010
0000
0000
2100
0000
0000
3001
0000
,  // measure 13
0001
0000
0001
1000
0000
1000
0010
0000
,  // measure 14
0110
0000
0000
0000
0000
0000
0101
0000
0000
0000
0001
0000
0100
0000
0010
1000
,  // measure 15
0001
0000
0000
0012
0000
1000
1003
0000
,  // measure 16
0100
0000
0000
2001
0000
0010
3010
0000
,  // measure 17
0010
0100
0001
1000
0000
1000
0100
0010
,  // measure 18
0001
0000
0010
0000
0001
0000
0100
0000
0010
0000
1000
0000
0100
0000
1000
0001
,  // measure 19
0100
0000
0000
0120
0000
0000
1030
0000
,  // measure 20
0100
0000
0000
2001
0000
0000
3010
0000
,  // measure 21
0100
0001
0010
0001
1000
0100
0001
0100
,  // measure 22
1000
0010
0100
0010
0000
0000
1000
0001
,  // measure 23
0200
0000
0000
0000
0000
0000
0300
0000
0010
0000
0000
0100
0000
0000
0001
0000
,  // measure 24
0000
1000
0000
0000
0200
0000
0000
0000
0000
0000
0000
0000
0300
0000
0000
0000
,  // measure 25
1001
0000
1000
0010
0000
0100
0100
0000
,  // measure 26
0001
0010
0100
1000
0000
0010
0020
0000
,  // measure 27
0130
0001
0010
0100
0010
0002
0000
0000
,  // measure 28
1003
0010
0100
0010
1000
0200
0000
0000
,  // measure 29
0310
0000
0001
1000
0000
0100
0100
0000
,  // measure 30
1000
0000
0000
0000
0001
0000
0100
0000
0000
0000
0010
0000
0010
0000
0100
0001
,  // measure 31
1000
0000
0000
1100
0000
0002
0000
0003
,  // measure 32
1001
0000
0000
0110
0000
0100
0010
1000
,  // measure 33
0001
0000
0010
0001
0000
0100
0100
0000
,  // measure 34
0010
1000
0010
0100
0001
0010
0100
1000
,  // measure 35
0100
0000
0000
0012
0000
0100
0103
0000
,  // measure 36
0010
0000
0000
2010
0000
0100
3100
0000
,  // measure 37
0010
0000
0100
1000
0000
0001
0001
0000
,  // measure 38
0100
0010
1000
0010
0100
0001
0100
0100
,  // measure 39
0020
0000
0000
0000
0000
0000
0030
0000
1000
0000
0000
0100
0000
0000
0010
0000
,  // measure 40
0000
0001
0000
0000
0020
0000
0000
0000
0000
0000
0000
0000
0030
0000
0000
0000
,  // measure 41
1000
0100
1000
0010
0100
0001
0001
0001
,  // measure 42
0110
1000
0100
1000
0000
1000
0010
0000
,  // measure 43
0011
0000
0000
0110
0000
0000
0000
0000
,  // measure 44
1010
0000
0000
0202
0000
0000
0000
0303
,  // measure 45
0001
1000
0100
0001
1000
0010
0001
0000
,  // measure 46
1000
0001
0010
1000
0001
0100
1000
0010
,  // measure 47
0110
0000
0100
0101
0000
0000
1002
0000
,  // measure 48
0103
0000
0100
0110
0000
0010
0100
0001
,  // measure 49
1000
0000
0100
0000
1000
0000
0010
0100
,  // measure 50
0001
0000
0010
0001
0000
0001
0100
0000
,  // measure 51
0010
1000
0001
0010
0001
0100
0000
0000
,  // measure 52
0100
0010
0001
0020
0000
0000
0000
0000
,  // measure 53
1030
0100
0001
0100
1000
0001
0001
0000
,  // measure 54
0001
0000
0100
0001
0000
0010
0010
0000
,  // measure 55
0110
0000
0000
0000
,  // measure 56
1000
0000
0001
0000
,  // measure 57
0100
0000
0000
0010
0000
0100
0010
0000
0010
0000
0000
0100
0001
0000
0010
0000
,  // measure 58
1000
0010
0001
0100
0010
0001
0010
1000
,  // measure 59
1000
0100
0010
0100
0010
0001
1000
0010
,  // measure 60
0010
0000
0100
0001
0010
0000
0000
0000
0000
0000
2100
0000
0000
0000
0001
0000
,  // measure 61
3001
0000
0101
0000
0000
0120
0000
1000
,  // measure 62
1030
0000
1000
0100
0001
1000
0010
0001
,  // measure 63
0001
0100
0010
1000
0001
0010
0001
1000
,  // measure 64
1000
0000
0010
0100
0001
0000
0000
0000
0000
0000
0102
0000
0000
0000
0010
0000
,  // measure 65
0013
0000
1100
0000
0000
2010
0000
0100
,  // measure 66
3200
0000
1300
0000
0001
0010
0000
0001
,  // measure 67
0100
0010
1000
0000
0100
0110
0000
0010
,  // measure 68
0001
0100
0020
0000
0000
0000
0000
0000
,  // measure 69
0000
0000
0000
0000
,  // measure 70
0000
0000
0000
0000
0000
0000
0000
0000
2030
3000
0000
0000
0000
0000
0000
0000
1001
0000
0000
0000
0000
0000
0000
0000
0010
0000
0000
0000
0011
0000
0000
0000
,  // measure 71
0000
0001
0100
0010
1010
0000
0000
2100
,  // measure 72
0000
0010
3010
0100
0011
0000
0000
1020
,  // measure 73
0000
0100
0130
0001
0010
0100
1000
0010
,  // measure 74
0100
0001
0001
0001
1000
0100
0001
1000
,  // measure 75
0010
0001
0001
0001
0100
0010
0000
2010
,  // measure 76
0000
0100
3001
0100
0110
0000
0000
1002
,  // measure 77
0000
0100
0013
0000
1001
0001
0100
0010
,  // measure 78
1000
0010
0001
0010
1000
0000
1000
1100
,  // measure 79
0000
0010
0010
0010
0011
0000
0001
0001
,  // measure 80
0100
0010
1000
1000
0110
0001
0010
0001
,  // measure 81
0100
0010
1000
0100
0011
0001
0100
0110
,  // measure 82
0010
1000
0100
1000
1001
0001
0010
0110
,  // measure 83
0100
1000
1010
0000
0110
0100
0001
1001
,  // measure 84
1000
0000
0100
0000
0110
0000
0000
0000
0011
0000
0001
0000
0001
0000
1000
0100
,  // measure 85
1000
0100
1000
0100
1000
0100
1000
0100
2000
0000
0000
0000
3000
0000
0000
0000
;
