#TITLE:Freedom Dive;
#SUBTITLE:;
#ARTIST:Xi;
#TITLETRANSLIT:;
#SUBTITLETRANSLIT:;
#ARTISTTRANSLIT:;
#CREDIT:;
#BANNER:../bn.png;
#BACKGROUND:../veyron.png;
#LYRICSPATH:;
#CDTITLE:;
#MUSIC:xi_freedom_dive0.ogg;
#OFFSET:0.000;
#SAMPLESTART:53.861;
#SAMPLELENGTH:17.490;
#SELECTABLE:YES;
#BPMS:0.000=222.220;
#STOPS:;
#BGCHANGES:;
// cache tags:
#FIRSTBEAT:4.000;
#LASTBEAT:516.000;
#SONGFILENAME:Songs/Cirque du Veyron/Zaia - Freedom Dive/Freedom Dive.sm;
#HASMUSIC:1;
#HASBANNER:1;
#MUSICLENGTH:146.938;
// end cache tags

//---------------dance-single - Zaia----------------
#NOTES:
     dance-single:
     Zaia:
     Challenge:
     17:
     1.000,1.000,0.061,0.544,1.000,1617.000,9.000,80.000,0.000,0.000:
0000
0000
0000
0000
,
1000
0000
0001
0000
1000
0100
1000
0000
0001
0000
1000
0000
0010
0100
0010
0000
,
0100
0000
0001
0000
1000
0100
1000
0000
0001
0000
0010
0000
0001
1000
0001
0000
,
0100
0000
0010
0000
1000
0010
1000
0000
0001
0000
0100
0000
0001
1000
0001
0000
,
1000
0000
0100
0000
0010
0001
0010
0000
0100
0000
1000
0000
0001
0010
0001
1000
,
0001
0000
0100
0000
0010
0100
0010
0000
1000
0000
0001
0000
0010
0001
0010
0000
,
0100
0000
1000
0000
0001
0100
0001
0000
1000
0000
0100
0000
0010
0100
0010
0000
,
0100
0000
1000
0000
0001
1000
0001
0000
0100
0000
0010
0000
1000
0010
1000
0000
,
0001
0000
1000
0000
0001
0100
0001
0000
1000
0100
0010
0001
1000
0001
0100
0010
,
1000
0000
0001
0000
0100
0001
0100
0000
0010
0000
1000
0000
0001
0010
0001
0000
,
0100
0000
0001
0000
1000
0010
1000
0000
0100
0000
0010
0000
0001
0010
0001
0000
,
0010
0000
0100
0000
1000
0001
1000
0000
0100
0000
0010
0000
0100
1000
0100
0000
,
1000
0000
0001
0000
0100
0001
0100
0000
0001
1000
0001
0000
1000
0100
1000
0001
,
1000
0000
0010
0000
0100
0001
0100
0000
0001
0000
1000
0000
0100
0010
0100
0000
,
1000
0000
0001
0000
1000
0010
1000
0000
0100
0000
0010
0000
0001
1000
0001
0000
,
0010
0000
0001
0000
1000
0010
1000
0000
0001
0000
0100
0000
0010
0100
0010
0000
,
1000
0000
0001
0000
0100
0001
0100
0000
0001
0000
1000
0000
0100
0010
0001
1000
,
0001
0100
0001
0010
0001
0100
0001
1000
,
0100
1000
0010
1000
0100
1000
0010
1000
,
0001
0100
0010
1000
0010
0100
0001
1000
,
0100
0010
0001
0010
0100
1000
0001
0010
,
0001
1000
0001
0100
0001
0010
0100
1000
,
0010
1000
0001
0100
0001
0010
0001
1000
,
1010
0110
0101
0011
,
0110
1100
1001
1010
,
1000
0010
0100
0001
1000
0010
1000
0001
0010
0001
1000
0100
1000
0001
0010
0100
,
1000
0001
1000
0100
0010
0100
1000
0001
0100
0001
0100
0010
1000
0001
0010
0100
,
1000
0010
0100
0001
1000
0010
0100
0010
1000
0001
0010
0001
1000
0100
0010
0100
,
1000
0010
0100
0001
0100
0010
1000
0001
0100
0010
0100
0010
1000
0001
0010
0100
,
0010
0001
1000
0100
0010
0100
1000
0001
1000
0010
1000
0010
0100
0010
0100
0010
,
0100
0001
0100
0001
1000
0001
1000
0001
1000
0100
1000
0100
0010
0100
0010
0100
,
0010
0001
0010
0001
1000
0001
1000
0001
0100
0010
0100
0010
1000
0001
1000
0001
,
1000
0010
1000
0010
0100
0001
0100
0001
1000
0001
1000
0001
1000
0001
1000
0001
,
1000
0100
0010
0001
0010
0100
1000
0001
1000
0010
0100
0001
1000
0100
1000
0010
,
0100
0001
1000
0100
0010
0100
1000
0001
0100
0010
0100
0001
1000
0010
1000
0001
,
1000
0001
0010
0100
0010
0001
1000
0010
0100
0001
1000
0100
1000
0001
0010
0001
,
0100
0010
0100
0001
1000
0010
0100
0001
1000
0100
0010
0001
1000
0001
0010
0100
,
1000
0001
1000
0001
0010
0100
1000
0001
1000
0001
0010
0100
1000
0001
1000
0001
,
1000
0010
0100
0001
1000
0001
1000
0010
0100
0001
1000
0001
1000
0100
0010
0001
,
1000
0100
1000
0010
0100
0001
0010
0100
1000
0001
0010
0001
1000
0010
0100
0010
,
0100
0001
1000
0100
0010
0001
1000
0010
1000
0001
0100
0001
1000
0010
0100
0001
,
1000
0100
1000
0010
1000
0100
1000
0001
,
0010
0001
0100
0001
0100
0010
1000
0001
1000
0100
0010
0100
1000
0001
1000
0010
,
0100
0001
0100
0010
1000
0100
1000
0010
,
1000
0001
0010
0001
0100
0001
1000
0100
,
0010
0100
1000
0001
0010
0001
1000
0001
,
0100
0010
1000
0001
1000
0100
0010
0100
,
1000
0010
0100
0001
0010
0001
0100
0001
,
1000
0100
1000
0010
0100
0001
0010
0100
,
1000
0100
0010
0001
1000
0100
0010
0001
,
1000
0000
0010
0000
0100
0000
0010
0000
1000
0000
0010
0000
0100
0001
0010
0100
,
1000
0001
1000
0010
0100
0001
1000
0001
,
0010
0001
0100
0010
1000
0100
0010
0100
,
2000
3010
0200
0301
2000
3010
2000
3001
,
0020
0031
0200
0301
2000
3100
2000
3010
,
0100
0010
1000
0001
0100
0010
0100
0001
,
1000
0100
0010
0100
1000
0010
0100
0001
,
2000
0000
0000
3000
0000
0000
0000
0000
0000
0000
0000
0000
0000
0000
0000
0000
0000
0000
0000
0000
0000
0000
0000
0000
0200
0000
0000
0000
0300
0000
0000
0000
0000
0000
0000
0000
0000
0000
0000
0000
0000
0000
0000
0000
0000
0000
0000
0000
0020
0000
0000
0000
0000
0000
0030
0000
0000
0000
0000
0000
0000
0000
0000
0000
0000
0000
0000
0000
0000
0000
0000
0000
0002
0000
0000
0000
0000
0000
0000
0000
0003
0000
0000
0000
0000
0000
0000
0000
0000
0000
0000
0000
0000
0000
0000
0000
2000
0000
0000
0000
0000
0000
3000
0000
0000
0000
0000
0000
0000
0000
0000
0000
0000
0000
0000
0000
0000
0000
0000
0000
0200
0000
0000
0000
0000
0000
0000
0000
0300
0000
0000
0000
0000
0000
0000
0000
0000
0000
0000
0000
0000
0000
0000
0000
0020
0000
0000
0000
0000
0000
0000
0000
0000
0000
0000
0000
0030
0000
0000
0000
0000
0000
0000
0000
0000
0000
0000
0000
0002
0000
0000
0000
0000
0000
0000
0000
0000
0000
0000
0000
0000
0000
0000
0000
0003
0000
0000
0000
0000
0000
0000
0000
,
2000
0000
0000
0000
0000
0000
0000
0000
0000
0000
0000
0000
3000
0000
0000
0000
0000
0000
0000
0000
0000
0000
0000
0000
0020
0000
0000
0000
0000
0000
0000
0000
0000
0000
0000
0000
0000
0000
0000
0000
0030
0000
0000
0000
0000
0000
0000
0000
0200
0000
0000
0000
0000
0000
0000
0000
0000
0000
0000
0000
0000
0000
0000
0000
0000
0000
0000
0000
0000
0000
0000
0000
0302
0000
0000
0000
0000
0000
0000
0000
0000
0000
0000
0000
0000
0000
0000
0000
0000
0000
0000
0000
0000
0000
0000
0000
0023
0000
0000
0000
0000
0000
0000
0000
0000
0000
0000
0000
0030
0000
0000
0000
0000
0000
0000
0000
0000
0000
0000
0000
0002
0000
0000
0000
0000
0000
0000
0000
0003
0000
0000
0000
0000
0000
0000
0000
0000
0000
0000
0000
0000
0000
0000
0000
0200
0000
0000
0000
0000
0000
0300
0000
0000
0000
0000
0000
0000
0000
0000
0000
0000
0000
0000
0000
0000
0000
0000
0000
0020
0000
0000
0030
0000
0000
0000
0000
0000
0000
0000
0000
0000
0000
0000
0000
0000
0000
0000
0000
0000
0000
0000
0000
,
1000
0100
0010
0001
1000
0100
1000
0001
0100
0001
1000
0010
1000
0001
0100
0010
,
1000
0001
1000
0010
0100
0010
1000
0001
0010
0001
0010
0100
1000
0001
0100
0010
,
1000
0100
0010
0001
1000
0100
0010
0100
1000
0001
0100
0001
1000
0010
0100
0010
,
1000
0100
0010
0001
0010
0100
1000
0001
0010
0100
0010
0100
1000
0001
0100
0010
,
0100
0001
1000
0010
0100
0010
1000
0001
1000
0100
1000
0100
0010
0100
0010
0100
,
0010
0001
0010
0001
1000
0001
1000
0001
1000
0010
1000
0010
0100
0010
0100
0010
,
0100
0001
0100
0001
1000
0001
1000
0001
0010
0100
0010
0100
1000
0001
1000
0001
,
1000
0100
1000
0100
0010
0001
0010
0001
1000
0001
1000
0001
1000
0001
1000
0001
,
1000
0010
0100
0001
0100
0010
1000
0001
1000
0100
0010
0001
1000
0010
1000
0100
,
0010
0001
1000
0010
0100
0010
1000
0001
0010
0100
0010
0001
1000
0100
1000
0001
,
1000
0001
0100
0010
0100
0001
1000
0100
0010
0001
1000
0010
1000
0001
0100
0001
,
0010
0100
0010
0001
1000
0100
0010
0001
1000
0010
0100
0001
1000
0001
0100
0010
,
1000
0001
1000
0001
0100
0010
1000
0001
1000
0001
0100
0010
1000
0001
1000
0001
,
1000
0100
0010
0001
1000
0001
1000
0100
0010
0001
1000
0001
1000
0010
0100
0001
,
1000
0010
1000
0100
0010
0001
0100
0010
1000
0001
0100
0001
1000
0100
0010
0100
,
0010
0001
1000
0010
0100
0001
1000
0100
1000
0001
0010
0001
1000
0100
0010
0001
,
2000
3200
0320
0230
2300
3002
0203
0320
,
2030
3002
0203
0302
0023
0230
2300
3200
,
2300
3002
0203
0320
2030
3002
0203
0302
,
2003
3200
0320
0032
0023
0230
2300
3020
,
0230
0302
0203
0320
2030
3002
2003
3020
,
0230
0302
2003
3200
2300
3002
0023
0032
,
2003
0000
3020
0000
0230
0000
0302
0000
2003
0000
3200
0000
0320
0000
0031
1000
,
0100
1000
0100
1000
0100
1000
0100
1000
,
0001
0100
0001
0100
0001
0100
0001
0100
,
0010
1000
0010
1000
0010
1000
0010
1000
,
0001
0010
0001
0010
0001
0010
0001
0010
,
0001
0010
0001
0010
0001
1000
0001
1000
0010
1000
0010
1000
0010
0100
0010
0100
,
0001
0100
0001
0100
0001
1000
0001
1000
0100
1000
0100
1000
0001
0010
0001
0010
,
0100
0010
0100
0010
0100
1000
0100
1000
0001
1000
0001
1000
0001
0100
0001
0100
,
0010
1000
0010
1000
0001
1000
0001
1000
0001
0010
0001
0010
0100
0010
0100
0010
,
0100
1000
0100
1000
0001
1000
0010
0100
0001
1000
0001
0100
0010
0000
0000
0000
,
1000
0010
0100
0001
1000
0010
1000
0001
0010
0001
1000
0100
1000
0001
0010
0100
,
1000
0001
1000
0100
0010
0100
1000
0001
0100
0001
0100
0010
1000
0001
0010
0100
,
1000
0010
0100
0001
1000
0010
0100
0010
1000
0001
0010
0001
1000
0100
0010
0100
,
1000
0010
0100
0001
0100
0010
1000
0001
0100
0010
0100
0010
1000
0001
0010
0100
,
0010
0001
1000
0100
0010
0100
1000
0001
1000
0010
1000
0010
0100
0010
0100
0010
,
0100
0001
0100
0001
1000
0001
1000
0001
1000
0100
1000
0100
0010
0100
0010
0100
,
0010
0001
0010
0001
1000
0001
1000
0001
0100
0010
0100
0010
1000
0001
1000
0001
,
1000
0010
1000
0010
0100
0001
0100
0001
1000
0001
1000
0001
1000
0001
1000
0001
,
1000
0100
0010
0001
0010
0100
1000
0001
1000
0010
0100
0001
1000
0100
1000
0010
,
0100
0001
1000
0100
0010
0100
1000
0001
0100
0010
0100
0001
1000
0010
1000
0001
,
1000
0001
0010
0100
0010
0001
1000
0010
0100
0001
1000
0100
1000
0001
0010
0001
,
0100
0010
0100
0001
1000
0010
0100
0001
1000
0100
0010
0001
1000
0001
0010
0100
,
1000
0001
1000
0001
0010
0100
1000
0001
1000
0001
0010
0100
1000
0001
1000
0001
,
1000
0010
0100
0001
1000
0001
1000
0010
0100
0001
1000
0001
1000
0100
0010
0001
,
1000
0100
1000
0010
0100
0001
0010
0100
1000
0001
0010
0001
1000
0010
0100
0010
,
0100
0001
1000
0100
0010
0001
1000
0010
1000
0001
0100
0001
1000
0010
0100
0001
,
1000
0100
0010
0001
1000
0100
1000
0001
0010
0001
1000
0010
1000
0001
0100
0010
,
1000
0001
1000
0010
0100
0010
1000
0001
0010
0001
0010
0100
1000
0001
0100
0010
,
1000
0100
0010
0001
1000
0100
0010
0100
1000
0001
0100
0001
1000
0010
0100
0010
,
1000
0100
0010
0001
0010
0100
1000
0001
0010
0100
0010
0100
1000
0001
0100
0010
,
0100
0001
1000
0010
0100
0010
1000
0001
1000
0100
1000
0100
0010
0100
0010
0100
,
0010
0001
0010
0001
1000
0001
1000
0001
1000
0010
1000
0010
0100
0010
0100
0010
,
0100
0001
0100
0001
1000
0001
1000
0001
0010
0100
0010
0100
1000
0001
1000
0001
,
1000
0100
1000
0100
0010
0001
0010
0001
1000
0001
1000
0001
1000
0001
1000
0001
,
1000
0010
0100
0001
0100
0010
1000
0001
1000
0100
0010
0001
1000
0010
1000
0100
,
0010
0001
1000
0010
0100
0010
1000
0001
0010
0100
0010
0001
1000
0100
1000
0001
,
1000
0001
0100
0010
0100
0001
1000
0100
0010
0001
1000
0010
1000
0001
0100
0001
,
0010
0100
0010
0001
1000
0100
0010
0001
1000
0010
0100
0001
1000
0001
0100
0010
,
1000
0001
1000
0001
0100
0010
1000
0001
1000
0001
0100
0010
1000
0001
1000
0001
,
1000
0100
0010
0001
1000
0001
1000
0100
0010
0001
1000
0001
1000
0010
0100
0001
,
1000
0010
1000
0100
0010
0001
0100
0010
1000
0001
0100
0001
1000
0100
0010
0100
,
0010
0001
1000
0010
0100
0001
1000
0100
1000
0001
0010
0001
1000
0100
0010
0001
,
1000
0010
0100
0001
1000
0010
0100
0001
,
1000
0100
0010
0001
1000
0100
0010
0001
,
1000
0100
1000
0001
0010
0001
1000
0001
1000
0001
0100
0010
1000
0001
0010
0001
,
0010
0100
1000
0001
0100
0010
1000
0010
0100
0001
1000
0010
1000
0001
0100
0010
,
2000
0000
0000
0000
,
0000
0000
0000
3000
,
1001
0000
0000
0000
;
