#TITLE:The Legend of Mario;
#SUBTITLE:;
#ARTIST:MaxX OmegA;
#TITLETRANSLIT:;
#SUBTITLETRANSLIT:;
#ARTISTTRANSLIT:;
#CREDIT:;
#BANNER:thelegendofmario-bn.png;
#BACKGROUND:thelegendofmario-bg.png;
#LYRICSPATH:;
#CDTITLE:cdtitle.png;
#MUSIC:-MaxX OmegA- The Legend of Mario.mp3;
#OFFSET:-0.120;
#SAMPLESTART:62.040;
#SAMPLELENGTH:12.000;
#SELECTABLE:YES;
#BPMS:0.000=125.000;
#STOPS:;
#BGCHANGES:;
// cache tags:
#FIRSTBEAT:1.000;
#LASTBEAT:200.500;
#SONGFILENAME:Songs/juju steps/The Legend of Mario/The Legend of Mario.sm;
#HASMUSIC:1;
#HASBANNER:1;
#MUSICLENGTH:98.298;
// end cache tags

//---------------dance-single - ----------------
#NOTES:
     dance-single:
     :
     Medium:
     9:
     0.716,0.637,0.010,0.020,0.982,490.000,1.000,2.000,0.000,0.000:

0000
0000
0000
0000
1000
0000
0010
0000
0100
0000
0001
0000
0100
0000
1000
0010
,
0000
0001
0100
1000
0010
0000
0100
0000
0010
0000
0100
0000
0001
0000
0100
1000
,
0000
1000
0100
0010
0001
0000
0100
0000
1000
0000
0010
0000
0001
0000
0100
1000
,
0000
0010
0100
1000
0001
0000
0100
0000
0010
0000
1000
0000
0001
0000
0100
1000
,
0000
1000
0100
0010
0001
0000
0010
0000
1000
0000
0010
0000
0001
0000
0010
1000
,
0000
0001
0100
0010
1000
0000
0100
0000
0001
0000
0100
0000
0010
0000
1000
0001
,
0000
0100
0010
1000
0001
0000
0100
0000
0010
0000
0100
0000
1000
0000
0010
0100
,
0000
0100
0001
1000
0010
0000
0010
0000
0100
0000
0001
0000
1000
0000
0010
0001
,
0000
0100
1000
0010
0100
0000
0001
0000
1000
0000
0010
0000
0001
0000
0100
1000
,
0000
1000
0010
0100
0001
0000
1000
0000
0010
0000
1000
0000
0100
0000
0001
1000
,
0000
1000
0010
0100
0001
0000
0010
0000
0100
0000
0001
0000
1000
0000
0001
0100
,
0000
0100
0001
0010
1000
0000
0100
0000
0000
0010
0000
0000
0001
0000
0000
0000
,
0000
0000
0000
0000
0010
0000
0100
0000
1000
0000
0001
0000
0100
0000
0010
1000
,
0000
1000
0100
0001
0100
0000
1000
0000
0010
0000
0100
0000
0001
0000
0100
1000
,
0000
0010
0100
0010
0001
0000
0100
0000
0001
0000
1000
0000
0010
0000
0100
1000
,
0000
0001
0100
0010
1000
0000
0100
0000
0010
0000
0100
0000
0001
0000
0100
1000
,
0000
0010
1000
0010
0100
0001
1000
0000
0010
0100
0001
0000
1000
0100
0001
0000
,
1000
0010
0100
0000
0001
0010
1000
0000
0001
1000
0100
0000
1000
0010
0100
0000
,
0100
0010
0001
0000
0100
1000
0001
0000
0010
1000
0001
0000
0100
1000
0001
0000
,
1000
0001
0100
0000
0010
1000
0010
0000
0100
1000
0001
0000
1000
0100
1000
0000
,
0001
0010
0100
0000
1000
0100
0010
0000
0100
0010
0001
0000
0100
1000
0010
0000
,
0100
0001
0100
0000
1000
0010
0100
0000
0001
1000
0010
0000
1000
0100
0010
0000
,
0100
0001
1000
0000
0010
0100
0001
0000
1000
0001
1000
0000
0010
0100
0001
0000
,
1000
0010
0100
0000
0001
1000
0100
0000
0100
0010
0001
0000
0100
1000
0010
0000
,
0001
0010
0100
0000
0001
0100
1000
0000
0010
0100
0001
0000
1000
0010
1000
0000
,
0100
0010
1000
0000
0001
0100
0001
0000
0010
0100
0001
0000
1000
0010
0100
0000
,
0010
1000
0001
0000
0100
0010
0100
0000
0001
0010
1000
0000
0100
0010
0001
0000
,
1000
0100
0010
0000
0001
0000
0010
0000
0000
0100
0000
0000
1000
0000
0000
0000
,
0000
0000
0000
0000
0001
0010
1000
0000
0001
0100
1000
0000
0010
0100
0001
0000
,
0100
1000
0010
0000
0100
0001
1000
0000
1000
0100
0010
0000
0100
0001
1000
0000
,
0010
0100
0001
0000
1000
0010
0100
0000
0100
0010
0001
0000
0100
1000
0010
0000
,
0010
0100
0001
0000
0100
1000
0010
0000
0100
0001
0100
0000
0010
1000
0100
0000
,
0010
0001
1000
0000
0100
0000
0000
0010
0000
0000
1000
0000
0000
0001
0000
0100
,
0000
0000
0000
1000
0000
0000
0010
0000
0000
0000
0000
0000
0100
0000
0000
0000
0001
0000
0000
0000
1000
0000
0000
0000
0010
0000
0000
0000
0000
0000
0100
0000
0000
0001
0000
0000
0000
0000
0000
1000
0000
0000
0000
0000
0000
0010
0000
0000
,
0100
0001
0000
0000
0010
0000
0000
0100
0000
0000
1000
0000
0000
0010
0000
0100
,
0000
0000
0000
1000
0000
0000
0001
0000
0000
0000
0000
0000
0100
0000
0000
0000
0010
0000
0000
0000
1000
0000
0000
0000
0001
0000
0000
0000
0000
0000
0100
0000
0000
0010
0000
0000
0000
0000
0000
1000
0000
0000
0000
0000
0000
0001
0000
0000
,
0100
1000
0000
0000
0010
0000
0100
0001
1000
0010
0000
0100
0000
0100
1000
0010
,
0000
0010
0100
1000
0000
0000
0001
0100
1000
0010
0000
0100
0000
0001
0000
0010
,
0100
0000
0000
0000
1000
0000
0010
0100
0001
1000
0000
0010
0000
0100
1000
0001
,
0000
0100
0010
1000
0000
0000
0001
0000
0000
0010
0000
0000
1000
0000
0000
0000
,
0000
0000
0000
0000
0100
0000
1000
0100
0010
0001
0000
0001
0000
0010
0100
1000
,
0000
0001
0100
1000
0000
0000
0010
0100
0001
1000
0000
0100
0000
0001
0000
0100
,
1000
0000
0000
0000
0010
0000
0100
1000
0001
0100
0000
0010
0000
0100
1000
0001
,
0000
0100
0010
1000
0000
0000
0001
0000
0000
1000
0000
0000
0010
0000
0000
0000
,
0000
0000
0000
0000
0000
0000
0000
0000
0000
0000
0000
0000
0100
0000
0000
1000
0000
0000
0000
0000
0000
0001
0000
0000
0000
0000
0000
0100
0000
0000
0010
0000
0000
0000
0000
0000
1000
0000
0000
0000
0100
0000
0000
0000
0010
0000
0000
0000
,
0001
0000
0000
0000
0100
1000
0000
0010
0000
0100
0001
0000
1000
0000
0000
0000
,
0000
0000
0000
0000
0000
0000
0000
0000
0000
0000
0000
0000
0010
0000
0000
0100
0000
0000
0000
0000
0000
1000
0000
0000
0000
0000
0000
0001
0000
0000
0100
0000
0000
0000
0000
0000
1000
0000
0000
0000
0001
0000
0000
0000
0010
0000
0000
0000
,
0100
0000
0000
0000
0001
1000
0000
0100
0000
0001
1000
0000
0010
0000
0000
0000
,
0100
0000
0000
0000
0001
0100
0000
1000
0000
0010
0100
0000
0001
0010
0000
1000
,
0000
0000
0000
0100
0000
0000
0001
0000
0000
0000
0000
0000
1000
0000
0000
0000
0001
0000
0000
0000
0100
0000
0000
0000
0010
0000
0000
0000
1000
0000
0000
0000
0100
0000
0000
0000
2002
0000
0000
0000
0000
0000
0000
0000
0000
0000
0000
0000
,
0003
3000
0000
0000
0000
0000
0000
0000
;

//---------------dance-single - ----------------
#NOTES:
     dance-single:
     :
     Hard:
     10:
     0.690,0.688,0.387,0.020,1.000,435.000,38.000,2.000,0.000,0.000:



0000
0000
0000
0000
0011
0000
0000
1001
0000
0000
1100
0000
0000
0010
0000
0100
,
0000
0000
0000
1000
0000
0000
0010
0000
0000
0000
0000
0000
0100
0000
0000
0000
0010
0000
0000
0000
0001
0000
0000
0000
0100
0000
0000
0000
0000
0000
1000
0000
0000
0100
0000
0000
0000
0000
0000
0100
0000
0000
0000
0000
0000
0010
0000
0000
,
0001
0100
0000
0000
1010
0000
0000
0011
0000
0000
0101
0000
0000
0010
0000
0100
,
0000
0000
0000
1000
0000
0000
0010
0000
0000
0000
0000
0000
0001
0000
0000
0000
0010
0000
0000
0000
1000
0000
0000
0000
0001
0000
0000
0000
0000
0000
0100
0000
0000
0010
0000
0000
0000
0000
0000
1000
0000
0000
0000
0000
0000
0100
0000
0000
,
1000
0001
0000
0000
0110
0000
1000
0001
1000
0010
0000
0100
0000
1000
0100
0010
,
0000
0100
0010
0001
0000
0000
1000
0001
0010
1000
0000
0100
0000
0010
0000
0010
,
0100
0000
0000
0000
0000
0000
0001
0100
1000
0010
0000
0100
0000
1000
0001
1000
,
0000
0010
0100
0001
0000
0000
0110
0000
0000
1010
0000
0000
0011
0000
0000
0000
,
0000
0000
0000
0000
1010
0000
0100
0001
0100
1000
0000
0010
0000
0100
1000
0010
,
0000
0100
0001
1000
0000
0000
0010
1000
0010
0100
0000
0100
0000
0001
0000
0010
,
0100
0000
0000
0000
0000
0000
0100
1000
0010
0100
0000
0001
0000
0100
1000
0010
,
0000
0100
0001
0010
0000
0000
1100
0000
0000
0101
0000
0000
0011
0000
0000
0000
,
0000
0000
0000
0000
0000
0000
0000
0000
0000
0000
0000
0000
0100
0000
0000
1000
0000
0000
0000
0000
0000
1000
0000
0000
0000
0000
0000
0100
0000
0000
0010
0000
0000
0000
0000
0000
0001
0000
0000
0000
0010
0000
0000
0000
0100
0000
0000
0000
,
1000
0000
0000
0000
0010
0100
0000
0100
0000
0001
0010
0000
1000
0000
0000
0000
,
0000
0000
0000
0000
0000
0000
0000
0000
0000
0000
0000
0000
0100
0000
0000
0001
0000
0000
0000
0000
0000
1000
0000
0000
0000
0000
0000
0010
0000
0000
0100
0000
0000
0000
0000
0000
0001
0000
0000
0000
1000
0000
0000
0000
0010
0000
0000
0000
,
0100
0000
0000
0000
1000
0100
0000
0010
0000
0100
0001
0000
1000
0000
0000
0000
,
0001
0000
0000
0000
1000
0010
1000
0010
0100
0001
0100
1000
0010
1000
0010
0100
,
0001
0000
0000
0100
0000
0000
1000
0000
0000
0010
0000
0000
0100
0000
0000
0000
0001
0000
0000
0000
0100
0000
0000
0000
1000
0000
0000
0000
0000
0000
0010
0000
0000
0100
0000
0000
0000
0000
0000
1000
0000
0000
0000
0000
0000
0010
0000
0000
,
0100
0001
0000
0000
0010
0100
1000
0001
0100
0010
0001
0100
1000
0010
1000
0010
,
0100
0000
0000
0001
0000
0000
0010
0000
0000
0100
0000
0000
1000
0000
0000
0000
0010
0000
0000
0000
0001
0000
0000
0000
0100
0000
0000
0000
0000
0000
1000
0000
0000
0010
0000
0000
0000
0000
0000
0100
0000
0000
0000
0000
0000
0001
0000
0000
,
0100
1000
0000
0000
0011
0000
0100
1000
0010
0100
0000
0010
0000
0100
0001
0100
,
0000
0100
1000
0010
0000
0000
0100
0010
0001
0100
0000
1000
0000
0010
0000
0100
,
0001
0000
0000
0000
0000
0000
0001
0010
0100
1000
0000
0010
0000
0100
0001
1000
,
0000
0010
0100
0001
0000
0000
1010
0000
0000
0110
0000
0000
1001
0000
0000
0000
,
0000
0000
0000
0000
0110
0000
1000
0010
0100
0001
0000
0100
0000
0010
0100
1000
,
0000
0010
0100
0001
0000
0000
0100
1000
0010
0100
0000
0001
0000
0100
0000
1000
,
0010
0000
0000
0000
0000
0000
0100
1000
0010
0001
0000
0100
0000
1000
0010
0001
,
0000
0100
0010
1000
0000
0000
0011
0000
0000
0110
0000
0000
1100
0000
0000
0000
,
0000
0000
0000
0000
0000
0000
0000
0000
0000
0000
0000
0000
1000
0000
0000
0010
0000
0000
0000
0000
0000
0010
0000
0000
0000
0000
0000
0010
0000
0000
0100
0000
0000
0000
0000
0000
1000
0000
0000
0000
0010
0000
0000
0000
0100
0000
0000
0000
,
0001
0000
0000
0000
0000
0000
0000
0000
0000
0000
0000
0000
0010
0000
0000
0000
1000
0000
0000
0000
0000
0001
0000
0000
0000
0000
0000
0100
0000
0000
1000
0000
0000
0000
0000
0000
0010
0000
0000
0000
0000
0000
0000
0000
0000
0000
0000
0000
,
0000
0000
0000
0000
0000
0000
0000
0000
0000
0000
0000
0000
0001
0000
0000
0100
0000
0000
0000
0000
0000
1000
0000
0000
0000
0000
0000
0010
0000
0000
0100
0000
0000
0000
0000
0000
1000
0000
0000
0000
0010
0000
0000
0000
0001
0000
0000
0000
,
0100
0000
0000
0000
0010
1000
0000
1000
0000
0100
0001
0000
0100
0000
0000
0000
,
0010
0000
0000
0000
0101
0000
0000
0011
0000
0000
1010
0000
0000
0100
0000
0001
,
0000
0000
0000
0100
0000
0000
1000
0000
0000
0000
0000
0000
0010
0000
0000
0000
0100
0000
0000
0000
0001
0000
0000
0000
0010
0000
0000
0000
0000
0000
0000
0000
0000
0100
0000
0000
1000
0000
0000
0000
0000
0000
1000
0000
0000
0000
0000
0000
,
0100
0010
0001
0000
1010
0000
0000
0011
0000
0000
1001
0000
0000
0100
0000
0001
,
0000
0000
0000
0100
0000
0000
1000
0000
0000
0000
0000
0000
0010
0000
0000
0000
0100
0000
0000
0000
0010
0000
0000
0000
1000
0000
0000
0000
0000
0000
0001
0000
0000
0100
0000
0000
0000
0000
0000
0010
0000
0000
0000
0000
0000
0100
0000
0000
,
0001
1000
0000
0000
0110
0000
0001
1000
0010
1000
0000
0100
0000
0010
1000
0001
,
0000
0100
0010
1000
0000
0000
0001
0100
0010
0001
0000
0100
0000
1000
0000
1000
,
0100
0000
0000
0000
0101
0000
0010
0100
0001
1000
0000
0100
0000
0010
0100
0001
,
0000
0010
1000
0001
0000
0000
0110
0000
0000
1001
0000
0000
1001
0000
0000
0000
,
0000
0000
0000
0000
1010
0000
0001
0100
0001
0100
0000
1000
0000
1000
0100
0010
,
0000
0100
0010
0001
0000
0000
0100
1000
0010
0100
0000
0001
0000
0100
0000
0100
,
1000
0000
0000
0000
0000
0000
0010
1000
0001
0100
0000
1000
0000
0010
1000
0100
,
0000
0100
0010
0001
0000
0000
1010
0000
0000
0011
0000
0000
1001
0000
0000
0000
,
0000
0000
0000
0000
0000
0000
0000
0000
0000
0000
0000
0000
0010
0000
0000
1000
0000
0000
0000
0000
0000
0100
0000
0000
0000
0000
0000
0100
0000
0000
0010
0000
0000
0000
0000
0000
0001
0000
0000
0000
0010
0000
0000
0000
0100
0000
0000
0000
,
1000
0000
0000
0000
0001
0100
0000
0100
0000
1000
0010
0000
0001
0000
0000
0000
,
0000
0000
0000
0000
0000
0000
0000
0000
0000
0000
0000
0000
0010
0000
0000
1000
0000
0000
0000
0000
0000
0001
0000
0000
0000
0000
0000
0100
0000
0000
1000
0000
0000
0000
0000
0000
0010
0000
0000
0000
0100
0000
0000
0000
0001
0000
0000
0000
,
1000
0000
0000
0000
0010
0100
0000
0001
0000
1000
0100
0000
0001
0000
0000
0000
,
0010
0000
0000
0000
1000
0100
0000
0010
0000
0001
0100
0000
1000
0010
0000
0100
,
0000
0000
0000
0001
0000
0000
1000
0000
0000
0000
0000
0000
0010
0000
0000
0000
0100
0000
0000
0000
0001
0000
0000
0000
1000
0000
0000
0000
0010
0000
0000
0000
0100
0000
0000
0000
2002
0000
0000
0000
0000
0000
0000
0000
0000
0000
0000
0000
,
0003
3000
0000
0000
0000
0000
0000
0000
;

//---------------dance-single - ----------------
#NOTES:
     dance-single:
     :
     Challenge:
     11:
     1.000,1.000,1.000,0.020,1.000,656.000,280.000,2.000,0.000,0.000:




0000
0000
0000
0000
0001
0001
0010
0000
0100
0100
0001
0000
1000
1000
0010
0000
,
0100
0100
1000
0000
0010
0010
0100
0000
1000
1000
0001
0000
0100
0100
0010
0000
,
0001
0001
0100
0000
0100
0100
1000
0000
0010
0010
0100
0000
1000
1000
0010
0000
,
0100
0100
1000
0000
0010
0010
0001
0000
0100
0100
0010
0000
0100
0100
1000
0000
,
0010
0010
0100
0000
0001
0001
1000
0000
0100
0100
0001
0000
0010
0010
0100
0000
,
0001
0001
1000
0000
0100
0100
1000
0000
1000
1000
0100
0000
0100
0100
0001
0000
,
0010
0010
1000
0000
0100
0100
0001
0000
0010
0010
0001
0000
0100
0100
0010
0000
,
0100
0100
0001
0000
0100
0100
1000
0000
0010
0010
1000
0000
0100
0100
1000
0000
,
0001
0001
1000
0000
1000
1000
0010
0000
0010
0010
0100
0000
0100
0100
0001
0000
,
1000
1000
0010
0000
0100
0100
0001
0000
1000
1000
0100
0000
0001
0001
0100
0000
,
0010
0010
0100
0000
0001
0001
1000
0000
0100
0100
1000
0000
0010
0010
0100
0000
,
0010
0010
0001
0000
0100
0100
1000
0000
0010
0010
0001
0000
0100
0100
0001
0000
,
0010
0010
1000
0000
0100
0100
1000
0000
0010
0010
0100
0000
0001
0001
0100
0000
,
1000
1000
0010
0000
0100
0100
0001
0000
0001
0001
0010
0000
0100
0100
0001
0000
,
1000
1000
0010
0000
0100
0100
1000
0000
1000
1000
0010
0000
0010
0010
0100
0000
,
0100
0100
1000
0000
1000
1000
0001
0000
0001
0001
0100
0000
0100
0100
0010
0000
,
0010
0010
1000
0000
0101
0010
1000
0001
0110
0001
1000
0101
1000
0110
0001
1100
,
0010
0000
0000
0101
0000
0000
1100
0000
0000
0000
0000
0000
0011
0000
0000
0000
0110
0000
0000
0000
1001
0000
0000
0000
1100
0000
0000
0000
0000
0000
0110
0000
0000
1001
0000
0000
0000
0000
0000
0011
0000
0000
0000
0000
0000
1100
0000
0000
,
0110
1001
0100
0010
1001
0010
0100
0011
1000
0010
1100
0010
0001
1010
0001
0110
,
1000
0000
0000
0011
0000
0000
0110
0000
0000
0000
0000
0000
1100
0000
0000
0000
0110
0000
0000
0000
0011
0000
0000
0000
1001
0000
0000
0000
0000
0000
0110
0000
0000
0101
0000
0000
0000
0000
0000
0011
0000
0000
0000
0000
0000
1100
0000
0000
,
1010
0101
0000
0000
0011
0100
1010
0101
0011
0110
1000
0101
0001
1100
0110
0011
,
1000
1100
0110
1001
0010
0100
0011
1100
0110
1001
0010
0101
1000
0110
0000
0011
,
1010
0000
0000
0000
0010
0100
1010
0011
0101
1100
0010
0101
1000
0011
0110
1100
,
0001
0110
1001
1100
0010
0100
0011
0100
1000
0110
0001
0010
1100
0010
0001
0100
,
0010
0100
1000
0001
0100
0010
0101
0110
1100
0011
0100
1010
0001
1100
0110
0011
,
0100
1010
0011
0110
1000
0001
0110
0011
1010
0011
0100
1010
0001
1100
0000
0110
,
1001
0000
0000
0000
0010
0100
1001
0110
0011
1010
0100
0011
1000
0011
1100
0110
,
0001
1100
1010
0101
0010
1000
0101
0010
1000
0011
0100
0010
1001
0100
0010
1000
,
0001
0000
0000
0010
0000
0000
0100
0000
0000
1000
0000
0000
0011
0000
0000
0110
0000
0000
0000
0000
0000
1001
0000
0000
0000
0000
0000
1010
0000
0000
0101
0000
0000
0000
0000
0000
0011
0000
0000
0000
1001
0000
0000
0000
0110
0000
0000
0000
,
1100
0000
0000
0000
1010
0110
0000
0011
0000
1001
0101
0000
1100
0010
0001
0100
,
0010
0000
0000
1000
0000
0000
0001
0000
0000
0010
0000
0000
1100
0000
0000
0011
0000
0000
0000
0000
0000
0110
0000
0000
0000
0000
0000
1001
0000
0000
0011
0000
0000
0000
0000
0000
1100
0000
0000
0000
0011
0000
0000
0000
0110
0000
0000
0000
,
1001
0000
0000
0000
1100
1001
0000
1100
0000
0011
0110
0000
1001
0010
0100
1000
,
0011
0100
0010
1000
0101
0010
0100
0011
1000
0100
1010
0001
0100
1010
0001
0110
,
1000
0000
0000
0011
0000
0000
0110
0000
0000
0000
0000
0000
0011
0000
0000
0000
1100
0000
0000
0000
0011
0000
0000
0000
1001
0000
0000
0000
0000
0000
0011
0000
0000
0101
0000
0000
1000
0000
0000
0110
0000
0000
0001
0000
0000
1100
0000
0000
,
1010
0101
0010
0100
1001
0010
0100
0011
1000
0100
1010
0001
0100
0011
0100
1001
,
0010
0000
0000
1100
0000
0000
0011
0000
0000
0000
0000
0000
0110
0000
0000
0000
1010
0000
0000
0000
0101
0000
0000
0000
1001
0000
0000
0010
0000
0000
0101
0000
0000
1010
0000
0000
0100
0000
0000
0011
0000
0000
1000
0000
0000
0110
0000
0000
,
1001
1100
0010
0001
0100
1000
0110
0011
0110
1100
0001
0110
1000
0101
0011
1100
,
0010
0101
1010
0011
0100
0010
1001
0110
1100
0110
0001
0110
1000
0101
1000
0110
,
0110
0001
0010
0100
1000
0100
0101
0011
0110
1100
0001
0110
0001
1100
1010
0101
,
0001
0110
1010
0101
1000
0100
0011
0100
1000
0110
0001
1000
0101
0010
0100
1000
,
0100
0010
0001
0100
0010
1000
0011
0110
0101
1100
0010
0101
1000
0011
0110
1100
,
0010
0101
1100
0110
0001
0100
1010
0011
0110
1001
0100
0011
1000
0110
0001
1100
,
0110
1000
0100
0010
0001
0100
1010
0011
1100
0110
0001
1100
0010
0101
1100
0011
,
0100
1010
0011
0110
1000
0100
0011
0100
1000
0110
0001
0100
1001
0010
0100
0001
,
1000
0000
0000
0010
0000
0000
0100
0000
0000
1000
0000
0000
0101
0000
0000
0011
0000
0000
0000
0000
0000
1010
0000
0000
0000
0000
0000
0011
0000
0000
0110
0000
0000
0000
0000
0000
1001
0000
0000
0000
0011
0000
0000
0000
1100
0000
0000
0000
,
0110
0000
0000
0000
1010
0101
0000
0110
0000
1100
0011
0000
0101
1000
0010
0100
,
0001
0000
0000
0010
0000
0000
0100
0000
0000
1000
0000
0000
0011
0000
0000
0110
0000
0000
0000
0000
0000
0101
0000
0000
0000
0000
0000
1100
0000
0000
0110
0000
0000
0000
0000
0000
1100
0000
0000
0000
0110
0000
0000
0000
0011
0000
0000
0000
,
1100
0000
0000
0000
0110
1001
0000
0011
0000
1010
0101
0000
0110
0001
0010
1000
,
0101
0010
1000
0100
0011
1001
0000
0011
0000
1010
0110
0000
0011
1001
0000
0011
,
0000
0000
0000
1010
0000
0000
0110
0000
0000
0000
0000
0000
1010
0000
0000
0000
0011
0000
0000
0000
0110
0000
0000
0000
1001
0000
0000
0000
1100
0000
0000
0000
0110
0000
0000
0000
2002
0000
0000
0000
0000
0000
0000
0000
0000
0000
0000
0000
,
0003
3000
0000
0000
0000
0000
0000
0000
;
