#TITLE:Firstmode;
#SUBTITLE:;
#ARTIST:Kobaryo;
#TITLETRANSLIT:;
#SUBTITLETRANSLIT:;
#ARTISTTRANSLIT:;
#CREDIT:;
#BANNER:../Banner.png;
#BACKGROUND:../BG.png;
#LYRICSPATH:;
#CDTITLE:../CDTitleBRAEDEN.png;
#MUSIC:Firstmode.ogg;
#OFFSET:1.013;
#SAMPLESTART:56.310;
#SAMPLELENGTH:20.400;
#SELECTABLE:YES;
#BPMS:0.000=180.000,44.000=360.000,172.000=180.000,204.000=360.000;
#STOPS:;
#BGCHANGES:;
// cache tags:
#FIRSTBEAT:6.000;
#LASTBEAT:716.000;
#SONGFILENAME:Songs/Index Tesseract/Firstmode - [Braeden]/Firstmode.sm;
#HASMUSIC:1;
#HASBANNER:1;
#MUSICLENGTH:140.695;
// end cache tags

//---------------dance-single - Happy Feet----------------
#NOTES:
     dance-single:
     Happy Feet:
     Challenge:
     37:
     1.000,1.000,0.405,0.761,1.000,1533.000,57.000,107.000,55.000,2.000:

0000
0000
0000
0000
,
0000
0000
0000
0000
0000
0000
MMMM
MMMM
00MM
0000
0000
0000
,
0000
0000
0000
MMM0
0MMM
MMM0
0000
0000
0000
0000
0000
0000
,
MMMM
MMMM
0000
0000
0000
0000
0000
0000
0000
MMM0
0MMM
0M00
,
0000
0000
0000
0000
0000
0000
MMM0
0MMM
0000
0000
0000
0000
,
0000
0000
0000
MMMM
0M00
0000
0000
0000
0000
0000
0000
0000
,
MMMM
0000
0000
MMM0
,
0000
0000
0MM0
0000
,
0000
0000
M000
0000
,
2002
0000
0000
0000
,
0000
0000
0000
3003
,
1000
0100
0010
0001
0010
0100
1000
0001
0100
0010
0100
0001
0010
0100
1000
0001
,
0100
0010
1000
0100
0010
0100
1000
0001
0010
0100
1000
0001
0100
0010
1000
0001
,
0010
0001
1000
0100
0010
0001
0010
0100
1000
0001
0010
0001
1000
0100
0010
0100
,
1000
0001
0100
0010
1000
0001
0010
0100
1000
0001
0100
0010
1000
0100
0010
0100
,
0010
0001
0010
0100
1000
0010
0100
0010
1000
0100
0010
0100
1000
0001
0010
0100
,
1000
0001
0100
0010
1000
0001
0010
0001
1000
0100
0010
0001
1000
0100
1000
0001
,
0010
0100
1000
0001
0100
0010
1000
0100
0010
0001
0010
0100
1000
0001
0100
0010
,
1000
0000
0100
0010
0000
0010
0002
0000
,
1003
0100
1000
0001
1000
0100
0010
0001
0010
0100
1000
0001
0100
0010
1000
0100
,
0010
0100
1000
0001
0010
0100
1000
0001
0010
0001
1000
0100
0010
0001
1000
0100
,
1000
0001
0100
0010
0100
0001
1000
0001
0010
0001
1000
0100
0010
0100
1000
0001
,
0010
0100
1000
0001
0010
0001
1000
0100
0010
0001
1000
0010
1000
0001
0010
0100
,
1000
0010
0100
0001
1000
0100
0010
0100
1000
0001
0010
0100
1000
0001
0100
0010
,
1000
0100
0010
0100
1000
0001
0010
0100
1000
0001
0100
0010
1000
0100
0010
0001
,
0100
0010
1000
0001
,
4000
0000
3010
0400
0000
0301
0400
0000
,
0310
1000
0100
0010
0001
0010
0100
1000
0001
0000
0000
0000
1000
0000
0100
0000
,
0010
0000
0001
0000
1000
0010
0100
0001
1000
0000
0000
0000
0001
0000
0010
0000
,
0100
0000
1000
0000
0001
0100
0010
1000
0001
0000
0000
0000
1000
0000
0100
0000
,
0010
0000
0001
0000
0010
0100
1000
0001
0100
0000
0000
0000
0010
0000
1000
0000
,
0001
0010
0100
1000
0001
0100
0010
1000
0001
0000
0000
0000
1000
0000
0100
0000
,
0010
0000
0001
0000
0010
0100
1000
0001
0100
0000
0000
0000
0010
0000
1000
0000
,
0001
0010
0100
1000
0001
0100
0010
1000
0100
0000
0000
0000
0010
0000
0100
0000
,
0010
0000
0100
0000
0001
0100
0010
1000
0001
0000
0000
0000
1000
0000
0001
0000
,
0100
0010
1000
0001
0010
0100
1000
0001
0010
0001
1000
0010
0100
0001
0010
0001
,
1000
0100
0010
0100
1000
0001
0010
0100
1000
0001
0100
0010
1000
0100
0010
0100
,
1000
0001
0010
0100
1000
0001
0100
0010
1000
0001
0010
0001
1000
0100
0010
0100
,
1000
0001
0010
0100
1000
0001
0100
0010
1000
0001
0100
0010
1000
0000
0001
0000
,
1000
0100
0010
0100
1000
0001
0100
0010
,
1000
0100
0010
0100
1000
0001
0100
0010
,
1000
0010
0100
0010
0400
0000
0301
1000
,
0100
0010
0400
0000
0300
0000
0000
0000
,
2001
0000
3020
0000
,
0230
0000
0302
0000
,
1103
1000
0001
0100
0110
0010
1000
0001
,
1001
0010
0100
0010
0110
1000
0100
1000
,
2100
3002
0203
0310
2100
3002
0203
0310
,
2010
3020
0230
0301
0101
0020
2030
3010
,
2000
3200
2300
3200
0320
0032
0023
0032
,
0203
0320
0230
0320
2030
3200
2300
3002
,
1003
0100
0010
0001
0010
0100
1000
0001
0010
0001
1000
0010
0100
0001
0010
0001
,
1000
0100
0010
0100
0010
0100
1000
0001
0100
0010
1000
0001
0010
0100
1000
0001
,
0010
0001
1000
0100
0010
0001
1000
0010
0100
0001
0010
0100
1000
0001
0100
0010
,
1000
0100
0010
0100
1000
0001
0010
0100
1000
0001
0100
0010
1000
0100
0010
0001
,
0100
0010
1000
0001
0010
0100
1000
0001
0100
0010
1000
0100
0010
0100
1000
0001
,
0010
0100
1000
0001
0100
0010
1000
0001
0100
0010
1000
0100
0010
0100
1000
0001
,
0010
0100
1000
0001
0100
0010
0100
0001
1000
0100
0010
0001
0100
0010
1000
0010
,
1000
0000
0100
0010
0000
0001
0200
0000
,
0301
0010
0100
1000
0001
0100
0010
1000
0100
0010
0100
1000
0001
0010
0100
1000
,
0001
0100
0010
0100
0001
0010
0100
1000
0001
0100
0010
1000
0100
0010
0100
1000
,
0001
0010
0100
1000
0001
0100
0010
1000
0001
0010
0100
1000
0001
0100
0010
0100
,
0001
1000
0100
0010
0100
1000
0001
0010
0100
1000
0001
0100
0010
1000
0100
0010
,
0001
0010
0100
1000
0001
0100
0010
1000
0001
0010
0100
1000
0001
0100
0010
1000
,
0100
0010
0100
1000
0001
0010
0100
1000
0001
0100
0010
1000
0100
0010
0001
1000
,
0001
0100
0010
1000
,
0004
0000
0000
0403
0000
0000
0340
0000
,
1030
0100
0010
0100
1000
0001
0010
0100
,
1000
0001
0100
0010
0100
0001
1000
0100
,
0010
0100
1000
0001
0100
0010
1000
0100
,
0010
0100
1000
0001
0100
0010
1000
0100
,
0010
0100
1000
0001
0010
0100
1000
0001
,
1000
0100
0010
0100
1000
0001
0010
0100
,
1000
0001
0100
0010
0100
0001
1000
0100
,
0010
0000
0001
0100
0000
0010
4000
0000
,
3001
0010
0100
1000
0001
0100
0010
1000
0100
0010
0100
1000
0001
0100
0010
1000
,
0100
0010
0100
1000
0001
0010
0100
1000
0001
0010
0001
1000
0100
0010
0001
1000
,
0100
1000
0001
0010
0100
1000
0001
0100
0010
1000
0001
0100
0010
1000
0100
0010
,
0100
1000
0001
0010
0100
1000
0001
0100
0010
1000
0001
0010
0001
1000
0100
1000
,
0001
0010
0100
1000
0001
0100
0001
1000
0010
0100
0001
1000
0100
0010
0100
1000
,
0001
0010
0100
1000
0001
0100
0010
1000
0100
0010
0100
1000
0001
0010
0100
1000
,
0010
0100
0001
0100
0040
4030
3010
0400
,
0304
0103
0010
1000
,
1001
0002
0203
0320
,
0030
2000
3200
0320
,
0030
0002
0203
0320
,
2030
3020
2030
3020
,
2030
3020
0230
0302
,
0003
2000
3200
0320
,
0030
0001
0010
0100
,
2000
3020
0230
0302
,
1003
0020
0230
0302
,
0003
0020
0230
2300
,
3000
0002
0203
0320
,
2030
3200
0320
0230
,
2300
3002
0203
0320
,
0030
2000
3200
0320
,
0030
0002
0203
0320
,
2030
3200
0320
0031
,
1000
0100
0010
0100
1000
0001
0010
0100
1000
0001
0100
0010
1000
0100
0010
0001
,
0010
0100
1000
0001
0100
0010
1000
0001
0010
0100
1000
0001
0100
0010
1000
0100
,
0010
0100
1000
0001
0010
0100
1000
0001
0010
0100
1000
0001
0010
0100
1000
0001
,
0100
0010
1000
0100
0010
0001
1000
0010
0100
0001
0010
0001
1000
0100
0010
0100
,
1000
0010
0100
0001
0010
0100
1000
0001
0100
0010
1000
0001
0010
0001
1000
0100
,
0010
0100
1000
0001
0010
0100
1000
0001
0100
0010
1000
0100
0010
0100
1000
0001
,
0010
0100
1000
0001
0100
0010
1000
0100
0010
0100
1000
0001
0010
0100
1000
0001
,
0100
0010
1000
0100
0010
0100
1000
0001
0010
0100
1000
0001
0100
0010
1000
0100
,
2000
3200
0320
0032
1003
0010
0100
0001
2000
3200
0320
0032
1003
0010
0100
0001
,
2000
3200
0320
0032
1003
0010
0100
0001
2000
3200
0320
0032
1003
0010
0100
0001
,
0010
0100
1000
0001
0100
0010
1000
0001
0100
0010
1000
0001
1000
0100
0010
0001
,
0010
0100
1000
0001
0100
0010
1000
0001
0100
0010
1000
0100
0010
0001
1000
0010
,
0100
0002
0203
0302
,
0003
0200
2300
3002
,
1013
0000
1001
0000
,
0110
0000
1001
0000
,
1010
0000
0000
0010
0000
0000
0100
0000
,
0000
0001
0000
0000
0100
0000
0010
0000
,
1000
0000
0001
0000
0000
0100
0000
0000
,
0010
0000
0000
1000
0000
0000
0010
0000
,
0100
0000
0000
0001
0000
0000
0100
0000
,
0000
0010
0000
0000
1000
0000
0010
0000
,
0100
0001
1000
0000
0000
1000
0000
0000
,
1000
0000
0000
0100
0000
0000
0010
0000
,
1001
0000
0000
0010
0000
0000
0100
0000
,
0000
0001
0000
0000
1000
0000
0010
0000
,
1001
1000
0010
0000
0000
0100
0000
0000
,
0001
0000
0000
0100
0000
0000
0010
0000
,
1001
0000
0000
0010
0000
0000
0100
0000
,
1001
0000
0000
0010
0000
0000
0100
0000
,
0001
1000
0010
0000
0000
0100
0000
0000
,
0001
0000
0000
0100
0000
0000
0010
0000
,
1000
0100
0010
0100
1000
0001
0010
0100
1000
0001
0100
0010
1000
0100
0010
0100
,
1000
0001
0010
0100
1000
0001
0010
0001
1000
0010
0100
0001
0010
0001
1000
0100
,
0010
0100
1000
0001
0100
0010
1000
0001
0100
0010
1000
0100
0010
0100
1000
0001
,
0100
0010
1000
0001
0010
0001
1000
0100
0010
0100
1000
0001
0010
0100
1000
0001
,
0100
0010
1000
0100
0010
0100
1000
0001
0010
0100
1000
0001
0100
0010
1000
0100
,
0010
0100
1000
0001
0010
0100
1000
0001
0100
0010
1000
0010
0100
0001
1000
0010
,
1000
0010
0100
0000
0110
0000
0001
0000
,
1000
0000
0010
0100
0000
0100
0004
0000
,
1003
0100
0010
0001
0010
0100
1000
0001
0100
0010
1000
0100
0010
0100
1000
0001
,
0100
0010
1000
0100
0010
0100
1000
0001
0010
0100
1000
0010
1000
0100
0010
0001
,
1000
0001
0100
0000
0010
1000
0000
1000
,
0010
0000
0010
0100
0000
0100
0001
1000
,
0100
1000
0001
0010
0100
1000
0001
0100
0010
1000
0100
0010
0100
1000
0001
0010
,
0100
1000
0001
0100
0010
0100
0001
1000
0100
0010
0100
1000
0001
0010
0100
1000
,
0001
0100
0010
1000
0400
0000
0310
0001
,
0400
0000
0040
0330
,
1000
0100
0010
0100
1000
0001
0100
0010
,
1000
0000
0100
0000
0010
0000
0100
0000
1000
0000
0001
0000
0100
0010
0100
0001
,
1000
0100
0010
0100
1000
0001
0010
0100
,
1000
0000
0001
0000
0100
0000
0010
0000
1000
0100
0010
0100
1000
0100
0010
0100
,
1000
0001
0100
0010
1000
0001
0100
0010
,
1000
0000
0100
0000
0010
0000
0100
0000
1000
0000
0001
0000
0100
0010
0100
0001
,
0100
0010
1000
0100
0010
0100
1000
0001
,
0100
0000
0010
0000
1000
0100
0010
0100
1000
0000
0001
0000
0400
0000
0000
0000
,
1300
0010
0100
0001
1000
0100
0010
0100
,
1000
0001
0100
0010
0100
0001
1000
0100
,
0010
0100
1000
0001
0010
0100
1000
0001
,
0100
0010
1000
0100
0010
0100
1000
0001
,
0100
0010
1000
0001
0010
0100
1000
0001
,
0100
0010
0100
0001
1000
0100
0010
0001
,
1000
0000
0100
0000
0010
0000
0100
0000
1000
0001
0100
0010
1000
0000
0010
0000
,
0100
0010
1001
0000
,
1100
0000
1000
0000
1001
0000
1000
0100
,
0010
0001
0100
0010
1010
0000
0100
0001
,
0101
0000
0010
0000
1010
0000
1000
0100
,
0010
0001
0100
0010
1010
0000
0100
0000
,
0101
0000
0001
0010
1001
0000
1000
0010
,
0100
0001
1000
0001
1001
0000
1000
0000
,
1001
0000
0001
0100
1010
0000
1000
0100
,
0010
0001
0100
0010
1010
0000
0100
0000
,
0101
0000
0010
0000
1010
0000
1000
0100
,
0011
0100
1000
0001
1001
0000
0100
0000
,
0101
0000
0010
0000
1010
0000
1000
0100
,
0011
0100
1000
0001
1001
0000
1000
0000
,
0001
0100
0010
1000
,
0100
0000
0000
0010
0000
0000
0100
0000
,
1001
0010
0100
0001
,
1001
0000
1000
0010
0000
0100
0001
0000
,
0110
0000
0000
0000
;
